osu file format v12

[General]
AudioFilename: FictionJunction KEIKO - Houseki.mp3
AudioLeadIn: 0
PreviewTime: 33690
Countdown: 0
SampleSet: Normal
StackLeniency: 0.7
Mode: 0
LetterboxInBreaks: 0
WidescreenStoryboard: 0

[Editor]
DistanceSpacing: 0.6
BeatDivisor: 4
GridSize: 4
TimelineZoom: 1

[Metadata]
Title:Houseki
TitleUnicode:宝石
Artist:FictionJunction KEIKO
ArtistUnicode:FictionJunction KEIKO
Creator:Lizbeth
Version:Walking
Source:Le Portrait de Petit Cossette
Tags:kajiura Yuki Keiko Kubota 窪田啓子 Everlasting Songs
BeatmapID:134466
BeatmapSetID:34090

[Difficulty]
HPDrainRate:4
CircleSize:4
OverallDifficulty:5
ApproachRate:6
SliderMultiplier:1.2
SliderTickRate:1

[Events]
//Background and Video events
0,0,"astomoe.jpg",0,0
//Break Periods
2,80760,83729
2,182952,184046
//Storyboard Layer 0 (Background)
//Storyboard Layer 1 (Fail)
//Storyboard Layer 2 (Pass)
//Storyboard Layer 3 (Foreground)
//Storyboard Sound Samples
//Background Colour Transformations
3,100,163,162,255

[TimingPoints]
3222,468.75,3,1,2,20,1,0
5917,-100,3,1,2,40,0,0
6151,-100,3,1,2,20,0,0
8729,-100,3,1,2,40,0,0
8964,-100,3,1,2,20,0,0
11542,-100,3,1,2,40,0,0
11776,-100,3,1,2,20,0,0
13182,-100,3,1,2,15,0,0
14354,-100,3,1,2,40,0,0
14589,-100,3,1,2,20,0,0
16229,-100,3,1,2,15,0,0
17167,-100,3,1,2,40,0,0
17401,-100,3,1,2,20,0,0
19979,-100,3,1,2,40,0,0
20214,-100,3,1,2,20,0,0
22909,-90.9090909090909,3,1,2,30,0,0
23143,-90.9090909090909,3,1,2,20,0,0
25604,-90.9090909090909,3,1,2,30,0,0
25839,-90.9090909090909,3,1,2,20,0,0
28417,-90.9090909090909,3,1,2,30,0,0
28651,-90.9090909090909,3,1,2,20,0,0
31229,-90.9090909090909,3,1,2,30,0,0
31464,-90.9090909090909,3,1,2,20,0,0
32636,-90.9090909090909,3,1,2,40,0,0
33104,-90.9090909090909,3,1,2,25,0,0
33573,-90.9090909090909,3,1,2,35,0,0
34159,-83.3333333333333,3,2,1,60,0,1
34276,-83.3333333333333,3,1,2,30,0,1
36854,-83.3333333333333,3,1,2,40,0,1
37089,-83.3333333333333,3,1,2,30,0,1
39667,-83.3333333333333,3,2,1,60,0,1
39779,468.75,3,2,2,5,1,1
39896,-83.3333333333333,3,1,2,30,0,1
42474,-83.3333333333333,3,1,2,40,0,1
42709,-83.3333333333333,3,1,2,30,0,1
45287,-83.3333333333333,3,2,1,60,0,1
45521,-83.3333333333333,3,1,2,30,0,1
48099,-83.3333333333333,3,1,2,40,0,1
48334,-83.3333333333333,3,1,2,30,0,1
50912,-83.3333333333333,3,2,1,60,0,1
51146,-83.3333333333333,3,1,2,30,0,1
53724,-83.3333333333333,3,1,2,40,0,1
53959,-83.3333333333333,3,1,2,30,0,1
56420,-83.3333333333333,3,1,2,30,0,0
56654,-83.3333333333333,3,2,1,60,0,1
56771,-83.3333333333333,3,1,2,30,0,1
59349,-83.3333333333333,3,1,2,40,0,1
59584,-83.3333333333333,3,1,2,30,0,1
62162,-83.3333333333333,3,2,1,60,0,1
62396,-83.3333333333333,3,1,2,30,0,1
64974,-83.3333333333333,3,1,2,40,0,1
65209,-83.3333333333333,3,1,2,30,0,1
67787,-83.3333333333333,3,2,1,60,0,1
68021,-83.3333333333333,3,1,2,30,0,1
70599,-83.3333333333333,3,1,2,40,0,1
70834,-83.3333333333333,3,1,2,30,0,1
73412,-83.3333333333333,3,2,1,60,0,1
73646,-83.3333333333333,3,1,2,30,0,1
76342,-83.3333333333333,3,1,2,20,0,0
76459,-83.3333333333333,3,2,2,30,0,0
80560,-83.3333333333333,3,2,2,5,0,0
84784,468.75,3,2,2,20,1,0
87479,-100,3,1,2,40,0,0
87714,-100,3,1,2,20,0,0
90292,-100,3,1,2,40,0,0
90526,-100,3,1,2,20,0,0
93104,-100,3,1,2,40,0,0
93339,-100,3,1,2,20,0,0
94979,-100,3,1,2,15,0,0
95917,-100,3,1,2,40,0,0
96151,-100,3,1,2,20,0,0
97792,-100,3,1,2,15,0,0
98729,-100,3,1,2,40,0,0
98964,-100,3,1,2,20,0,0
101542,-100,3,1,2,40,0,0
101776,-100,3,1,2,20,0,0
104472,-90.9090909090909,3,1,2,30,0,0
104706,-90.9090909090909,3,1,2,20,0,0
107167,-90.9090909090909,3,1,2,30,0,0
107401,-90.9090909090909,3,1,2,20,0,0
109511,-90.9090909090909,3,1,2,30,0,0
110214,-90.9090909090909,3,1,2,20,0,0
112792,-90.9090909090909,3,1,2,30,0,0
113026,-90.9090909090909,3,1,2,20,0,0
113729,-90.9090909090909,3,1,2,40,0,0
114081,-90.9090909090909,3,1,2,30,0,0
114432,-90.9090909090909,3,1,2,20,0,0
115136,-90.9090909090909,3,1,2,30,0,0
115722,-83.3333333333333,3,2,1,60,0,1
115839,-83.3333333333333,3,1,2,30,0,1
118417,-83.3333333333333,3,1,2,50,0,1
118651,-83.3333333333333,3,1,2,30,0,1
121229,-83.3333333333333,3,2,1,60,0,1
121464,-83.3333333333333,3,1,2,30,0,1
124042,-83.3333333333333,3,1,2,50,0,1
124276,-83.3333333333333,3,1,2,30,0,1
126854,-83.3333333333333,3,2,1,60,0,1
127089,-83.3333333333333,3,1,2,30,0,1
129667,-83.3333333333333,3,1,2,50,0,1
129901,-83.3333333333333,3,1,2,30,0,1
132479,-83.3333333333333,3,2,1,60,0,1
132714,-83.3333333333333,3,1,2,30,0,1
135292,-83.3333333333333,3,1,2,50,0,1
135526,-83.3333333333333,3,1,2,30,0,1
138104,-83.3333333333333,3,1,2,30,0,0
138222,-83.3333333333333,3,1,2,30,0,1
138339,-83.3333333333333,3,1,2,30,0,1
140917,-83.3333333333333,3,1,2,50,0,1
141151,-83.3333333333333,3,1,2,30,0,1
143729,-83.3333333333333,3,2,1,60,0,1
143964,-83.3333333333333,3,1,2,30,0,1
146542,-83.3333333333333,3,1,2,50,0,1
146776,-83.3333333333333,3,1,2,30,0,1
149354,-83.3333333333333,3,2,1,60,0,1
149589,-83.3333333333333,3,1,2,30,0,1
152167,-83.3333333333333,3,1,2,50,0,1
152401,-83.3333333333333,3,1,2,30,0,1
154979,-83.3333333333333,3,2,1,60,0,1
155214,-83.3333333333333,3,1,2,30,0,1
157909,-83.3333333333333,3,1,2,50,0,0
158026,-83.3333333333333,3,1,2,20,0,0
159081,-83.3333333333333,3,1,2,30,0,0
159550,-83.3333333333333,3,1,2,20,0,0
160722,-83.3333333333333,3,2,1,60,0,0
160839,-83.3333333333333,3,1,2,20,0,0
162011,-83.3333333333333,3,1,2,40,0,0
162245,-83.3333333333333,3,1,2,20,0,0
163534,-83.3333333333333,3,1,2,50,0,0
163651,-83.3333333333333,3,1,2,20,0,0
164120,-83.3333333333333,3,1,2,40,0,0
164354,-83.3333333333333,3,1,2,20,0,0
165878,-83.3333333333333,3,1,2,30,0,0
166347,-83.3333333333333,3,2,1,60,0,0
166464,-83.3333333333333,3,1,2,20,0,0
166932,-83.3333333333333,3,1,2,40,0,0
167167,-83.3333333333333,3,1,2,20,0,0
167636,-83.3333333333333,3,1,2,40,0,0
167870,-83.3333333333333,3,1,2,20,0,0
169159,-83.3333333333333,3,1,2,50,0,0
169276,-83.3333333333333,3,1,2,20,0,0
170448,-83.3333333333333,3,1,2,40,0,0
170682,-83.3333333333333,3,1,2,20,0,0
171972,-83.3333333333333,3,2,1,60,0,0
172089,-83.3333333333333,3,1,2,20,0,0
172792,-83.3333333333333,3,1,2,20,0,0
173261,-83.3333333333333,3,1,2,40,0,0
173495,-83.3333333333333,3,1,2,20,0,0
174784,-83.3333333333333,3,1,2,50,0,0
174901,-83.3333333333333,3,1,2,20,0,0
175487,-83.3333333333333,3,1,2,20,0,0
175604,-83.3333333333333,3,1,2,20,0,0
176073,-83.3333333333333,3,1,2,40,0,0
176307,-83.3333333333333,3,1,2,20,0,0
177597,-83.3333333333333,3,2,1,60,0,0
177714,-83.3333333333333,3,2,2,30,0,0
178417,-83.3333333333333,3,1,2,20,0,0
178768,-83.3333333333333,3,1,2,30,0,0
179120,-83.3333333333333,3,2,2,30,0,0
179823,-83.3333333333333,3,1,2,20,0,0
180526,-83.3333333333333,3,2,2,30,0,0
181229,-200,3,2,2,30,0,0
181464,-200,3,2,2,15,0,0
184862,-83.3333333333333,3,2,2,15,0,0
185917,-83.3333333333333,3,1,2,50,0,0
186151,-83.3333333333333,3,1,2,20,0,0
187323,-83.3333333333333,3,1,2,50,0,0
187557,-83.3333333333333,3,1,2,20,0,0
190136,-83.3333333333333,3,1,2,50,0,0
190370,-83.3333333333333,3,1,2,20,0,0
191659,-83.3333333333333,3,2,1,60,0,0
191776,-83.3333333333333,3,1,2,20,0,0
192831,-83.3333333333333,3,1,2,40,0,0
193182,-83.3333333333333,3,1,2,20,0,0
194354,-83.3333333333333,3,1,2,50,0,0
194589,-83.3333333333333,3,1,2,20,0,0
195761,-83.3333333333333,3,1,2,50,0,0
195995,-83.3333333333333,3,1,2,20,0,0
197284,-83.3333333333333,3,2,1,60,0,0
197401,-83.3333333333333,3,1,2,20,0,0
198573,-83.3333333333333,3,1,2,50,0,0
199276,-83.3333333333333,3,1,2,20,0,0
201386,-83.3333333333333,3,1,2,50,0,0
201620,-83.3333333333333,3,1,2,20,0,0
201854,-83.3333333333333,3,1,2,30,0,0
202089,-83.3333333333333,3,1,2,20,0,0
202909,-83.3333333333333,3,2,1,60,0,0
203026,-83.3333333333333,3,1,2,20,0,0
204198,-83.3333333333333,3,1,2,60,0,0
204432,-83.3333333333333,3,1,2,20,0,0
205956,-83.3333333333333,3,1,2,40,0,0
206307,-83.3333333333333,3,1,2,20,0,0
206542,-83.3333333333333,3,1,2,40,0,0
206776,-83.3333333333333,3,1,2,20,0,0
207011,-83.3333333333333,3,1,2,20,0,0
207245,-83.3333333333333,3,1,2,20,0,0
207479,-83.3333333333333,3,1,2,20,0,0
207948,-83.3333333333333,3,1,2,30,0,0
208534,-83.3333333333333,3,1,2,50,0,1
208651,-83.3333333333333,3,1,2,30,0,1
211229,-83.3333333333333,3,2,1,60,0,1
211464,-83.3333333333333,3,1,2,30,0,1
214042,-83.3333333333333,3,1,2,50,0,1
214276,-83.3333333333333,3,1,2,30,0,1
216854,-83.3333333333333,3,1,2,50,0,1
217089,-83.3333333333333,3,1,2,30,0,1
219667,-83.3333333333333,3,2,1,60,0,1
219901,-83.3333333333333,3,1,2,30,0,1
222479,-83.3333333333333,3,1,2,50,0,1
222714,-83.3333333333333,3,1,2,30,0,1
225292,-83.3333333333333,3,2,1,60,0,1
225526,-83.3333333333333,3,1,2,30,0,1
228104,-83.3333333333333,3,1,2,50,0,1
228339,-83.3333333333333,3,1,2,30,0,1
229862,-83.3333333333333,3,2,2,40,0,1
230917,-83.3333333333333,3,1,2,30,0,0
231034,-83.3333333333333,3,2,1,60,0,1
231151,-83.3333333333333,3,1,2,30,0,1
233729,-83.3333333333333,3,1,2,50,0,1
233964,-83.3333333333333,3,1,2,30,0,1
236542,-83.3333333333333,3,2,1,60,0,1
236776,-83.3333333333333,3,1,2,30,0,1
239354,-83.3333333333333,3,1,2,50,0,1
239589,-83.3333333333333,3,1,2,30,0,1
242167,-83.3333333333333,3,1,2,50,0,1
242401,-83.3333333333333,3,1,2,30,0,1
244979,-83.3333333333333,3,1,2,50,0,1
245214,-83.3333333333333,3,1,2,30,0,1
247792,-83.3333333333333,3,2,1,60,0,1
248026,-83.3333333333333,3,1,2,30,0,1
250604,-83.3333333333333,3,1,2,50,0,1
250839,-83.3333333333333,3,1,2,30,0,1
252362,-83.3333333333333,3,1,2,25,0,1
252831,-83.3333333333333,3,1,2,20,0,1
253300,-83.3333333333333,3,1,2,15,0,1
253534,-83.3333333333333,3,1,2,15,0,0
253768,-83.3333333333333,3,2,2,5,0,0

[Colours]
Combo1 : 85,170,255
Combo2 : 255,255,255
Combo3 : 255,164,164
Combo4 : 128,128,255
Combo5 : 255,255,183

[HitObjects]
56,64,3222,5,0,0:0:0:0:
56,64,3456,1,0,0:0:0:0:
128,128,3925,1,0,0:0:0:0:
208,72,4393,1,0,0:0:0:0:
272,144,4862,1,0,0:0:0:0:
272,144,5097,5,0,0:0:0:0:
272,144,5331,2,0,B|400:144,1,120
392,144,6034,1,0,0:0:0:0:
392,144,6268,5,0,0:0:0:0:
360,232,6737,1,0,0:0:0:0:
440,288,7206,1,0,0:0:0:0:
376,360,7675,1,0,0:0:0:0:
376,360,7909,6,0,B|240:360,2,120
376,360,9081,5,0,0:0:0:0:
432,280,9550,1,0,0:0:0:0:
360,216,10018,1,0,0:0:0:0:
360,216,10253,1,0,0:0:0:0:
360,216,10487,6,0,B|360:88,2,120
360,216,11659,5,0,0:0:0:0:
360,216,11893,1,0,0:0:0:0:
272,256,12362,1,0,0:0:0:0:
192,208,12831,1,0,0:0:0:0:
192,208,13065,6,0,B|72:208,2,120,0|0|0,0:0|0:0|0:0,0:0:0:0:
224,120,14472,5,0,0:0:0:0:
224,120,14706,2,0,P|240:60|304:24,2,120
224,120,15878,1,0,0:0:0:0:
280,200,16347,2,0,P|256:264|192:296,1,120,0|0,0:0|0:0,0:0:0:0:
148,220,17284,5,0,0:0:0:0:
148,220,17518,2,0,P|84:216|20:260,2,120
148,220,18690,5,0,0:0:0:0:
212,292,19159,2,0,P|248:336|324:356,1,120
356,276,20097,1,0,0:0:0:0:
356,276,20331,2,0,P|420:288|468:332,1,120
461,323,21034,1,0,0:0:0:0:
480,228,21503,5,0,0:0:0:0:
480,228,21737,2,0,P|432:172|440:116,2,120
480,228,22909,5,0,0:0:0:0:
376,240,23378,2,0,P|320:280|304:360,2,132.00000402832,0|8|0,0:0|0:0|0:0,0:0:0:0:
376,240,24550,1,0,0:0:0:0:
284,188,25018,1,0,0:0:0:0:
284,188,25253,1,0,0:0:0:0:
180,188,25722,6,0,P|180:120|132:60,1,132.00000402832
40,56,26659,1,8,0:0:0:0:
44,160,27128,1,0,0:0:0:0:
44,160,27362,2,0,P|44:228|100:296,1,132.00000402832
77,280,28065,1,8,0:0:0:0:
180,296,28534,6,0,P|248:280|332:312,1,132.00000402832
400,348,29472,2,0,P|424:284|496:244,1,132.00000402832,8|0,0:0|0:0,0:0:0:0:
474,248,30175,1,0,0:0:0:0:
436,148,30643,5,0,0:0:0:0:
436,148,30878,1,0,0:0:0:0:
340,108,31347,2,0,P|284:152|276:236,1,132.00000402832
270,208,32050,1,0,0:0:0:0:
270,208,32284,1,8,0:0:0:0:
212,296,32753,5,4,0:0:0:0:
128,232,33222,1,0,0:0:0:0:
148,128,33690,1,0,0:0:0:0:
228,44,34159,6,0,P|300:72|372:28,1,143.999995605469,4|0,0:0|0:0,0:0:0:0:
357,46,34862,1,0,0:0:0:0:
432,136,35331,2,0,P|396:140|352:184,1,71.9999978027344
440,248,36034,1,0,0:0:0:0:
400,356,36503,1,0,0:0:0:0:
288,332,36972,6,0,P|252:272|179:252,1,143.999995605469,4|0,0:0|0:0,0:0:0:0:
184,251,37675,1,0,0:0:0:0:
100,332,38143,2,0,P|60:332|28:300,1,71.9999978027344
24,200,38847,1,0,0:0:0:0:
140,208,39315,1,0,0:0:0:0:
112,96,39779,6,0,P|136:68|176:56,2,60,4|0|0,0:0|0:0|0:0,0:0:0:0:
200,168,40716,1,0,0:0:0:0:
200,168,41185,2,0,P|236:172|272:224,2,71.9999978027344
100,224,42122,1,0,0:0:0:0:
200,280,42591,6,0,P|248:336|336:352,1,143.999995605469,4|0,0:0|0:0,0:0:0:0:
420,308,43529,1,0,0:0:0:0:
356,212,43997,1,0,0:0:0:0:
472,200,44466,1,0,0:0:0:0:
408,104,44935,1,0,0:0:0:0:
292,96,45404,6,0,P|248:160|156:184,1,143.999995605469,4|0,0:0|0:0,0:0:0:0:
188,184,46107,1,0,0:0:0:0:
156,72,46575,1,0,0:0:0:0:
156,72,46810,1,0,0:0:0:0:
60,136,47279,1,0,0:0:0:0:
76,252,47747,1,0,0:0:0:0:
164,324,48216,6,0,P|212:268|308:260,1,143.999995605469,4|0,0:0|0:0,0:0:0:0:
278,253,48919,1,0,0:0:0:0:
392,256,49388,1,0,0:0:0:0:
392,256,49622,1,0,0:0:0:0:
448,156,50091,1,0,0:0:0:0:
376,64,50560,1,0,0:0:0:0:
260,48,51029,6,0,P|220:52|172:88,2,71.9999978027344,0|0|0,0:0|0:0|0:0,0:0:0:0:
296,216,52200,1,0,0:0:0:0:
296,216,52435,2,0,P|316:252|376:264,2,71.9999978027344
288,100,53372,1,0,0:0:0:0:
184,152,53841,6,0,P|112:180|48:256,1,143.999995605469,4|0,0:0|0:0,0:0:0:0:
65,225,54544,1,0,0:0:0:0:
120,328,55013,1,0,0:0:0:0:
120,328,55247,1,0,0:0:0:0:
236,344,55716,1,0,0:0:0:0:
332,284,56185,1,0,0:0:0:0:
352,172,56654,6,0,P|336:92|272:28,1,143.999995605469,4|0,0:0|0:0,0:0:0:0:
297,44,57357,1,0,0:0:0:0:
236,140,57825,2,0,B|260:180|244:220,1,72.0000017166138
184,304,58529,1,0,0:0:0:0:
88,240,58997,1,0,0:0:0:0:
48,136,59466,6,0,P|80:72|168:40,1,143.999995605469,4|0,0:0|0:0,0:0:0:0:
142,40,60169,1,0,0:0:0:0:
240,100,60638,1,0,0:0:0:0:
240,100,60872,1,0,0:0:0:0:
340,44,61341,1,0,0:0:0:0:
428,116,61810,1,0,0:0:0:0:
384,224,62279,6,0,P|412:300|480:344,1,143.999995605469,4|0,0:0|0:0,0:0:0:0:
460,337,62982,1,0,0:0:0:0:
492,224,63450,1,0,0:0:0:0:
492,224,63685,1,0,0:0:0:0:
452,116,64154,1,0,0:0:0:0:
356,52,64622,1,0,0:0:0:0:
240,52,65091,6,0,P|256:120|312:168,1,143.999995605469,4|0,0:0|0:0,0:0:0:0:
310,167,65794,1,0,0:0:0:0:
392,248,66263,1,0,0:0:0:0:
392,248,66497,1,0,0:0:0:0:
320,336,66966,5,0,0:0:0:0:
320,336,67435,1,0,0:0:0:0:
232,260,67904,2,0,P|176:216|80:204,1,143.999995605469,4|0,0:0|0:0,0:0:0:0:
105,201,68607,1,0,0:0:0:0:
76,88,69075,1,0,0:0:0:0:
76,88,69310,1,0,0:0:0:0:
192,72,69779,2,0,P|228:80|288:56,2,71.9999978027344
236,180,70716,6,0,P|272:252|268:324,1,143.999995605469,4|0,0:0|0:0,0:0:0:0:
270,314,71419,1,0,0:0:0:0:
352,236,71888,1,0,0:0:0:0:
352,236,72122,2,0,P|360:312|416:364,2,143.999995605469
404,132,73529,6,0,P|368:68|300:44,1,143.999995605469,4|0,0:0|0:0,0:0:0:0:
304,44,74232,1,0,0:0:0:0:
192,64,74700,1,0,0:0:0:0:
192,64,74935,2,0,P|224:128|296:152,1,143.999995605469,0|0,0:0|0:0,0:0:0:0:
368,236,75872,1,0,0:0:0:0:
368,236,76341,1,0,0:0:0:0:
256,192,76458,12,0,80560,0:0:0:0:
432,56,84779,5,0,0:0:0:0:
432,56,85018,1,0,0:0:0:0:
360,120,85487,1,0,0:0:0:0:
264,96,85955,1,0,0:0:0:0:
184,144,86424,1,0,0:0:0:0:
184,144,86659,5,0,0:0:0:0:
184,144,86893,2,0,B|184:272,1,120
184,264,87596,1,0,0:0:0:0:
184,264,87830,5,0,0:0:0:0:
264,320,88299,1,0,0:0:0:0:
344,272,88768,1,0,0:0:0:0:
432,312,89237,1,0,0:0:0:0:
432,312,89471,5,0,0:0:0:0:
432,312,89705,2,0,B|432:176,1,120
432,192,90409,1,0,0:0:0:0:
432,192,90643,5,0,0:0:0:0:
376,112,91112,1,0,0:0:0:0:
284,144,91580,1,0,0:0:0:0:
284,144,91815,1,0,0:0:0:0:
284,144,92049,6,0,B|140:144,2,120
284,144,93221,1,0,0:0:0:0:
284,144,93455,5,0,0:0:0:0:
352,212,93924,1,0,0:0:0:0:
336,308,94393,1,0,0:0:0:0:
336,308,94627,5,0,0:0:0:0:
244,332,95096,2,0,P|208:272|140:244,1,120,0|0,0:0|0:0,0:0:0:0:
84,300,96034,5,0,0:0:0:0:
52,208,96502,2,0,P|76:152|68:88,1,120
168,92,97440,5,0,0:0:0:0:
168,92,97674,1,0,0:0:0:0:
168,92,97909,2,0,P|208:140|288:132,1,120,0|0,0:0|0:0,0:0:0:0:
248,240,98846,1,0,0:0:0:0:
248,240,99080,6,0,P|300:276|318:331,2,120
248,240,100252,5,0,0:0:0:0:
152,248,100721,2,0,P|104:208|88:136,1,120
160,92,101659,1,0,0:0:0:0:
160,92,101893,6,0,P|224:108|288:68,2,120
160,92,103065,5,0,0:0:0:0:
88,168,103534,2,0,P|92:232|64:280,1,120
65,278,104237,1,0,0:0:0:0:
65,278,104471,5,0,0:0:0:0:
156,328,104940,2,0,P|160:260|204:208,2,132.00000402832,0|8|0,0:0|0:0|0:0,0:0:0:0:
156,328,106112,1,0,0:0:0:0:
260,324,106580,1,0,0:0:0:0:
260,324,106815,1,0,0:0:0:0:
348,264,107284,6,0,P|412:228|444:152,1,132.00000402832
439,178,107987,1,0,0:0:0:0:
439,178,108221,1,8,0:0:0:0:
356,116,108690,2,0,P|304:80|235:77,1,132.00000402832
237,76,109393,1,0,0:0:0:0:
237,76,109627,1,8,0:0:0:0:
208,180,110096,6,0,P|184:244|120:276,1,132.00000402832
131,274,110799,1,0,0:0:0:0:
131,274,111034,1,8,0:0:0:0:
216,336,111502,1,0,0:0:0:0:
216,336,111737,2,0,P|284:340|338:301,1,132.00000402832
334,305,112440,1,0,0:0:0:0:
368,204,112909,6,0,P|416:164|496:156,1,132.00000402832
483,153,113612,1,0,0:0:0:0:
483,153,113846,1,4,0:0:0:0:
464,256,114315,1,0,0:0:0:0:
464,256,114549,1,0,0:0:0:0:
360,280,115018,1,0,0:0:0:0:
360,280,115252,1,0,0:0:0:0:
276,204,115721,6,0,P|252:272|192:312,1,132.00000402832,4|0,0:0|0:0,0:0:0:0:
205,307,116424,1,0,0:0:0:0:
100,260,116893,1,0,0:0:0:0:
100,260,117127,1,0,0:0:0:0:
160,160,117596,1,0,0:0:0:0:
128,48,118065,1,0,0:0:0:0:
244,44,118534,2,0,P|240:112|292:172,1,143.999995605469,4|0,0:0|0:0,0:0:0:0:
285,168,119237,1,0,0:0:0:0:
368,88,119705,5,0,0:0:0:0:
368,88,119940,1,0,0:0:0:0:
456,164,120409,1,0,0:0:0:0:
388,256,120877,1,0,0:0:0:0:
284,208,121346,2,0,P|300:280|268:360,2,143.999995605469,4|0|0,0:0|0:0|0:0,0:0:0:0:
184,268,122752,5,0,0:0:0:0:
184,152,123221,1,0,0:0:0:0:
92,84,123690,1,0,0:0:0:0:
40,188,124159,2,0,P|28:260|64:330,1,143.999995605469,4|0,0:0|0:0,0:0:0:0:
116,328,124862,2,0,B|156:256,1,72.0000017166138
208,272,125330,2,0,B|240:208,1,72.0000017166138
352,232,126034,5,0,0:0:0:0:
404,128,126502,1,0,0:0:0:0:
308,64,126971,2,0,P|256:112|164:120,1,143.999995605469,4|0,0:0|0:0,0:0:0:0:
185,124,127674,1,0,0:0:0:0:
36,36,128377,1,0,0:0:0:0:
100,132,128846,1,0,0:0:0:0:
84,248,129315,1,0,0:0:0:0:
168,328,129784,6,0,P|232:336|320:280,1,143.999995605469,4|0,0:0|0:0,0:0:0:0:
301,302,130487,1,0,0:0:0:0:
216,224,130955,1,0,0:0:0:0:
216,224,131190,1,0,0:0:0:0:
216,108,131659,1,0,0:0:0:0:
308,36,132127,1,0,0:0:0:0:
424,44,132596,6,0,P|456:72|468:108,2,71.9999978027344,4|0|0,0:0|0:0|0:0,0:0:0:0:
308,36,133534,1,0,0:0:0:0:
200,76,134002,1,0,0:0:0:0:
168,124,134237,1,0,0:0:0:0:
160,180,134471,1,0,0:0:0:0:
172,296,134940,1,0,0:0:0:0:
280,336,135409,6,0,P|304:276|379:246,1,143.999995605469,4|0,0:0|0:0,0:0:0:0:
373,245,136112,1,0,0:0:0:0:
484,280,136580,1,0,0:0:0:0:
484,280,136815,1,0,0:0:0:0:
480,164,137284,1,0,0:0:0:0:
392,92,137752,1,0,0:0:0:0:
276,104,138221,6,0,P|267:178|223:230,1,143.999995605469,4|0,0:0|0:0,0:0:0:0:
223,229,138924,1,0,0:0:0:0:
176,332,139393,1,0,0:0:0:0:
176,332,139627,1,0,0:0:0:0:
60,320,140096,1,0,0:0:0:0:
12,216,140565,1,0,0:0:0:0:
124,196,141034,6,0,P|96:128|28:76,1,143.999995605469,4|0,0:0|0:0,0:0:0:0:
43,83,141737,1,0,0:0:0:0:
148,32,142205,1,0,0:0:0:0:
148,32,142440,2,0,P|168:100|220:152,2,143.999995605469
260,60,143846,6,0,P|284:36|340:28,2,71.9999978027344,4|0|0,0:0|0:0|0:0,0:0:0:0:
260,60,144549,1,0,0:0:0:0:
348,136,145018,1,0,0:0:0:0:
348,136,145252,1,0,0:0:0:0:
352,252,145721,1,0,0:0:0:0:
268,328,146190,1,0,0:0:0:0:
212,228,146659,6,0,P|132:236|86:280,1,143.999995605469,4|0,0:0|0:0,0:0:0:0:
87,277,147362,1,0,0:0:0:0:
87,277,147596,1,0,0:0:0:0:
96,164,148065,1,0,0:0:0:0:
160,68,148534,1,0,0:0:0:0:
272,40,149002,1,0,0:0:0:0:
372,100,149471,6,0,P|356:152|268:220,1,143.999995605469,4|0,0:0|0:0,0:0:0:0:
291,211,150174,1,0,0:0:0:0:
252,104,150643,1,0,0:0:0:0:
252,104,150877,2,0,P|192:148|164:232,2,143.999995605469
356,152,152284,6,0,P|336:220|356:312,1,143.999995605469,4|0,0:0|0:0,0:0:0:0:
346,291,152987,1,0,0:0:0:0:
440,220,153455,1,0,0:0:0:0:
440,220,153690,1,0,0:0:0:0:
468,108,154159,1,0,0:0:0:0:
380,32,154627,1,0,0:0:0:0:
284,92,155096,6,0,P|248:84|224:53,2,71.9999978027344,4|0|0,0:0|0:0|0:0,0:0:0:0:
284,92,155799,1,0,0:0:0:0:
328,200,156268,1,0,0:0:0:0:
328,200,156502,1,0,0:0:0:0:
264,296,156971,1,0,0:0:0:0:
148,296,157440,1,0,0:0:0:0:
200,192,157909,6,0,B|184:108,1,71.9999978027344,4|0,0:0|0:0,0:0:0:0:
132,108,158377,2,0,L|120:36,1,71.9999978027344
64,20,158846,1,0,0:0:0:0:
52,136,159315,5,0,0:0:0:0:
84,248,159784,1,0,0:0:0:0:
168,328,160252,2,0,B|312:328,1,144.000003433228,0|4,0:0|0:0,0:0:0:0:
288,216,161190,5,0,0:0:0:0:
288,216,161424,2,0,B|368:216,1,72.0000017166138
392,168,161893,2,0,B|480:168,1,72.0000017166138
392,76,162596,2,0,B|304:76,1,72.0000017166138,0|0,0:0|0:0,0:0:0:0:
272,40,163065,2,0,B|128:40,1,144.000003433228,0|4,0:0|0:0,0:0:0:0:
192,136,164002,5,0,0:0:0:0:
192,136,164237,2,0,B|232:208,1,72.0000017166138
284,184,164705,2,0,B|345:238,1,72.0000017166138
304,340,165409,2,0,B|456:340,2,144.000003433228,0|0|4,0:0|0:0|0:0,0:0:0:0:
188,324,166815,6,0,B|164:228,1,72.0000017166138
200,204,167284,1,0,0:0:0:0:
256,192,167518,2,0,B|352:192,1,72.0000017166138,0|4,0:0|0:0,0:0:0:0:
264,96,168221,1,0,0:0:0:0:
360,32,168690,2,0,B|528:32,1,144.000003433228,0|4,0:0|0:0,0:0:0:0:
460,140,169627,6,0,B|428:220,1,72.0000017166138
384,180,170096,2,0,B|360:252,1,72.0000017166138
316,284,170565,1,0,0:0:0:0:
236,200,171034,1,0,0:0:0:0:
200,308,171502,2,0,B|40:308,1,144.000003433228,0|4,0:0|0:0,0:0:0:0:
108,204,172440,6,0,P|68:140|-20:124,2,143.999995605469,0|0|4,0:0|0:0|0:0,0:0:0:0:
208,144,173846,1,0,0:0:0:0:
280,56,174315,2,0,B|346:56|432:56,1,144.000003433228,0|4,0:0|0:0,0:0:0:0:
432,172,175252,6,0,L|396:256,1,71.9999978027344
372,288,175721,2,0,P|304:296|244:252,1,143.999995605469,0|4,0:0|0:0,0:0:0:0:
288,148,176659,2,0,P|268:112|232:104,2,71.9999978027344
368,232,177596,6,0,P|388:260|432:272,2,71.9999978027344
400,184,178299,1,0,0:0:0:0:
456,168,178534,1,0,0:0:0:0:
368,96,179002,2,0,P|388:68|376:24,2,71.9999978027344
312,84,179705,1,0,0:0:0:0:
260,108,179940,1,0,0:0:0:0:
168,176,180409,6,0,P|136:152|80:168,2,71.9999978027344,0|0|0,0:0|0:0|0:0,0:0:0:0:
180,232,181112,1,0,0:0:0:0:
184,284,181346,2,0,B|214:309|264:281|264:281|317:256|353:288,1,180
168,144,185096,6,0,P|200:168|196:204,1,71.9999978027344
180,252,185565,2,0,P|188:288|248:312,1,71.9999978027344
268,328,186034,2,0,P|284:260|372:216,1,143.999995605469,4|0,0:0|0:0,0:0:0:0:
444,272,186971,1,0,0:0:0:0:
440,156,187440,2,0,P|424:80|360:36,2,143.999995605469,4|0|0,0:0|0:0|0:0,0:0:0:0:
324,168,188846,5,0,0:0:0:0:
244,84,189315,1,0,0:0:0:0:
132,112,189784,1,0,0:0:0:0:
108,224,190252,1,4,0:0:0:0:
188,308,190721,1,0,0:0:0:0:
240,328,190955,1,0,0:0:0:0:
296,312,191190,6,0,B|376:312,2,72.0000017166138,0|0|4,0:0|0:0|0:0,0:0:0:0:
288,196,192127,1,0,0:0:0:0:
248,88,192596,1,0,0:0:0:0:
132,76,193065,1,4,0:0:0:0:
184,180,193534,1,0,0:0:0:0:
232,284,194002,1,0,0:0:0:0:
232,284,194237,1,0,0:0:0:0:
232,284,194471,6,0,P|280:236|384:244,2,143.999995605469,4|0|0,0:0|0:0|0:0,0:0:0:0:
200,172,195877,2,0,P|132:212|40:188,2,143.999995605469,4|0|0,0:0|0:0|0:0,0:0:0:0:
304,120,197284,6,0,P|368:76|464:88,2,143.999995605469,4|0|0,0:0|0:0|0:0,0:0:0:0:
396,192,198690,1,4,0:0:0:0:
396,192,199159,1,4,0:0:0:0:
408,308,199627,2,0,B|320:308,1,72.0000017166138
284,284,200096,6,0,P|224:328|148:332,1,143.999995605469,0|0,0:0|0:0,0:0:0:0:
156,333,200799,1,0,0:0:0:0:
156,333,201034,1,2,0:0:0:0:
120,224,201502,2,0,P|176:180|256:176,1,143.999995605469,4|2,0:0|0:0,0:0:0:0:
246,173,202205,1,0,0:0:0:0:
246,173,202440,1,2,0:0:0:0:
356,132,202909,6,0,P|316:68|228:36,2,143.999995605469,4|0|0,0:0|0:0|0:0,0:0:0:0:
280,216,204315,2,0,P|320:280|400:312,2,143.999995605469,4|0|0,0:0|0:0|0:0,0:0:0:0:
392,184,205721,1,0,0:0:0:0:
368,72,206190,6,0,B|324:152,1,71.9999978027344
300,88,206659,2,0,B|220:96,1,71.9999978027344
188,56,207127,2,0,B|132:112,1,71.9999978027344
112,56,207596,2,0,B|24:44,1,71.9999978027344
44,104,208065,2,0,L|52:188,1,71.9999978027344
84,220,208534,6,0,P|156:240|204:316,1,143.999995605469,4|0,0:0|0:0,0:0:0:0:
197,292,209237,1,0,0:0:0:0:
312,288,209705,1,0,0:0:0:0:
312,288,209940,1,0,0:0:0:0:
400,212,210409,1,0,0:0:0:0:
368,100,210877,1,0,0:0:0:0:
288,184,211346,6,0,P|248:124|248:32,1,143.999995605469,4|0,0:0|0:0,0:0:0:0:
242,53,212049,1,0,0:0:0:0:
128,80,212518,1,0,0:0:0:0:
128,80,212752,1,0,0:0:0:0:
76,184,213221,1,0,0:0:0:0:
128,288,213690,1,0,0:0:0:0:
244,296,214159,6,0,P|312:268|356:192,1,143.999995605469,4|0,0:0|0:0,0:0:0:0:
350,211,214862,1,0,0:0:0:0:
240,172,215330,1,0,0:0:0:0:
240,172,215565,2,0,P|280:112|346:87,2,143.999995605469
124,156,216971,6,0,P|96:228|28:268,1,143.999995605469,4|0,0:0|0:0,0:0:0:0:
136,332,217909,1,0,0:0:0:0:
248,320,218377,1,0,0:0:0:0:
336,244,218846,1,0,0:0:0:0:
348,128,219315,1,0,0:0:0:0:
268,44,219784,6,0,P|256:116|180:180,1,143.999995605469,4|0,0:0|0:0,0:0:0:0:
209,166,220487,1,0,0:0:0:0:
144,72,220955,1,0,0:0:0:0:
144,72,221190,1,0,0:0:0:0:
60,152,221659,1,0,0:0:0:0:
96,260,222127,1,0,0:0:0:0:
208,292,222596,6,0,P|248:236|336:212,1,143.999995605469,4|0,0:0|0:0,0:0:0:0:
316,211,223299,1,0,0:0:0:0:
348,320,223768,2,0,P|388:308|424:264,1,71.9999978027344
460,184,224471,1,0,0:0:0:0:
388,92,224940,1,0,0:0:0:0:
272,96,225409,6,0,P|244:64|240:24,2,71.9999978027344,4|0|0,0:0|0:0|0:0,0:0:0:0:
272,96,226112,1,0,0:0:0:0:
188,172,226580,1,0,0:0:0:0:
188,172,226815,1,0,0:0:0:0:
176,288,227284,1,0,0:0:0:0:
268,356,227752,1,0,0:0:0:0:
352,276,228221,6,0,P|424:260|480:188,1,143.999995605469,4|0,0:0|0:0,0:0:0:0:
471,210,228924,1,0,0:0:0:0:
368,160,229393,1,0,0:0:0:0:
368,160,229627,1,0,0:0:0:0:
252,156,230096,6,4,B|236:60,1,72.0000017166138,4|0,0:0|0:0,0:0:0:0:
188,108,230565,2,4,B|124:36,1,72.0000017166138,4|0,0:0|0:0,0:0:0:0:
92,84,231034,6,0,P|63:149|83:245,1,143.999995605469,4|0,0:0|0:0,0:0:0:0:
70,219,231737,1,0,0:0:0:0:
184,244,232205,2,0,P|192:288|160:324,1,71.9999978027344
68,336,232909,1,0,0:0:0:0:
16,232,233377,1,0,0:0:0:0:
108,160,233846,6,0,P|132:92|204:40,1,143.999995605469,4|0,0:0|0:0,0:0:0:0:
185,46,234549,1,0,0:0:0:0:
236,148,235018,1,0,0:0:0:0:
236,148,235252,1,0,0:0:0:0:
344,184,235721,1,0,0:0:0:0:
444,128,236190,1,0,0:0:0:0:
472,240,236659,6,0,P|404:272|360:360,1,143.999995605469,4|0,0:0|0:0,0:0:0:0:
366,327,237362,1,0,0:0:0:0:
252,328,237830,2,0,P|236:292|188:272,1,71.9999978027344
96,288,238534,1,0,0:0:0:0:
72,176,239002,1,0,0:0:0:0:
164,104,239471,6,0,P|240:112|284:192,1,143.999995605469,4|0,0:0|0:0,0:0:0:0:
344,256,240409,1,0,0:0:0:0:
456,228,240877,1,0,0:0:0:0:
372,148,241346,6,0,P|364:104|388:52,1,71.9999978027344
312,88,241815,2,0,P|320:52|312:8,1,71.9999978027344
260,32,242284,6,0,P|188:32|124:96,1,143.999995605469,4|0,0:0|0:0,0:0:0:0:
134,75,242987,1,0,0:0:0:0:
188,176,243455,1,0,0:0:0:0:
188,176,243690,2,0,P|136:228|60:224,2,143.999995605469
304,160,245096,6,0,P|316:240|288:320,1,143.999995605469,4|0,0:0|0:0,0:0:0:0:
299,299,245799,1,0,0:0:0:0:
208,224,246268,1,0,0:0:0:0:
208,224,246502,2,0,P|192:152|224:68,2,143.999995605469
324,216,247909,6,0,P|356:196|404:200,2,71.9999978027344,4|0|0,0:0|0:0|0:0,0:0:0:0:
324,216,248612,1,0,0:0:0:0:
384,312,249080,1,0,0:0:0:0:
384,312,249315,1,0,0:0:0:0:
268,328,249784,1,0,0:0:0:0:
180,252,250252,1,0,0:0:0:0:
268,180,250721,6,0,B|268:108,4,72.0000017166138,4|0|0|0|0,0:0|0:0|0:0|0:0|0:0,0:0:0:0:
368,240,252127,5,0,0:0:0:0:
296,280,252596,1,0,0:0:0:0:
224,312,253065,1,0,0:0:0:0:
152,344,253534,1,4,0:0:0:0:
