osu file format v12

[General]
AudioFilename: FictionJunction KEIKO - Houseki.mp3
AudioLeadIn: 0
PreviewTime: 33690
Countdown: 0
SampleSet: Normal
StackLeniency: 0.7
Mode: 0
LetterboxInBreaks: 0
WidescreenStoryboard: 0

[Editor]
DistanceSpacing: 0.6
BeatDivisor: 4
GridSize: 4
TimelineZoom: 2.6

[Metadata]
Title:Houseki
TitleUnicode:宝石
Artist:FictionJunction KEIKO
ArtistUnicode:FictionJunction KEIKO
Creator:Lizbeth
Version:Dancing
Source:Le Portrait de Petit Cossette
Tags:kajiura Yuki Keiko Kubota 窪田啓子 Everlasting Songs
BeatmapID:110857
BeatmapSetID:34090

[Difficulty]
HPDrainRate:7
CircleSize:4
OverallDifficulty:7
ApproachRate:8
SliderMultiplier:1.4
SliderTickRate:1

[Events]
//Background and Video events
0,0,"astomoe.jpg",0,0
//Break Periods
2,80760,84029
2,182952,184346
//Storyboard Layer 0 (Background)
//Storyboard Layer 1 (Fail)
//Storyboard Layer 2 (Pass)
//Storyboard Layer 3 (Foreground)
//Storyboard Sound Samples
//Background Colour Transformations
3,100,163,162,255

[TimingPoints]
3222,468.75,3,1,2,20,1,0
5917,-100,3,1,2,40,0,0
6151,-100,3,1,2,20,0,0
8729,-100,3,1,2,40,0,0
8964,-100,3,1,2,20,0,0
11542,-100,3,1,2,40,0,0
11776,-100,3,1,2,20,0,0
13182,-100,3,1,2,15,0,0
14120,-100,3,1,2,20,0,0
14354,-100,3,1,2,40,0,0
14589,-100,3,1,2,20,0,0
16229,-100,3,1,2,15,0,0
17167,-100,3,1,2,40,0,0
17401,-100,3,1,2,20,0,0
19979,-100,3,1,2,40,0,0
20214,-100,3,1,2,20,0,0
22909,-90.9090909090909,3,1,2,30,0,0
23143,-90.9090909090909,3,1,2,20,0,0
25604,-90.9090909090909,3,1,2,30,0,0
25839,-90.9090909090909,3,1,2,20,0,0
28417,-90.9090909090909,3,1,2,30,0,0
28651,-90.9090909090909,3,1,2,20,0,0
31229,-90.9090909090909,3,1,2,30,0,0
31464,-90.9090909090909,3,1,2,20,0,0
32636,-90.9090909090909,3,1,2,50,0,0
32870,-90.9090909090909,3,1,2,40,0,0
33104,-90.9090909090909,3,1,2,30,0,0
33339,-90.9090909090909,3,1,2,25,0,0
33573,-90.9090909090909,3,1,2,20,0,0
34159,-83.3333333333333,3,2,1,60,0,1
34276,-83.3333333333333,3,1,2,30,0,1
36854,-83.3333333333333,3,1,2,40,0,1
37089,-83.3333333333333,3,1,2,30,0,1
39667,-83.3333333333333,3,2,1,60,0,1
39779,468.75,3,1,2,20,1,1
39896,-83.3333333333333,3,1,2,30,0,1
42474,-83.3333333333333,3,1,2,40,0,1
42709,-83.3333333333333,3,1,2,30,0,1
45287,-83.3333333333333,3,2,1,60,0,1
45521,-83.3333333333333,3,1,2,30,0,1
48099,-83.3333333333333,3,1,2,40,0,1
48334,-83.3333333333333,3,1,2,30,0,1
50912,-83.3333333333333,3,2,1,60,0,1
51146,-83.3333333333333,3,1,2,30,0,1
53724,-83.3333333333333,3,1,2,40,0,1
53959,-83.3333333333333,3,1,2,30,0,1
56420,-83.3333333333333,3,1,2,30,0,0
56654,-83.3333333333333,3,2,1,60,0,1
56771,-83.3333333333333,3,1,2,30,0,1
59349,-83.3333333333333,3,1,2,40,0,1
59584,-83.3333333333333,3,1,2,30,0,1
62162,-83.3333333333333,3,2,1,60,0,1
62396,-83.3333333333333,3,1,2,30,0,1
64974,-83.3333333333333,3,1,2,40,0,1
65209,-83.3333333333333,3,1,2,30,0,1
67787,-83.3333333333333,3,2,1,60,0,1
68021,-83.3333333333333,3,1,2,30,0,1
70599,-83.3333333333333,3,1,2,40,0,1
70834,-83.3333333333333,3,1,2,30,0,1
73412,-83.3333333333333,3,2,1,60,0,1
73646,-83.3333333333333,3,1,2,30,0,1
76342,-83.3333333333333,3,1,2,20,0,0
76459,-83.3333333333333,3,2,2,30,0,0
80560,-83.3333333333333,3,2,2,5,0,0
84784,468.75,3,1,2,20,1,0
87479,-100,3,1,2,40,0,0
87714,-100,3,1,2,20,0,0
90292,-100,3,1,2,40,0,0
90526,-100,3,1,2,20,0,0
93104,-100,3,1,2,40,0,0
93339,-100,3,1,2,20,0,0
94979,-100,3,1,2,15,0,0
95917,-100,3,1,2,40,0,0
96151,-100,3,1,2,20,0,0
97792,-100,3,1,2,15,0,0
98729,-100,3,1,2,40,0,0
98964,-100,3,1,2,20,0,0
101542,-100,3,1,2,40,0,0
101776,-100,3,1,2,20,0,0
104472,-90.9090909090909,3,1,2,30,0,0
104706,-90.9090909090909,3,1,2,20,0,0
107167,-90.9090909090909,3,1,2,30,0,0
107401,-90.9090909090909,3,1,2,20,0,0
109511,-90.9090909090909,3,1,2,30,0,0
110214,-90.9090909090909,3,1,2,20,0,0
112792,-90.9090909090909,3,1,2,30,0,0
113026,-90.9090909090909,3,1,2,20,0,0
113729,-90.9090909090909,3,1,2,40,0,0
114081,-90.9090909090909,3,1,2,30,0,0
114432,-90.9090909090909,3,1,2,50,0,0
115136,-90.9090909090909,3,1,2,30,0,0
115722,-83.3333333333333,3,2,1,60,0,1
115839,-83.3333333333333,3,1,2,30,0,1
118417,-83.3333333333333,3,1,2,50,0,1
118651,-83.3333333333333,3,1,2,30,0,1
121229,-83.3333333333333,3,2,1,60,0,1
121464,-83.3333333333333,3,1,2,30,0,1
124042,-83.3333333333333,3,1,2,50,0,1
124276,-83.3333333333333,3,1,2,30,0,1
126854,-83.3333333333333,3,2,1,60,0,1
127089,-83.3333333333333,3,1,2,30,0,1
129667,-83.3333333333333,3,1,2,50,0,1
129901,-83.3333333333333,3,1,2,30,0,1
132479,-83.3333333333333,3,2,1,60,0,1
132714,-83.3333333333333,3,1,2,30,0,1
135292,-83.3333333333333,3,1,2,50,0,1
135526,-83.3333333333333,3,1,2,30,0,1
138104,-83.3333333333333,3,1,2,30,0,0
138222,-83.3333333333333,3,1,2,30,0,1
138339,-83.3333333333333,3,1,2,30,0,1
140917,-83.3333333333333,3,1,2,50,0,1
141151,-83.3333333333333,3,1,2,30,0,1
143729,-83.3333333333333,3,2,1,60,0,1
143964,-83.3333333333333,3,1,2,30,0,1
146542,-83.3333333333333,3,1,2,50,0,1
146776,-83.3333333333333,3,1,2,30,0,1
149354,-83.3333333333333,3,2,1,60,0,1
149589,-83.3333333333333,3,1,2,30,0,1
152167,-83.3333333333333,3,1,2,50,0,1
152401,-83.3333333333333,3,1,2,30,0,1
154979,-83.3333333333333,3,2,1,60,0,1
155214,-83.3333333333333,3,1,2,30,0,1
157909,-83.3333333333333,3,1,2,50,0,0
158026,-83.3333333333333,3,1,2,20,0,0
159081,-83.3333333333333,3,1,2,30,0,0
159550,-83.3333333333333,3,1,2,20,0,0
160253,-83.3333333333333,3,1,2,40,0,0
160722,-83.3333333333333,3,2,1,60,0,0
160839,-83.3333333333333,3,1,2,20,0,0
162011,-83.3333333333333,3,1,2,40,0,0
162245,-83.3333333333333,3,1,2,20,0,0
163065,-83.3333333333333,3,1,2,30,0,0
163534,-83.3333333333333,3,1,2,50,0,0
163651,-83.3333333333333,3,1,2,20,0,0
164120,-83.3333333333333,3,1,2,40,0,0
164354,-83.3333333333333,3,1,2,30,0,0
165878,-83.3333333333333,3,1,2,40,0,0
166347,-83.3333333333333,3,2,1,60,0,0
166464,-83.3333333333333,3,1,2,20,0,0
166932,-83.3333333333333,3,1,2,40,0,0
167167,-83.3333333333333,3,1,2,20,0,0
167636,-83.3333333333333,3,1,2,40,0,0
167870,-83.3333333333333,3,1,2,20,0,0
168690,-83.3333333333333,3,1,2,30,0,0
169159,-83.3333333333333,3,1,2,50,0,0
169276,-83.3333333333333,3,1,2,20,0,0
170448,-83.3333333333333,3,1,2,40,0,0
170682,-83.3333333333333,3,1,2,20,0,0
171503,-83.3333333333333,3,1,2,40,0,0
171972,-83.3333333333333,3,2,1,60,0,0
172089,-83.3333333333333,3,1,2,40,0,0
172792,-83.3333333333333,3,1,2,20,0,0
173261,-83.3333333333333,3,1,2,40,0,0
173495,-83.3333333333333,3,1,2,20,0,0
174315,-83.3333333333333,3,1,2,30,0,0
174784,-83.3333333333333,3,1,2,50,0,0
174901,-83.3333333333333,3,1,2,20,0,0
175370,-83.3333333333333,3,1,2,40,0,0
175604,-83.3333333333333,3,1,2,20,0,0
176073,-83.3333333333333,3,1,2,40,0,0
176307,-83.3333333333333,3,1,2,20,0,0
177128,-83.3333333333333,3,1,2,40,0,0
177597,-83.3333333333333,3,2,1,60,0,0
177714,-83.3333333333333,3,2,0,30,0,0
178417,-83.3333333333333,3,1,0,20,0,0
178768,-83.3333333333333,3,1,2,30,0,0
179120,-83.3333333333333,3,2,2,30,0,0
179823,-83.3333333333333,3,1,2,20,0,0
180526,-83.3333333333333,3,2,2,30,0,0
181229,-200,3,2,2,30,0,0
181464,-200,3,2,2,15,0,0
184628,-83.3333333333333,3,1,2,20,0,0
185917,-83.3333333333333,3,1,2,50,0,0
186151,-83.3333333333333,3,1,2,20,0,0
187323,-83.3333333333333,3,1,2,50,0,0
187557,-83.3333333333333,3,1,2,20,0,0
190136,-83.3333333333333,3,1,2,50,0,0
190370,-83.3333333333333,3,1,2,20,0,0
191190,-83.3333333333333,3,1,2,40,0,0
191659,-83.3333333333333,3,2,1,60,0,0
191776,-83.3333333333333,3,1,2,20,0,0
192831,-83.3333333333333,3,1,2,40,0,0
193182,-83.3333333333333,3,1,2,20,0,0
194354,-83.3333333333333,3,1,2,50,0,0
194589,-83.3333333333333,3,1,2,20,0,0
195761,-83.3333333333333,3,1,2,50,0,0
195995,-83.3333333333333,3,1,2,20,0,0
196815,-83.3333333333333,3,1,2,40,0,0
197284,-83.3333333333333,3,2,1,60,0,0
197401,-83.3333333333333,3,1,2,20,0,0
198573,-83.3333333333333,3,1,2,50,0,0
199276,-83.3333333333333,3,1,2,30,0,0
200097,-83.3333333333333,3,1,2,50,0,0
200214,-83.3333333333333,3,1,2,20,0,0
201386,-83.3333333333333,3,1,2,50,0,0
201620,-83.3333333333333,3,1,2,20,0,0
201854,-83.3333333333333,3,1,2,40,0,0
202089,-83.3333333333333,3,1,2,20,0,0
202440,-83.3333333333333,3,1,2,40,0,0
202909,-83.3333333333333,3,2,1,60,0,0
203026,-83.3333333333333,3,1,2,20,0,0
204198,-83.3333333333333,3,1,2,60,0,0
204432,-83.3333333333333,3,1,2,20,0,0
205956,-83.3333333333333,3,1,2,40,0,0
206307,-83.3333333333333,3,1,2,20,0,0
206542,-83.3333333333333,3,1,2,40,0,0
206776,-83.3333333333333,3,1,2,20,0,0
207011,-83.3333333333333,3,1,2,20,0,0
207245,-83.3333333333333,3,1,2,20,0,0
207479,-83.3333333333333,3,1,2,20,0,0
207948,-83.3333333333333,3,1,2,30,0,0
208534,-83.3333333333333,3,1,2,50,0,1
208651,-83.3333333333333,3,1,2,30,0,1
211229,-83.3333333333333,3,2,1,60,0,1
211464,-83.3333333333333,3,1,2,30,0,1
214042,-83.3333333333333,3,1,2,50,0,1
214276,-83.3333333333333,3,1,2,30,0,1
216854,-83.3333333333333,3,1,2,50,0,1
217089,-83.3333333333333,3,1,2,30,0,1
219667,-83.3333333333333,3,2,1,60,0,1
219901,-83.3333333333333,3,1,2,30,0,1
222479,-83.3333333333333,3,1,2,50,0,1
222714,-83.3333333333333,3,1,2,30,0,1
225292,-83.3333333333333,3,2,1,60,0,1
225526,-83.3333333333333,3,1,2,30,0,1
228104,-83.3333333333333,3,1,2,50,0,1
228339,-83.3333333333333,3,1,2,30,0,1
229862,-83.3333333333333,3,2,2,40,0,1
230917,-83.3333333333333,3,1,2,30,0,0
231034,-83.3333333333333,3,2,1,60,0,1
231151,-83.3333333333333,3,1,2,30,0,1
233729,-83.3333333333333,3,1,2,50,0,1
233964,-83.3333333333333,3,1,2,30,0,1
236542,-83.3333333333333,3,2,1,60,0,1
236776,-83.3333333333333,3,1,2,30,0,1
239354,-83.3333333333333,3,1,2,50,0,1
239589,-83.3333333333333,3,1,2,30,0,1
242167,-83.3333333333333,3,1,2,50,0,1
242401,-83.3333333333333,3,1,2,30,0,1
244979,-83.3333333333333,3,1,2,50,0,1
245214,-83.3333333333333,3,1,2,30,0,1
247792,-83.3333333333333,3,2,1,60,0,1
248026,-83.3333333333333,3,1,2,30,0,1
250604,-83.3333333333333,3,1,2,50,0,1
250839,-83.3333333333333,3,1,2,30,0,1
252362,-83.3333333333333,3,1,2,25,0,1
252831,-83.3333333333333,3,1,2,20,0,1
253300,-83.3333333333333,3,1,2,15,0,1
253534,-83.3333333333333,3,1,2,15,0,0
253768,-83.3333333333333,3,2,2,5,0,0

[Colours]
Combo1 : 85,170,255
Combo2 : 255,255,255
Combo3 : 255,164,164
Combo4 : 128,128,255
Combo5 : 255,255,183

[HitObjects]
32,48,3222,5,0,0:0:0:0:
32,48,3456,5,0,0:0:0:0:
200,56,3925,1,0,0:0:0:0:
152,200,4393,1,0,0:0:0:0:
304,176,4862,1,0,0:0:0:0:
304,176,5097,5,0,0:0:0:0:
384,176,5331,1,0,0:0:0:0:
312,312,5800,1,0,0:0:0:0:
232,312,6034,1,0,0:0:0:0:
232,312,6268,5,0,0:0:0:0:
256,160,6737,1,0,0:0:0:0:
104,192,7206,1,0,0:0:0:0:
128,40,7675,1,0,0:0:0:0:
128,40,7909,5,0,0:0:0:0:
208,40,8143,1,0,0:0:0:0:
288,40,8378,1,0,0:0:0:0:
368,40,8612,1,0,0:0:0:0:
448,40,8847,1,0,0:0:0:0:
448,40,9081,5,0,0:0:0:0:
392,184,9550,1,0,0:0:0:0:
440,328,10018,1,0,0:0:0:0:
440,328,10253,5,0,0:0:0:0:
360,328,10487,1,0,0:0:0:0:
224,256,10956,1,0,0:0:0:0:
224,256,11190,5,0,0:0:0:0:
144,256,11425,1,0,0:0:0:0:
64,256,11659,1,0,0:0:0:0:
64,256,11893,5,0,0:0:0:0:
32,104,12362,1,0,0:0:0:0:
184,72,12831,1,0,0:0:0:0:
184,72,13065,5,0,0:0:0:0:
248,112,13300,2,2,B|320:112,1,70,2|0,0:0|0:0,0:0:0:0:
384,192,13768,2,0,B|288:192,1,70,0|2,0:0|0:0,0:0:0:0:
240,192,14237,1,0,0:0:0:0:
192,256,14472,1,0,0:0:0:0:
192,256,14706,6,0,P|132:296|112:368,2,140,0|0|0,0:0|0:0|0:0,0:0:0:0:
272,256,15878,5,0,0:0:0:0:
336,296,16112,1,0,0:0:0:0:
392,240,16347,2,2,P|360:212|320:208,1,70,0|0,0:0|0:0,0:0:0:0:
416,148,16815,2,0,P|380:140|348:104,1,70,0|0,0:0|0:0,0:0:0:0:
304,64,17284,1,0,0:0:0:0:
304,64,17518,6,0,P|232:84|144:48,2,140,0|0|0,0:0|0:0|0:0,0:0:0:0:
304,64,18690,5,0,0:0:0:0:
384,64,18925,2,0,P|376:104|344:144,1,70
456,112,19393,2,0,P|436:148|432:200,1,70
392,240,19862,1,0,0:0:0:0:
328,200,20097,1,0,0:0:0:0:
328,200,20331,6,0,P|284:256|272:328,2,140
328,200,21503,5,0,0:0:0:0:
264,160,21737,2,0,P|268:128|260:90,1,70
184,152,22206,2,0,P|180:192|200:248,2,70
280,48,22909,5,0,0:0:0:0:
360,312,23378,2,0,P|332:240|248:200,2,154.000004699707,0|8|0,0:0|0:0|0:0,0:0:0:0:
360,312,24550,1,0,0:0:0:0:
360,312,25018,5,0,0:0:0:0:
280,344,25253,1,0,0:0:0:0:
200,312,25487,1,0,0:0:0:0:
58,208,25722,2,0,P|104:264|120:344,1,154.000004699707
200,312,26425,1,0,0:0:0:0:
280,344,26659,1,8,0:0:0:0:
280,344,27128,5,0,0:0:0:0:
392,280,27362,2,0,P|312:260|256:204,1,154.000004699707
261,212,28065,1,8,0:0:0:0:
40,112,28534,6,0,P|108:128|192:84,1,154.000004699707
232,32,29237,1,0,0:0:0:0:
344,56,29472,2,0,P|280:96|256:184,1,154.000004699707,8|0,0:0|0:0,0:0:0:0:
254,167,30175,1,0,0:0:0:0:
254,167,30643,5,0,0:0:0:0:
344,184,30878,1,0,0:0:0:0:
384,256,31112,1,0,0:0:0:0:
504,175,31347,2,0,P|500:256|448:312,1,154.000004699707
376,352,32050,1,0,0:0:0:0:
288,352,32284,1,8,0:0:0:0:
288,352,32753,5,4,0:0:0:0:
336,264,32987,1,0,0:0:0:0:
320,160,33222,1,0,0:0:0:0:
240,88,33456,1,0,0:0:0:0:
136,72,33690,1,0,0:0:0:0:
136,72,34159,6,0,P|224:84|300:32,1,167.999994873047,4|0,0:0|0:0,0:0:0:0:
424,148,34862,2,0,P|343:129|270:166,1,167.999994873047
352,220,35565,1,0,0:0:0:0:
440,244,35800,1,0,0:0:0:0:
368,304,36034,2,0,P|348:348|316:372,1,83.9999974365235
280,264,36503,2,0,P|260:228|268:184,1,83.9999974365235
72,208,36972,6,0,P|152:236|192:312,1,167.999994873047,4|0,0:0|0:0,0:0:0:0:
264,368,37675,1,0,0:0:0:0:
344,328,37909,1,0,0:0:0:0:
416,192,38143,2,0,P|404:236|420:276,1,83.9999974365235
320,144,38612,2,0,P|328:184|304:236,1,83.9999974365235
240,160,39081,1,0,0:0:0:0:
416,160,39315,2,0,P|396:120|404:64,1,83.9999974365235
244,60,39779,6,0,P|284:36|328:40,2,70,4|0|0,0:0|0:0|0:0,0:0:0:0:
308,124,40482,1,0,0:0:0:0:
384,172,40716,1,0,0:0:0:0:
312,216,40950,2,0,P|268:208|224:240,1,83.9999974365235
272,368,41419,2,0,P|292:328|280:280,1,83.9999974365235
208,312,41888,1,0,0:0:0:0:
384,352,42122,2,0,P|368:312|384:272,1,83.9999974365235
360,96,42591,6,0,P|352:184|288:240,1,167.999994873047,4|0,0:0|0:0,0:0:0:0:
224,176,43294,2,0,P|192:204|192:256,1,83.9999974365235
168,336,43763,1,0,0:0:0:0:
96,272,43997,1,0,0:0:0:0:
88,184,44232,2,0,P|100:144|80:88,1,83.9999974365235
8,152,44700,1,0,0:0:0:0:
192,112,44935,2,0,P|176:152|192:216,1,83.9999974365235
104,352,45404,6,0,P|156:284|240:272,1,167.999994873047,4|0,0:0|0:0,0:0:0:0:
296,336,46107,2,0,P|344:276|340:164,1,167.999994873047
248,160,46810,1,0,0:0:0:0:
176,56,47044,2,0,P|168:100|116:124,1,83.9999974365235
88,40,47513,1,0,0:0:0:0:
224,168,47747,2,0,P|188:192|184:240,1,83.9999974365235
352,288,48216,6,0,P|264:280|192:336,1,167.999994873047,4|0,0:0|0:0,0:0:0:0:
112,352,48919,1,0,0:0:0:0:
128,264,49154,1,0,0:0:0:0:
40,288,49388,2,0,P|36:244|8:208,1,83.9999974365235
112,120,49857,2,0,P|108:164|152:224,1,83.9999974365235
200,144,50325,1,0,0:0:0:0:
8,104,50560,2,0,P|20:144|0:192,1,83.9999974365235
168,32,51029,6,0,P|128:24|72:72,2,83.9999974365235,4|0|0,0:0|0:0|0:0,0:0:0:0:
272,144,51732,6,0,P|252:184|280:232,1,83.9999974365235
352,184,52200,1,0,0:0:0:0:
192,256,52435,2,0,P|196:296|160:336,1,83.9999974365235
136,128,52904,2,0,P|108:160|116:212,1,83.9999974365235
192,192,53372,1,0,0:0:0:0:
288,192,53607,1,0,0:0:0:0:
360,48,53841,6,0,P|352:128|416:200,1,167.999994873047,4|0,0:0|0:0,0:0:0:0:
448,112,54544,1,0,0:0:0:0:
448,112,55013,2,0,P|488:152|480:208,1,83.9999974365235
312,216,55482,2,0,P|320:256|368:288,1,83.9999974365235
408,208,55950,1,0,0:0:0:0:
248,144,56185,1,0,0:0:0:0:
248,144,56302,1,0,0:0:0:0:
248,144,56419,1,0,0:0:0:0:
184,288,56654,6,0,P|184:204|120:128,1,167.999994873047,4|0,0:0|0:0,0:0:0:0:
192,40,57357,2,0,P|100:52|32:16,1,167.999994873047
52,124,58060,1,0,0:0:0:0:
144,128,58294,2,0,P|132:168|144:232,1,83.9999974365235
216,176,58763,1,0,0:0:0:0:
32,160,58997,2,0,P|40:200|24:256,1,83.9999974365235
216,272,59466,6,0,P|128:276|64:344,1,167.999994873047,4|0,0:0|0:0,0:0:0:0:
160,360,60169,1,0,0:0:0:0:
64,228,60404,1,0,0:0:0:0:
104,144,60638,1,0,0:0:0:0:
168,208,60872,1,0,0:0:0:0:
224,136,61107,2,0,P|256:180|256:248,1,83.9999974365235
176,288,61575,1,0,0:0:0:0:
64,224,61810,2,0,P|36:192|-16:184,1,83.9999974365235
16,24,62279,6,0,P|48:104|136:136,1,167.999994873047,4|0,0:0|0:0,0:0:0:0:
120,40,62982,1,0,0:0:0:0:
208,8,63216,1,0,0:0:0:0:
344,56,63450,1,0,0:0:0:0:
256,96,63685,1,0,0:0:0:0:
168,128,63919,2,0,P|192:160|248:184,1,83.9999974365235
256,96,64388,1,0,0:0:0:0:
112,216,64622,2,0,P|148:240|168:280,1,83.9999974365235
328,344,65091,6,0,P|264:284|248:208,1,167.999994873047,4|0,0:0|0:0,0:0:0:0:
232,120,65794,2,0,P|272:92|280:32,1,83.9999974365235
336,176,66263,2,0,P|348:132|392:104,1,83.9999974365235
424,192,66732,1,0,0:0:0:0:
256,200,66966,5,0,0:0:0:0:
256,200,67083,1,0,0:0:0:0:
256,200,67200,1,0,0:0:0:0:
312,56,67435,1,0,0:0:0:0:
312,56,67552,1,0,0:0:0:0:
312,56,67669,1,0,0:0:0:0:
104,112,67904,6,0,P|188:88|240:0,1,167.999994873047,4|0,0:0|0:0,0:0:0:0:
312,56,68607,2,0,P|287:134|316:212,1,167.999994873047,4|0,0:0|0:0,0:0:0:0:
376,160,69310,1,0,0:0:0:0:
376,160,69779,6,0,P|416:172|472:144,1,83.9999974365235,0|0,0:0|0:0,0:0:0:0:
408,80,70247,1,0,0:0:0:0:
296,200,70482,1,0,0:0:0:0:
176,72,70716,2,0,P|208:144|192:240,1,167.999994873047,4|0,0:0|0:0,0:0:0:0:
120,176,71419,2,0,P|80:176|40:204,1,83.9999974365235
104,264,71888,1,0,0:0:0:0:
192,272,72122,6,0,P|204:312|184:360,1,83.9999974365235
280,248,72591,2,0,P|288:292|336:328,1,83.9999974365235
208,184,73060,2,0,P|164:176|120:220,1,83.9999974365235
40,48,73529,6,0,P|40:92|80:136,2,83.9999974365235,4|0|0,0:0|0:0|0:0,0:0:0:0:
216,104,74232,6,0,P|244:72|296:64,1,83.9999974365235
296,160,74700,1,0,0:0:0:0:
392,152,74935,2,0,P|380:192|400:248,1,83.9999974365235
216,224,75404,2,0,P|248:252|304:248,1,83.9999974365235
296,160,75872,1,0,0:0:0:0:
296,160,76341,1,0,0:0:0:0:
256,192,76458,12,0,80560,0:0:0:0:
432,56,84779,5,0,0:0:0:0:
432,56,85018,5,0,0:0:0:0:
312,152,85487,1,0,0:0:0:0:
168,88,85955,1,0,0:0:0:0:
40,176,86424,1,0,0:0:0:0:
40,176,86659,5,0,0:0:0:0:
40,256,86893,1,0,0:0:0:0:
176,336,87362,1,0,0:0:0:0:
176,256,87596,1,0,0:0:0:0:
176,256,87830,5,0,0:0:0:0:
88,128,88299,1,0,0:0:0:0:
184,8,88768,1,0,0:0:0:0:
336,48,89237,1,0,0:0:0:0:
336,48,89471,5,0,0:0:0:0:
336,128,89705,1,0,0:0:0:0:
336,208,89940,1,0,0:0:0:0:
336,288,90174,1,0,0:0:0:0:
336,368,90409,1,0,0:0:0:0:
336,368,90643,5,0,0:0:0:0:
192,304,91112,1,0,0:0:0:0:
40,328,91580,1,0,0:0:0:0:
40,328,91815,5,0,0:0:0:0:
40,248,92049,1,0,0:0:0:0:
192,280,92518,1,0,0:0:0:0:
192,200,92752,1,0,0:0:0:0:
192,120,92987,1,0,0:0:0:0:
192,40,93221,1,0,0:0:0:0:
192,40,93455,5,0,0:0:0:0:
312,136,93924,1,0,0:0:0:0:
448,64,94393,1,0,0:0:0:0:
448,64,94627,5,0,0:0:0:0:
448,144,94862,1,0,0:0:0:0:
432,216,95096,2,2,B|432:304,1,70,0|0,0:0|0:0,0:0:0:0:
360,320,95565,2,2,B|360:248,1,70,0|0,0:0|0:0,0:0:0:0:
360,176,96034,1,0,0:0:0:0:
360,176,96268,6,0,P|328:108|256:80,2,140
360,176,97440,5,0,0:0:0:0:
280,176,97674,1,0,0:0:0:0:
200,176,97909,2,2,P|164:156|144:128,1,70,0|0,0:0|0:0,0:0:0:0:
136,248,98377,2,2,P|108:224|56:216,1,70,0|0,0:0|0:0,0:0:0:0:
80,136,98846,1,0,0:0:0:0:
80,136,99080,6,0,P|56:68|-16:40,2,140
80,136,100252,5,0,0:0:0:0:
160,136,100487,1,0,0:0:0:0:
240,136,100721,1,0,0:0:0:0:
304,176,100955,2,0,P|316:216|304:272,2,70
312,96,101659,1,0,0:0:0:0:
312,96,101893,6,0,P|384:100|448:64,2,140
312,96,103065,5,0,0:0:0:0:
240,72,103299,1,0,0:0:0:0:
160,72,103534,2,0,P|156:112|116:144,2,70
80,80,104237,1,0,0:0:0:0:
32,208,104471,5,0,0:0:0:0:
304,352,104940,2,0,P|304:272|360:208,2,154.000004699707,0|8|0,0:0|0:0|0:0,0:0:0:0:
304,352,106112,1,0,0:0:0:0:
304,352,106580,5,0,0:0:0:0:
248,288,106815,1,0,0:0:0:0:
168,268,107049,1,0,0:0:0:0:
56,120,107284,2,0,P|112:176|200:172,1,154.000004699707
264,136,107987,1,0,0:0:0:0:
224,52,108221,1,8,0:0:0:0:
224,52,108690,5,0,0:0:0:0:
176,128,108924,2,0,P|256:144|312:192,1,154.000004699707
344,264,109627,1,8,0:0:0:0:
344,264,110096,6,0,P|420:244|456:176,1,154.000004699707
384,136,110799,1,0,0:0:0:0:
416,56,111034,1,8,0:0:0:0:
416,56,111502,1,0,0:0:0:0:
328,64,111737,2,0,P|256:96|176:80,1,154.000004699707
128,16,112440,1,0,0:0:0:0:
64,72,112674,1,0,0:0:0:0:
140,184,112909,6,0,P|64:164|-12:212,1,154.000004699707
48,272,113612,1,0,0:0:0:0:
108,340,113846,1,4,0:0:0:0:
108,340,114315,5,0,0:0:0:0:
212,340,114549,1,0,0:0:0:0:
352,128,115018,1,0,0:0:0:0:
240,128,115252,1,0,0:0:0:0:
240,128,115721,6,0,P|200:204|120:240,1,154.000004699707,4|0,0:0|0:0,0:0:0:0:
104,152,116424,1,0,0:0:0:0:
104,152,116893,2,0,P|60:152|16:192,1,83.9999974365235
176,214,117362,2,0,P|216:212|252:236,1,83.9999974365235
192,300,117830,1,0,0:0:0:0:
272,128,118065,2,0,P|228:136|168:96,1,83.9999974365235
360,24,118534,6,0,P|360:104|432:168,1,167.999994873047,4|0,0:0|0:0,0:0:0:0:
456,80,119237,1,0,0:0:0:0:
456,80,119705,5,0,0:0:0:0:
480,168,119940,1,0,0:0:0:0:
440,256,120174,1,0,0:0:0:0:
336,120,120409,2,0,P|332:164|376:208,1,83.9999974365235
424,136,120877,1,0,0:0:0:0:
256,200,121112,1,0,0:0:0:0:
176,32,121346,6,0,P|188:116|136:192,1,167.999994873047,4|0,0:0|0:0,0:0:0:0:
104,104,122049,2,0,P|68:92|24:104,1,83.9999974365235
72,248,122518,2,0,P|112:232|144:176,1,83.9999974365235
64,168,122987,1,0,0:0:0:0:
0,288,123221,2,0,P|32:316|40:360,1,83.9999974365235
200,312,123690,2,0,P|156:304|104:344,1,83.9999974365235
321,334,124159,6,0,P|276:268|288:176,1,167.999994873047,4|0,0:0|0:0,0:0:0:0:
360,232,124862,1,0,0:0:0:0:
432,176,125096,1,0,0:0:0:0:
432,32,125330,1,0,0:0:0:0:
368,104,125565,1,0,0:0:0:0:
368,104,126034,2,0,P|344:140|288:152,1,83.9999974365235
408,256,126502,2,0,P|412:212|456:168,1,83.9999974365235
352,48,126971,6,0,P|340:140|280:192,1,167.999994873047,4|0,0:0|0:0,0:0:0:0:
240,104,127674,1,0,0:0:0:0:
240,104,128143,2,0,P|208:76|160:88,1,83.9999974365235
280,188,128612,2,0,P|316:164|328:120,1,83.9999974365235
376,224,129080,1,0,0:0:0:0:
208,184,129315,2,0,P|164:188|128:152,1,83.9999974365235
56,24,129784,6,0,P|144:40|192:104,1,167.999994873047,4|0,0:0|0:0,0:0:0:0:
272,56,130487,1,0,0:0:0:0:
272,56,130955,2,0,P|264:96|280:152,1,83.9999974365235
192,32,131424,2,0,P|188:72|160:112,1,83.9999974365235
352,24,131893,2,0,P|356:64|384:96,1,83.9999974365235
448,32,132362,1,0,0:0:0:0:
432,200,132596,6,0,P|464:232|464:280,2,83.9999974365235,4|0|0,0:0|0:0|0:0,0:0:0:0:
288,280,133299,6,0,P|296:236|264:184,1,83.9999974365235
160,136,133768,2,0,P|196:116|256:128,1,83.9999974365235
192,224,134237,2,0,P|152:244|88:208,1,83.9999974365235
256,296,134705,1,0,0:0:0:0:
272,160,134940,1,0,0:0:0:0:
336,240,135174,1,0,0:0:0:0:
496,200,135409,6,0,P|424:248|400:344,1,167.999994873047,4|0,0:0|0:0,0:0:0:0:
488,304,136112,1,0,0:0:0:0:
488,304,136580,2,0,P|516:340|512:384,2,83.9999974365235
368,256,137284,5,0,0:0:0:0:
368,256,137401,1,0,0:0:0:0:
368,256,137518,1,0,0:0:0:0:
376,132,137752,1,0,0:0:0:0:
352,124,137869,1,0,0:0:0:0:
328,116,137987,1,0,0:0:0:0:
308,112,138104,1,0,0:0:0:0:
285,106,138221,6,0,P|272:192|198:250,1,167.999994873047,4|0,0:0|0:0,0:0:0:0:
192,152,138924,1,0,0:0:0:0:
192,152,139393,1,0,0:0:0:0:
88,272,139627,2,0,P|124:244|132:204,1,83.9999974365235
216,256,140096,1,0,0:0:0:0:
272,184,140330,1,0,0:0:0:0:
240,48,140565,1,0,0:0:0:0:
192,128,140799,1,0,0:0:0:0:
32,96,141034,6,0,P|64:172|160:200,1,167.999994873047,4|0,0:0|0:0,0:0:0:0:
128,112,141737,1,0,0:0:0:0:
184,32,141971,1,0,0:0:0:0:
176,192,142205,1,0,0:0:0:0:
200,280,142440,2,0,P|240:288|288:272,1,83.9999974365235
88,192,142909,2,0,P|96:232|76:276,1,83.9999974365235
8,224,143377,1,0,0:0:0:0:
184,240,143612,1,0,0:0:0:0:
248,80,143846,6,0,P|216:112|224:184,2,83.9999974365235,4|0|0,0:0|0:0|0:0,0:0:0:0:
376,168,144549,5,0,0:0:0:0:
376,168,145018,2,0,P|392:208|368:264,1,83.9999974365235
464,80,145487,2,0,P|420:84|376:40,1,83.9999974365235
456,0,145955,1,0,0:0:0:0:
304,96,146190,2,0,P|288:136|244:160,1,83.9999974365235
72,128,146659,6,0,P|132:72|232:80,1,167.999994873047,4|0,0:0|0:0,0:0:0:0:
168,152,147362,1,0,0:0:0:0:
128,240,147596,1,0,0:0:0:0:
216,236,147830,1,0,0:0:0:0:
312,80,148065,1,0,0:0:0:0:
344,168,148299,2,0,P|332:208|284:240,2,83.9999974365235
192,112,149002,1,0,0:0:0:0:
192,112,149471,6,0,P|152:188|64:216,1,167.999994873047,4|0,0:0|0:0,0:0:0:0:
128,288,150174,1,0,0:0:0:0:
128,288,150643,2,0,P|88:300|64:352,1,83.9999974365235
32,192,151112,2,0,P|64:212|116:192,1,83.9999974365235
88,120,151580,1,0,0:0:0:0:
48,336,151815,2,0,P|36:296|-16:272,1,83.9999974365235
148,188,152284,6,0,P|128:264|160:360,1,167.999994873047,4|0,0:0|0:0,0:0:0:0:
216,288,152987,1,0,0:0:0:0:
228,192,153221,1,0,0:0:0:0:
168,120,153455,1,0,0:0:0:0:
88,160,153690,2,0,P|48:156|16:120,1,83.9999974365235
120,312,154159,2,0,P|120:268|152:224,1,83.9999974365235
208,296,154627,1,0,0:0:0:0:
208,296,155096,6,0,P|244:324|304:336,2,83.9999974365235,4|0|0,0:0|0:0|0:0,0:0:0:0:
240,152,155799,5,0,0:0:0:0:
240,152,156268,2,0,P|284:144|320:104,1,83.9999974365235
336,256,156737,2,0,P|296:236|244:244,1,83.9999974365235
424,216,157205,2,0,P|392:184|392:128,1,83.9999974365235
472,152,157674,1,0,0:0:0:0:
368,48,157909,5,4,0:0:0:0:
272,80,158143,1,0,0:0:0:0:
204,136,158377,1,0,0:0:0:0:
160,200,158612,1,0,0:0:0:0:
132,268,158846,1,0,0:0:0:0:
132,268,159315,5,0,0:0:0:0:
236,280,159784,1,0,0:0:0:0:
336,288,160252,2,0,L|360:320,6,27.9999991455078,0|0|0|0|0|0|4,0:0|0:0|0:0|0:0|0:0|0:0|0:0,0:0:0:0:
336,288,161190,5,0,0:0:0:0:
400,216,161424,2,0,B|416:112,1,84.0000020027161
328,136,161893,2,0,B|312:52,1,84.0000020027161
312,56,162596,6,0,B|216:56,1,84.0000020027161,0|0,0:0|0:0,0:0:0:0:
152,112,163065,2,0,L|124:80,6,27.9999991455078,0|0|0|0|0|0|4,0:0|0:0|0:0|0:0|0:0|0:0|0:0,0:0:0:0:
152,112,164002,5,0,0:0:0:0:
60,180,164237,2,0,B|44:268,1,84.0000020027161
132,228,164705,2,0,B|140:316,1,84.0000020027161
139,311,165409,5,0,0:0:0:0:
236,280,165643,2,0,L|232:244,3,27.9999991455078
308,348,166112,2,0,L|276:380,3,27.9999991455078,0|0|0|4,0:0|0:0|0:0|0:0,0:0:0:0:
308,348,166815,6,0,B|404:348,1,84.0000020027161
412,260,167284,1,0,0:0:0:0:
504,160,167518,2,0,B|384:160,1,84.0000020027161
80,160,168221,5,0,0:0:0:0:
80,160,168455,1,0,0:0:0:0:
156,108,168690,2,0,L|152:72,6,27.9999991455078,0|0|0|0|0|0|4,0:0|0:0|0:0|0:0|0:0|0:0|0:0,0:0:0:0:
432,320,169627,6,0,B|464:224,1,84.0000020027161
344,304,170096,2,0,B|344:208,1,84.0000020027161
256,336,170565,1,0,0:0:0:0:
256,40,171034,1,0,0:0:0:0:
256,336,171502,2,0,L|256:376,6,27.9999991455078,0|0|0|0|0|0|4,0:0|0:0|0:0|0:0|0:0|0:0|0:0,0:0:0:0:
216,240,172205,6,0,P|184:208|132:196,2,83.9999974365235
132,296,172909,1,0,0:0:0:0:
236,124,173377,1,0,0:0:0:0:
236,124,173846,6,0,B|324:124,1,84.0000020027161
408,128,174315,2,0,L|436:152,5,27.9999991455078
452,168,174784,6,0,P|464:208|440:256,2,83.9999974365235,4|0|0,0:0|0:0|0:0,0:0:0:0:
452,168,175487,1,0,0:0:0:0:
368,208,175721,2,0,P|336:284|360:368,1,167.999994873047
180,32,176659,2,0,B|124:96,1,84.0000020027161
216,112,177127,2,0,L|236:140,5,27.9999991455078
244,152,177596,5,4,0:0:0:0:
300,224,177830,1,0,0:0:0:0:
396,232,178065,1,0,0:0:0:0:
468,160,178299,1,0,0:0:0:0:
40,216,179002,5,0,0:0:0:0:
56,128,179237,1,0,0:0:0:0:
136,56,179471,1,0,0:0:0:0:
248,32,179705,1,0,0:0:0:0:
256,352,180409,5,0,0:0:0:0:
180,284,180643,1,0,0:0:0:0:
172,192,180877,1,0,0:0:0:0:
188,116,181112,1,0,0:0:0:0:
240,64,181346,2,0,B|280:28|340:56|340:56|396:88|440:52,1,210
168,144,185096,6,0,P|196:172|200:224,1,83.9999974365235
272,64,185565,2,0,P|276:104|312:136,1,83.9999974365235
488,112,186034,6,0,P|416:144|384:232,1,167.999994873047,4|0,0:0|0:0,0:0:0:0:
480,208,186737,1,0,0:0:0:0:
380,68,186971,1,0,0:0:0:0:
328,136,187205,1,0,0:0:0:0:
160,80,187440,6,0,P|228:128|256:216,2,167.999994873047,4|0|0,0:0|0:0|0:0,0:0:0:0:
160,80,188612,1,0,0:0:0:0:
80,124,188846,5,0,0:0:0:0:
0,176,189080,1,0,0:0:0:0:
84,216,189315,5,0,0:0:0:0:
168,244,189549,1,0,0:0:0:0:
96,304,189784,5,0,0:0:0:0:
12,344,190018,1,0,0:0:0:0:
12,344,190252,5,4,0:0:0:0:
396,268,190721,1,0,0:0:0:0:
396,268,190955,1,0,0:0:0:0:
404,168,191190,2,0,L|364:180,6,27.9999991455078,0|0|0|0|0|0|4,0:0|0:0|0:0|0:0|0:0|0:0|0:0,0:0:0:0:
448,72,191893,5,0,0:0:0:0:
368,32,192127,1,2,0:0:0:0:
288,72,192362,1,0,0:0:0:0:
200,32,192596,1,2,0:0:0:0:
64,320,193065,5,4,0:0:0:0:
168,272,193299,1,0,0:0:0:0:
272,320,193534,1,2,0:0:0:0:
376,264,193768,1,0,0:0:0:0:
376,264,194002,5,2,0:0:0:0:
40,144,194471,2,0,P|112:104|200:104,2,167.999994873047,4|0|0,0:0|0:0|0:0,0:0:0:0:
228,328,195877,2,0,P|310:329|380:285,1,167.999994873047,4|0,0:0|0:0,0:0:0:0:
440,356,196580,1,0,0:0:0:0:
492,280,196815,2,0,L|464:244,5,27.9999991455078
456,236,197284,6,0,P|408:164|400:76,2,167.999994873047,4|0|0,0:0|0:0|0:0,0:0:0:0:
52,268,198690,1,4,0:0:0:0:
52,268,199159,1,4,0:0:0:0:
52,268,199627,6,0,L|24:308,6,27.9999991455078,0|0|0|0|0|0|4,0:0|0:0|0:0|0:0|0:0|0:0|0:0,0:0:0:0:
8,176,200330,5,0,0:0:0:0:
16,88,200565,1,2,0:0:0:0:
104,56,200799,1,0,0:0:0:0:
168,120,201034,1,2,0:0:0:0:
288,328,201502,5,0,0:0:0:0:
392,360,201737,1,0,0:0:0:0:
488,316,201971,1,2,0:0:0:0:
512,212,202205,1,0,0:0:0:0:
460,120,202440,2,0,L|416:120,5,27.9999991455078,0|0|0|0|0|0,0:0|0:0|0:0|0:0|0:0|0:0,0:0:0:0:
400,116,202909,6,0,P|344:52|248:12,2,167.999994873047,4|0|0,0:0|0:0|0:0,0:0:0:0:
88,236,204315,2,0,P|144:300|240:340,2,167.999994873047,0|0|0,0:0|0:0|0:0,0:0:0:0:
448,56,205721,1,0,0:0:0:0:
424,352,206190,5,0,0:0:0:0:
424,352,206424,1,0,0:0:0:0:
376,264,206659,5,0,0:0:0:0:
376,264,206893,1,0,0:0:0:0:
264,208,207127,5,0,0:0:0:0:
264,208,207362,1,0,0:0:0:0:
128,192,207596,5,0,0:0:0:0:
8,256,207830,1,0,0:0:0:0:
128,192,208065,1,0,0:0:0:0:
8,256,208299,1,0,0:0:0:0:
128,192,208534,6,0,P|196:148|224:64,1,167.999994873047
120,96,209237,1,0,0:0:0:0:
120,96,209705,2,0,P|76:108|56:168,1,83.9999974365235
208,152,210174,2,0,P|248:140|272:72,1,83.9999974365235
128,192,210643,2,0,P|96:216|88:260,1,83.9999974365235
168,264,211112,1,0,0:0:0:0:
296,368,211346,6,0,P|252:300|264:200,1,167.999994873047,4|0,0:0|0:0,0:0:0:0:
344,264,212049,1,0,0:0:0:0:
344,264,212518,2,0,P|380:288|396:332,1,83.9999974365235
224,248,212987,2,0,P|184:240|160:200,1,83.9999974365235
192,336,213455,1,0,0:0:0:0:
280,320,213690,1,0,0:0:0:0:
312,232,213924,1,0,0:0:0:0:
128,200,214159,6,0,P|200:164|240:80,1,167.999994873047,4|0,0:0|0:0,0:0:0:0:
144,96,214862,1,0,0:0:0:0:
144,96,215330,2,0,P|100:84|40:120,1,83.9999974365235
208,176,215799,2,0,P|248:160|256:96,1,83.9999974365235
112,176,216268,2,0,P|100:216|128:256,1,83.9999974365235
232,88,216737,1,0,0:0:0:0:
248,240,216971,6,0,P|284:164|376:112,1,167.999994873047,4|0,0:0|0:0,0:0:0:0:
400,288,217674,1,0,0:0:0:0:
344,216,217909,1,0,0:0:0:0:
280,72,218143,1,0,0:0:0:0:
264,160,218377,1,0,0:0:0:0:
248,240,218612,1,0,0:0:0:0:
296,312,218846,5,0,0:0:0:0:
296,312,218963,1,0,0:0:0:0:
296,312,219080,1,0,0:0:0:0:
168,232,219315,1,0,0:0:0:0:
168,232,219432,1,0,0:0:0:0:
168,232,219549,1,0,0:0:0:0:
128,48,219784,6,0,P|120:128|56:224,1,167.999994873047,4|0,0:0|0:0,0:0:0:0:
32,104,220487,1,0,0:0:0:0:
32,104,220955,2,0,P|0:132|0:192,1,83.9999974365235
168,136,221424,2,0,P|200:108|208:64,1,83.9999974365235
88,192,221893,2,0,P|120:228|168:224,1,83.9999974365235
128,48,222362,1,0,0:0:0:0:
296,16,222596,6,0,P|228:60|212:144,1,167.999994873047,4|0,0:0|0:0,0:0:0:0:
304,112,223299,1,0,0:0:0:0:
304,112,223768,1,0,0:0:0:0:
336,192,224002,1,0,0:0:0:0:
208,112,224237,2,0,P|184:80|208:24,1,83.9999974365235
104,88,224705,1,0,0:0:0:0:
248,192,224940,2,0,P|208:208|168:192,1,83.9999974365235
48,296,225409,5,4,0:0:0:0:
104,360,225643,1,0,0:0:0:0:
48,296,225877,1,0,0:0:0:0:
232,224,226112,6,0,P|252:260|296:272,1,83.9999974365235
136,208,226580,2,0,P|156:240|128:304,1,83.9999974365235
304,192,227049,1,0,0:0:0:0:
312,344,227284,1,0,0:0:0:0:
312,344,227752,1,0,0:0:0:0:
312,344,228221,6,0,P|356:272|456:256,1,167.999994873047,4|0,0:0|0:0,0:0:0:0:
416,344,228924,1,0,0:0:0:0:
416,344,229393,1,0,0:0:0:0:
432,264,229627,1,0,0:0:0:0:
432,264,230096,6,4,B|464:176,1,84.0000020027161,4|0,0:0|0:0,0:0:0:0:
376,168,230565,2,4,B|344:80,1,84.0000020027161,4|0,0:0|0:0,0:0:0:0:
168,56,231034,6,0,P|248:88|288:168,1,167.999994873047,4|0,0:0|0:0,0:0:0:0:
144,152,231737,1,0,0:0:0:0:
144,152,232205,2,0,P|104:128|88:88,1,83.9999974365235
88,256,232674,2,0,P|72:216|4:188,1,83.9999974365235
8,272,233143,1,0,0:0:0:0:
168,232,233377,1,0,0:0:0:0:
216,104,233612,1,0,0:0:0:0:
392,56,233846,6,0,P|320:96|288:184,1,167.999994873047,4|0,0:0|0:0,0:0:0:0:
376,168,234549,2,0,P|368:216|328:256,1,83.9999974365235
440,272,235018,2,0,P|408:300|392:352,1,83.9999974365235
472,352,235487,1,0,0:0:0:0:
304,256,235721,2,0,P|308:296|288:344,1,83.9999974365235
376,216,236190,2,0,P|352:176|368:112,1,83.9999974365235
456,8,236659,6,0,P|380:52|288:48,1,167.999994873047,4|0,0:0|0:0,0:0:0:0:
224,96,237362,1,0,0:0:0:0:
224,96,237830,2,0,P|252:124|260:176,1,83.9999974365235
112,88,238299,2,0,P|116:132|168:168,1,83.9999974365235
320,32,239002,5,0,0:0:0:0:
96,232,239471,2,0,P|184:264|220:348,1,167.999994873047,4|0,0:0|0:0,0:0:0:0:
136,328,240174,1,0,0:0:0:0:
240,216,240409,1,0,0:0:0:0:
280,288,240643,1,0,0:0:0:0:
328,216,240877,1,0,0:0:0:0:
328,216,241346,6,0,P|316:160|352:112,1,83.9999974365235
248,32,241815,2,0,P|248:80|212:136,1,83.9999974365235
408,144,242284,6,0,P|316:152|256:232,1,167.999994873047,4|0,0:0|0:0,0:0:0:0:
352,224,242987,1,0,0:0:0:0:
288,280,243221,1,0,0:0:0:0:
320,360,243455,1,0,0:0:0:0:
376,304,243690,2,0,P|420:304|456:336,1,83.9999974365235
432,224,244159,2,0,P|420:176|372:140,1,83.9999974365235
492,152,244627,1,0,0:0:0:0:
352,224,244862,1,0,0:0:0:0:
264,96,245096,6,0,P|276:184|232:264,1,167.999994873047,4|0,0:0|0:0,0:0:0:0:
176,200,245799,1,0,0:0:0:0:
152,120,246034,1,0,0:0:0:0:
152,120,246502,2,0,P|108:120|72:152,1,83.9999974365235
248,136,246971,2,0,P|252:88|224:48,1,83.9999974365235
176,200,247440,2,0,P|204:232|260:232,1,83.9999974365235
392,184,247909,6,0,P|428:164|488:176,2,83.9999974365235,4|0|0,0:0|0:0|0:0,0:0:0:0:
440,320,248612,5,0,0:0:0:0:
440,320,249080,2,0,P|416:356|376:368,1,83.9999974365235
480,240,249549,2,0,P|440:224|392:256,1,83.9999974365235
404,239,250252,1,0,0:0:0:0:
256,168,250721,5,4,0:0:0:0:
232,248,250955,1,0,0:0:0:0:
176,320,251190,1,0,0:0:0:0:
96,336,251424,1,0,0:0:0:0:
16,320,251659,1,0,0:0:0:0:
16,320,252127,5,0,0:0:0:0:
64,216,252596,1,0,0:0:0:0:
104,128,253065,1,0,0:0:0:0:
144,48,253534,1,4,0:0:0:0:
