osu file format v6

[General]
AudioFilename: FictionJuction KAORI - Yume no Tsubasa.mp3
AudioLeadIn: 0
PreviewTime: 63448
Countdown: 0
SampleSet: Soft
StackLeniency: 0.7
Mode: 0
LetterboxInBreaks: 1

[Editor]
Bookmarks: 38782,38948,39115,101782,103448,106448,144448,181115
DistanceSpacing: 1
BeatDivisor: 4
GridSize: 8

[Metadata]
Title:Yume no Tsubasa
Artist:FictionJunction KAORI
Creator:Lizbeth
Version:Hard
Source:Tsubasa Chronicle
Tags:Everlasting Songs Kajiura Yuki Lissette

[Difficulty]
HPDrainRate:7
CircleSize:5
OverallDifficulty:7
SliderMultiplier:1.9
SliderTickRate:1

[Events]
//Background and Video events
0,0,"tsubasa_32_1024.jpg"
//Break Periods
2,91303,100870
//Storyboard Layer 0 (Background)
//Storyboard Layer 1 (Fail)
//Storyboard Layer 2 (Pass)
//Storyboard Layer 3 (Foreground)
//Storyboard Sound Samples
//Background Colour Transformations
3,100,163,162,255

[TimingPoints]
9770,666.666666666667,4,2,1,71,1,0
42782,-100,4,2,1,41,0,0
48282,-100,4,2,1,69,0,0
61448,-100,4,2,1,69,0,0
63615,-100,4,1,1,13,0,0
63948,-100,4,1,1,21,0,0
64115,-100,4,1,1,35,0,0
64282,-100,4,1,1,51,0,0
64448,-100,4,1,1,71,0,1
64782,-100,4,2,1,71,0,0
64782,-100,4,2,1,71,0,0
68782,-100,4,2,1,51,0,0
69948,-100,4,2,1,70,0,0
74115,-100,4,2,1,50,0,0
75782,-100,4,2,1,70,0,0
76948,-100,4,2,1,50,0,0
78448,-100,4,2,1,70,0,0
79615,-100,4,2,1,51,0,0
80782,-100,4,2,1,70,0,0
84115,-100,4,1,1,70,0,0
84948,-100,4,1,1,11,0,0
85282,-100,4,1,1,30,0,0
85448,-100,4,1,1,49,0,0
85615,-100,4,1,1,70,0,0
85782,-100,4,1,1,70,0,0
91115,-100,4,2,1,70,0,1
91282,-100,4,2,1,70,0,0
115448,-100,4,2,1,71,0,0
121782,-100,4,1,1,31,0,0
123282,-100,4,2,1,70,0,0
128615,-100,4,2,1,39,0,0
133615,-100,4,2,1,70,0,0
148948,-100,4,1,1,11,0,0
149282,-100,4,1,1,25,0,0
149448,-100,4,1,1,40,0,0
149615,-100,4,1,1,54,0,0
149782,-100,4,1,1,70,0,1
149948,-100,4,2,1,70,0,0
154115,-100,4,2,1,50,0,0
155448,-100,4,2,1,71,0,0
159615,-100,4,2,1,41,0,0
160782,-100,4,2,1,70,0,0
164782,-100,4,2,1,40,0,0
166115,-100,4,2,1,69,0,0
169448,-100,4,1,1,69,0,0
169948,-100,4,1,1,21,0,0
170282,-100,4,1,1,39,0,0
170448,-100,4,1,1,49,0,0
170615,-100,4,1,1,50,0,0
170782,-100,4,1,1,69,0,0
170948,-100,4,2,1,69,0,0
176448,-100,4,2,1,69,0,1
177115,-100,4,2,1,69,0,0

[Colours]
Combo1 : 255,85,255
Combo2 : 0,120,240
Combo3 : 255,66,160
Combo4 : 0,198,198

[HitObjects]
256,192,10103,2,4,B|256:144,2,47.5,0|0|4
160,192,10769,1,0
64,192,11103,1,0
256,32,11769,1,8
256,128,12103,2,0,B|256:232,2,95,0|0|0
256,32,13103,1,8
328,88,13436,1,0
360,120,13603,1,0
392,152,13769,1,2
256,280,14436,6,0,B|256:375,2,95,8|0|0
304,192,15436,2,0,B|336:136,2,47.5,0|0|8
208,192,16103,1,8
112,192,16436,1,2
176,24,17103,6,0,B|256:88|360:24,1,190,8|0
424,96,18103,1,0
352,152,18436,2,0,B|255:212|175:148,1,190,8|2
256,344,19770,5,8
391,271,20103,2,0,B|342:243|302:275,1,95
127,216,20770,2,0,B|167:185|216:213,1,95,0|8
384,136,21436,2,0,B|335:108|295:140,1,95,0|2
200,136,22103,6,0,B|200:240,1,95,0|8
256,312,22770,1,0
256,312,22936,1,0
256,312,23103,1,0
304,232,23436,2,0,B|304:136,1,95,0|8
256,56,24103,1,0
256,56,24270,1,0
256,56,24436,1,2
432,128,25103,5,8
336,128,25436,2,0,B|224:128|168:224,1,190
120,288,26436,1,8
120,288,26603,1,0
88,144,27103,6,0,B|88:24|224:24,1,190,0|8
304,24,28103,1,0
256,104,28436,1,0
256,152,28603,1,0
256,200,28770,1,0
304,280,29103,1,8
376,224,29436,6,0,B|408:176|480:192,1,95,0|2
448,96,30103,1,0
400,112,30270,1,0
352,96,30436,1,8
264,64,30770,6,0,B|216:32|168:72,1,95
64,136,31436,2,0,B|105:101|153:134,1,95,0|8
256,208,32103,2,0,B|208:176|160:216,1,95,0|2
456,336,33103,5,8
456,336,33436,1,0
384,280,33770,2,8,B|304:208,2,95,0|0|8
456,216,34770,1,0
456,168,34936,1,0
456,120,35103,2,0,B|360:120,1,95
208,120,35770,2,0,B|304:120,1,95,8|0
456,168,36436,2,0,B|352:168,1,95
208,168,37103,2,0,B|264:168,2,47.5,4|0|0
144,96,37770,6,0,B|96:136|104:192,2,95,0|0|8
240,96,38770,1,0
288,96,38936,1,0
336,96,39103,2,0,B|376:136|368:192,2,95,0|0|8
256,40,40103,2,0,B|48:40,1,190
66,40,41103,5,8
256,352,41769,1,0
456,40,42436,1,8
264,24,43103,6,0,B|264:120,1,95
232,208,43769,1,8
184,216,43936,1,0
160,256,44103,1,0
112,336,44436,2,0,B|8:336,2,95,0|0|8
208,352,45436,6,0,B|240:256|352:232,1,190
352,328,46436,1,8
344,232,46769,2,0,B|450:210|482:114,1,190
464,24,47769,1,8
368,24,48103,1,0
272,40,48436,6,0,B|208:40|176:88,1,95
280,88,49103,2,0,B|176:112|168:232,1,190,8|0
248,176,50103,2,0,B|208:216|224:272,1,95,0|8
304,208,50769,2,0,B|392:152|392:40,1,190
392,48,51769,1,8
296,56,52103,5,0
248,64,52269,1,0
208,96,52436,1,2
152,176,52769,1,0
128,272,53103,1,8
237,253,53436,6,0,B|215:296,2,47.5
322,75,54103,2,0,B|280:160,1,95,0|8
264,320,54769,2,0,B|306:235,1,95,0|0
376,96,55436,2,0,B|334:181,1,95,0|8
408,232,56103,5,0
408,232,56436,2,0,B|304:240|248:352,1,190,0|8
258,333,57436,2,0,B|212:239|108:231,1,190
112,136,58436,5,8
192,88,58769,2,0,B|176:32,2,47.5,0|0|8
288,88,59436,2,0,B|296:32,2,47.5,0|0|8
376,120,60103,1,2
376,120,60269,1,0
432,192,60603,1,2
432,192,60769,1,0
432,192,61103,1,8
256,352,61769,5,8
152,272,62103,1,0
112,240,62269,1,0
72,208,62436,1,8
256,80,62769,1,8
256,352,63436,5,8
256,352,63769,1,0
272,304,63936,1,0
256,256,64103,1,0
272,208,64269,1,0
256,160,64436,1,4
88,64,65103,5,8
48,152,65436,2,0,B|24:200,2,47.5
88,64,66103,1,0
168,112,66436,1,8
264,112,66769,1,0
360,112,67103,1,2
456,112,67436,1,0
456,208,67769,2,0,B|344:192|304:320,1,190,8|2
120,296,69103,5,4
80,112,69436,1,0
256,160,69769,1,4
336,104,70103,6,0,B|392:64,2,47.5,0|0|8
336,200,70769,1,0
336,200,70936,1,0
336,200,71103,2,0,B|400:272,2,95,0|2|8
312,104,72103,6,0,B|208:104,1,95
64,128,72769,2,0,B|176:128,1,95,0|8
312,160,73436,2,0,B|208:160,1,95,0|2
400,320,74436,5,4
488,144,74769,1,0
296,160,75103,2,0,B|120:48,1,190,4|8
168,144,76103,5,2
168,144,76269,1,0
168,144,76436,2,0,B|256:200,1,95,0|0
112,320,77103,5,8
24,144,77436,1,0
216,160,77769,2,0,B|392:48,1,190,4|8
344,144,78770,5,2
344,144,78936,1,0
344,144,79103,2,0,B|256:200,1,95
160,360,79770,5,4
368,360,80103,1,0
264,200,80436,1,4
264,200,81103,5,8
264,104,81436,2,0,B|264:48,2,47.5,0|0|0
264,200,82103,1,0
264,296,82436,1,8
448,336,83103,5,0
64,336,83770,1,8
256,40,84436,1,0
256,40,84770,1,0
256,40,85103,5,0
248,88,85270,1,0
264,128,85436,1,0
256,176,85603,1,0
264,224,85770,1,0
264,320,86103,2,0,B|264:368,2,47.5,0|0|4
264,320,86770,1,4
256,208,87103,12,0,91103
256,24,101770,6,0,B|304:120|248:216,1,190,2|8
253,206,102770,2,0,B|232:256|256:304,1,95,0|2
252,297,103436,5,0
336,344,103770,1,8
252,297,104103,1,0
252,297,104270,1,0
252,297,104436,1,0
168,344,104770,1,2
252,297,105103,1,8
256,80,105436,5,0
152,192,105770,1,2
252,299,106103,1,2
360,192,106436,1,8
448,336,107103,5,0
464,248,107436,2,0,B|472:192|424:160,1,95,0|8
336,192,108103,2,0,B|288:160|296:104,1,95,0|0
352,40,108770,1,0
256,32,109103,5,0
136,192,109436,1,0
392,192,109770,1,0
56,344,110436,5,8
152,344,110770,1,2
464,344,111436,1,2
368,344,111770,1,8
360,152,112436,5,0
264,152,112770,2,0,B|208:120|160:160,1,95,0|8
112,72,113436,1,0
56,152,113770,1,0
104,232,114103,1,0
104,232,114270,1,0
104,232,114436,1,8
168,296,114770,2,0,B|216:264|272:304,1,95,0|0
440,336,115770,5,8
72,336,116436,1,0
256,56,117103,1,8
144,208,117770,6,0,B|184:168|192:120,1,95,2|0
368,208,118436,2,0,B|328:168|320:120,1,95,8|0
144,336,119103,2,0,B|184:296|192:248,1,95,2|0
368,336,119770,2,0,B|328:296|320:248,1,95,8|0
256,168,120436,5,2
208,88,120770,1,0
256,72,120936,1,0
304,88,121103,1,8
256,168,121436,1,4
128,304,122103,5,0
216,336,122436,1,0
264,328,122603,1,0
312,336,122770,1,0
400,304,123103,1,4
416,208,123436,5,0
416,112,123770,1,8
336,56,124103,1,0
336,152,124436,1,0
264,208,124770,1,0
264,112,125103,1,8
184,296,125770,5,2
184,24,126436,1,8
120,296,127103,1,2
128,24,127770,1,8
88,112,128103,5,2
88,112,128270,1,0
88,112,128436,1,2
160,168,128770,2,0,B|232:232,2,95,0|8|0
192,80,129770,2,0,B|296:64,1,95,2|0
336,144,130436,5,8
432,128,130770,2,0,B|432:240|368:320,1,190
296,360,131770,1,8
280,264,132103,2,0,B|288:160|368:96,1,190
456,64,133103,1,8
456,64,133436,1,0
360,72,133770,5,2
304,144,134103,1,0
240,72,134436,1,8
184,144,134770,1,0
136,144,134936,1,0
88,144,135103,1,2
88,144,135770,5,8
136,224,136103,2,0,B|200:296,2,95
88,144,137103,1,8
184,144,137436,2,0,B|296:152,2,95
88,144,138436,1,8
88,240,138770,5,0
120,272,138936,1,0
152,304,139103,1,2
208,232,139436,2,0,B|208:136,1,95,0|8
272,208,140103,2,0,B|272:112,1,95,0|2
336,176,140770,2,0,B|336:80,1,95,0|8
72,48,141436,5,0
72,48,141770,1,2
456,344,142436,1,8
456,344,142770,1,2
80,336,143436,5,0
256,200,143770,1,8
440,48,144103,1,8
256,208,144436,12,8,146436
256,192,146770,5,8
80,96,147436,5,8
432,96,147770,1,8
256,344,148436,5,8
256,88,148770,1,8
328,168,149103,5,0
368,152,149270,1,0
392,120,149436,1,0
432,112,149603,1,0
456,80,149770,5,0
360,80,150103,2,0,B|360:32,2,47.5,0|0|8
264,80,150770,1,0
168,80,151103,2,0,B|168:272,1,190,0|8
48,344,152436,5,0
256,32,153103,1,8
464,344,153770,1,0
256,32,154436,5,4
136,216,154770,1,0
376,216,155103,1,4
376,216,155770,5,8
304,272,156103,1,0
256,256,156270,1,0
208,272,156436,1,0
136,208,156770,1,0
136,208,157103,1,8
160,32,157769,6,0,B|256:32,1,95
416,64,158436,2,0,B|312:64,1,95,8|0
160,96,159103,2,0,B|256:96,1,95
256,96,159769,5,4
368,256,160103,1,0
144,256,160436,1,4
456,48,161103,5,8
360,48,161436,1,0
312,48,161603,1,0
264,48,161769,1,0
168,48,162103,1,0
72,48,162436,1,8
48,344,163103,5,0
256,32,163769,1,8
464,344,164436,1,0
152,192,165103,5,4
256,32,165436,1,0
360,192,165769,1,4
360,192,166436,5,8
304,272,166769,1,0
280,312,166936,1,0
256,352,167103,1,0
200,272,167436,1,0
256,352,167769,1,8
160,160,168436,5,0
256,160,168769,1,0
352,160,169103,1,8
256,344,169769,1,0
256,344,170103,2,0,B|256:272,4,47.5
88,64,171103,5,0
424,64,171436,1,0
424,320,171769,1,0
88,320,172103,1,4
128,128,172769,6,0,B|248:128,1,95,0|8
376,128,173436,2,0,B|281:128,1,95,0|8
256,216,174103,5,0
152,352,174436,1,8
360,352,174769,1,8
256,208,175103,12,4,176436
