osu file format v6

[General]
AudioFilename: FictionJuction KAORI - Yume no Tsubasa.mp3
AudioLeadIn: 0
PreviewTime: 63448
Countdown: 0
SampleSet: Soft
StackLeniency: 0.7
Mode: 0
LetterboxInBreaks: 1

[Editor]
Bookmarks: 38782,38948,39115,101782
DistanceSpacing: 0.699999988079071
BeatDivisor: 4
GridSize: 8

[Metadata]
Title:Yume no Tsubasa
Artist:FictionJunction KAORI
Creator:Lizbeth
Version:Easy
Source:Tsubasa Chronicle
Tags:Everlasting Songs Kajiura Yuki Lissette

[Difficulty]
HPDrainRate:3
CircleSize:3
OverallDifficulty:3
SliderMultiplier:1.5
SliderTickRate:1

[Events]
//Background and Video events
0,0,"Copy of tsubasa_32_1024.jpg"
//Break Periods
2,91303,100330
//Storyboard Layer 0 (Background)
//Storyboard Layer 1 (Fail)
//Storyboard Layer 2 (Pass)
//Storyboard Layer 3 (Foreground)
//Storyboard Sound Samples
//Background Colour Transformations
3,100,163,162,255

[TimingPoints]
9770,666.666666666667,4,2,1,71,1,0
42782,-100,4,2,1,41,0,0
48282,-100,4,2,1,69,0,0
61448,-100,4,2,1,41,0,0
62782,-100,4,1,1,31,0,0
64448,-100,4,1,1,31,0,1
64782,-100,4,2,1,71,0,0
68782,-100,4,2,1,51,0,0
69948,-100,4,2,1,70,0,0
74115,-100,4,2,1,50,0,0
75448,-100,4,2,1,70,0,0
76948,-100,4,2,1,50,0,0
78115,-100,4,2,1,71,0,0
79615,-100,4,2,1,51,0,0
80782,-100,4,2,1,70,0,0
84948,-100,4,1,1,41,0,0
87115,-100,4,2,1,70,0,0
91115,-100,4,2,1,70,0,1
91448,-100,4,2,1,70,0,0
128615,-100,4,2,1,39,0,0
133615,-100,4,2,1,70,0,0
144115,-100,4,2,1,0,0,0

[Colours]
Combo1 : 255,184,149
Combo2 : 255,255,255
Combo3 : 128,255,128
Combo4 : 255,255,128

[HitObjects]
64,56,10103,6,0,B|64:144,1,75,0|4
120,216,11103,6,0,B|120:129|191:93,1,150,0|8
232,192,12436,2,0,B|305:163|313:74,1,150,0|8
208,88,13769,6,0,B|128:112|96:208,1,150,0|8
208,200,15103,2,0,B|176:288|80:296,1,150,0|8
96,184,16436,5,4
160,104,17103,1,8
224,184,17769,1,0
296,104,18436,2,0,B|456:104,1,150,8|2
448,208,19770,5,8
392,296,20436,1,0
336,208,21103,2,0,B|176:208,1,150,8|2
120,120,22436,5,8
224,120,23103,1,0
328,120,23770,2,0,B|408:120,2,75,8|0|2
304,224,25103,6,0,B|304:312,1,75,8|0
200,296,26103,2,0,B|200:216,1,75,0|8
112,168,27103,6,0,B|144:80|264:80,1,150,2|8
248,184,28436,1,0
304,96,29103,2,0,B|344:104|360:144,2,75,8|0|2
248,184,30436,5,8
176,264,31103,2,0,B|248:320|336:256,2,150,0|8|0
200,160,33103,2,0,B|200:72,1,75,8|0
304,88,34103,2,0,B|304:163,1,75,0|8
312,264,35103,6,0,B|400:264,2,75,2|0|8
208,264,36436,2,0,B|133:264,2,75,0|0|8
136,184,37770,6,0,B|152:96|248:64,1,150,2|8
328,72,39103,1,0
328,72,39436,1,0
328,72,39769,1,8
392,152,40436,6,0,B|376:240|280:272,1,150,2|8
192,264,41769,1,0
192,264,42103,1,0
192,264,42436,1,8
256,208,43103,12,2,48436
256,56,49103,6,0,B|96:56,1,150,8|0
176,136,50436,2,0,B|344:136,1,150,8|2
264,216,51769,2,0,B|88:216,1,150,8|0
112,320,53103,6,0,B|200:280|264:328,1,150,8|2
344,272,54436,2,0,B|344:112,2,150,8|0|8
240,272,56436,5,2
136,272,57103,1,8
32,272,57769,1,0
32,168,58436,1,8
120,112,59103,6,0,B|272:112,3,150,2|8|0|8
232,208,61769,2,0,B|400:208,1,150,2|8
328,296,63103,2,0,B|232:296,4,75,0|0|0|0|4
408,224,65103,5,8
408,224,65436,2,0,L|408:104,1,75
304,112,66436,1,8
304,112,66769,2,0,L|304:208,1,75,0|2
248,272,67769,1,8
176,192,68436,1,0
104,272,69103,6,4,L|40:328,2,75,4|0|4
176,192,70436,2,0,L|176:32,1,150,8|0
256,112,71769,1,8
336,192,72436,2,0,L|336:26,2,150,2|8|0
384,272,74436,6,4,L|448:336,2,75,4|0|4
280,256,75769,2,0,B|208:224|128:256,1,150,8|0
56,184,77103,6,4,B|0:112,2,75,4|0|4
136,120,78436,2,0,B|248:240,1,150,8|0
392,136,79770,6,4,B|456:72,2,75,4|0|4
400,240,81103,2,0,B|320:208|232:248,2,150,8|0|8
440,144,83103,5,0
352,80,83770,1,8
248,80,84436,1,0
168,152,85103,2,0,B|72:152,5,75,0|0|0|0|0|4
256,208,87103,12,0,91103
200,40,101770,6,0,B|136:192,1,150,0|8
248,176,103103,1,0
352,176,103770,2,0,B|344:264|400:328,1,150,8|2
288,312,105103,5,8
184,312,105770,1,0
80,311,106436,2,0,B|128:258|120:170,1,150,8|2
224,168,107770,5,8
328,168,108436,1,0
280,264,109103,2,0,B|280:344,2,75,0|0|0
176,264,110436,2,0,B|24:264,2,150,8|0|8
192,160,112436,5,0
192,56,113103,1,8
288,8,113770,1,0
384,48,114436,2,0,B|384:208,1,150,8|0
296,256,115770,1,8
192,256,116436,2,0,B|40:256,2,150,0|8|2
136,168,118436,5,8
256,32,119770,1,8
376,168,121103,1,8
256,168,121770,2,0,B|256:352,1,150,0|8
184,160,123770,6,0,B|96:288,2,150,8|0|8
256,80,125770,1,2
328,160,126436,2,0,B|416:288,2,150,8|0|8
256,208,128436,12,2,133770
416,64,134436,5,8
296,64,135103,2,0,B|192:64,2,75,0|0|8
112,184,137103,1,8
224,184,137770,2,0,B|299:184,2,75,0|0|8
184,280,139103,6,0,B|256:336|352:264,2,150,2|8|0
256,200,141103,1,8
184,104,141770,2,0,B|256:48|352:120,2,150,2|8|0
256,200,143770,1,8
256,208,144103,12,0,148436
