osu file format v9

[General]
AudioFilename: FictionJunction-Stone Cold.mp3
AudioLeadIn: 0
PreviewTime: 57570
Countdown: 0
SampleSet: Soft
StackLeniency: 0.4
Mode: 0
LetterboxInBreaks: 0

[Editor]
DistanceSpacing: 1
BeatDivisor: 4
GridSize: 8

[Metadata]
Title:stone cold (TV Size)
Artist:FictionJunction
Creator:kanpakyin
Version:Hard
Source:SACRED SEVEN
Tags:OP SamiPale Karenying wakana keiko kaori yuriko kaida

[Difficulty]
HPDrainRate:6
CircleSize:4
OverallDifficulty:6
ApproachRate:7
SliderMultiplier:1.8
SliderTickRate:1

[Events]
//Background and Video events
Video,0,"video.avi"
0,0,"BG.jpg"
//Break Periods
//Storyboard Layer 0 (Background)
//Storyboard Layer 1 (Fail)
//Storyboard Layer 2 (Pass)
//Storyboard Layer 3 (Foreground)
//Storyboard Sound Samples
//Background Colour Transformations
3,100,163,162,255

[TimingPoints]
1915,413.793103448276,4,2,1,60,1,0
2639,-100,4,1,1,50,0,0
2846,-100,4,2,1,60,0,0
4294,-100,4,1,1,50,0,0
4708,-100,4,2,1,60,0,0
6052,-100,4,1,1,50,0,0
6466,-100,4,2,1,60,0,0
7604,-100,4,1,1,50,0,0
8018,-100,4,2,1,60,0,0
9363,-100,4,1,1,50,0,0
9673,-100,4,2,1,60,0,0
11018,-100,4,1,1,50,0,0
11225,-100,4,2,1,60,0,0
11742,-100,4,1,1,40,0,0
11949,-100,4,2,1,60,0,0
12673,-100,4,1,1,50,0,0
13501,-100,4,2,1,60,0,0
14328,-100,4,1,1,50,0,0
14742,-100,4,2,1,60,0,0
15983,-100,4,1,1,50,0,0
16190,-100,4,2,1,60,0,0
17639,-100,4,1,1,50,0,0
17742,-100,4,2,1,60,0,0
17846,-100,4,1,1,50,0,0
17949,-100,4,2,1,60,0,0
19294,-100,4,1,1,50,0,0
19604,-100,4,2,1,60,0,0
20639,-100,4,1,1,50,0,0
21259,-100,4,2,1,60,0,0
24259,-100,4,1,1,50,0,0
24570,-100,4,2,1,60,0,0
24777,-100,4,1,1,50,0,0
25190,-100,4,2,1,60,0,0
25915,-100,4,1,1,50,0,0
26225,-100,4,2,1,60,0,0
26432,-100,4,2,1,70,0,0
27466,-100,4,1,1,60,0,0
27777,-100,4,2,1,60,0,0
32535,-100,4,1,1,50,0,0
32949,-100,4,2,1,60,0,0
33880,-100,4,1,1,50,0,0
34294,-100,4,1,1,70,0,0
34708,-100,4,2,1,60,0,0
36466,-100,4,1,1,60,0,0
36880,-100,4,2,1,60,0,0
38432,-100,4,2,1,60,0,0
39052,-100,4,1,1,60,0,0
39468,-100,4,2,1,60,0,0
40501,-100,4,1,1,60,0,0
40915,-100,4,2,1,60,0,0
41328,-100,4,1,1,60,0,0
41535,-100,4,2,1,60,0,0
42363,-100,4,1,1,60,0,0
42880,-100,4,2,1,60,0,0
44121,-100,4,1,1,60,0,0
44432,-100,4,2,1,60,0,0
45777,-100,4,1,1,60,0,0
46087,-100,4,2,1,60,0,0
47432,-100,4,1,1,60,0,0
47535,-100,4,2,1,60,0,0
47639,-100,4,1,1,60,0,0
47846,-100,4,2,1,60,0,0
49087,-100,4,1,1,60,0,0
49501,-100,4,2,1,60,0,0
50949,-100,4,1,1,60,0,0
51363,-100,4,2,1,60,0,0
52397,-100,4,1,1,60,0,0
52708,-100,4,2,1,60,0,0
53121,-100,4,1,1,60,0,0
53328,-100,4,2,1,60,0,0
54466,-100,4,1,1,60,0,0
54983,-100,4,2,1,60,0,0
55708,-100,4,1,1,60,0,0
56018,-100,4,2,1,60,0,0
56328,-100,4,1,1,60,0,0
56742,-100,4,1,1,70,0,0
57363,-100,4,1,1,80,0,0
58190,-100,4,2,1,60,0,1
59018,-100,4,1,1,60,0,1
59328,-100,4,2,1,60,0,1
60673,-100,4,1,1,60,0,1
60983,-100,4,2,1,60,0,1
62018,-100,4,1,1,60,0,1
62432,-100,4,2,1,60,0,1
62846,-100,4,1,1,60,0,1
63052,-100,4,2,1,60,0,1
63983,-100,4,1,1,60,0,1
64294,-100,4,2,1,60,0,1
65432,-100,4,1,1,60,0,1
65742,-100,4,2,1,60,0,1
66156,-100,4,1,1,60,0,1
66570,-100,4,2,1,60,0,1
67294,-100,4,1,1,60,0,1
67397,-100,4,2,1,60,0,1
68432,-100,4,1,1,60,0,1
68846,-100,4,2,1,60,0,1
69259,-100,4,1,1,60,0,1
69673,-100,4,2,1,60,0,1
71380,-100,4,2,1,60,0,0
71432,-100,4,2,1,60,0,1
72259,-100,4,1,1,60,0,1
72570,-100,4,2,1,70,0,1
72880,-100,4,1,1,60,0,1
73190,-100,4,2,1,60,0,1
73915,-100,4,1,1,60,0,1
74225,-100,4,2,1,60,0,1
75570,-100,4,1,1,60,0,1
75880,-100,4,2,1,60,0,1
77225,-100,4,1,1,60,0,1
77535,-100,4,2,1,60,0,1
77949,-100,4,1,1,60,0,1
78156,-100,4,2,1,60,0,1
78777,-100,4,1,1,60,0,1
79087,-100,4,2,1,60,0,1
80535,-100,4,1,1,60,0,1
80846,-100,4,2,1,60,0,1
81052,-100,4,1,1,60,0,1
81259,-100,4,2,1,60,0,1
82087,-100,4,1,1,60,0,1
82294,-100,4,2,1,60,0,1
83018,-100,4,2,1,60,0,0
83639,-100,4,1,1,60,0,0
84673,-100,4,2,1,5,0,0

[Colours]
Combo1 : 216,197,254
Combo2 : 145,166,223

[HitObjects]
172,256,1915,2,0,B|161:303|106:327,1,90,4|2
53,166,2328,2,0,B|49:214|96:246,1,90,8|2
232,189,2742,2,0,B|191:167|135:178,1,90,0|2
16,40,3363,6,0,B|16:41|25:93|113:124|183:88,1,180,2|2
209,22,3983,1,8
170,93,4190,1,2
198,169,4397,1,0
273,199,4604,1,0
353,193,4811,2,0,B|400:175|417:123,2,90,8|2|4
180,140,5639,5,8
185,50,5846,1,2
259,99,6052,1,0
259,99,6259,2,0,B|353:101|344:132|465:131,1,180,0|2
83,248,7087,5,2
154,302,7294,1,8
67,327,7501,1,0
217,227,7914,1,0
278,292,8121,1,8
305,206,8328,1,2
305,206,8535,6,0,B|262:123,2,90,4|2|8
411,349,9259,1,2
453,332,9363,2,0,B|401:323|362:283,1,90
435,227,9777,2,0,B|398:187|410:143,1,90,8|2
498,159,10190,6,0,B|296:158,1,180,4|8
325,67,10811,1,2
325,67,11018,2,0,B|344:133|258:179|185:138,1,180,0|8
230,232,11639,1,2
141,215,11846,6,0,B|93:220|48:248,2,90,4|2|8
203,280,12466,1,2
117,308,12673,2,0,B|133:357|195:368,1,90
410,39,13294,6,0,B|407:92|433:131|433:131|408:165|414:227,1,180,0|2
503,214,13914,1,8
464,294,14121,1,2
373,292,14328,1,0
326,214,14535,2,0,B|225:213,1,90,0|8
258,125,14949,1,2
171,148,15156,6,0,B|188:215|108:265|32:229,1,180,4|8
89,154,15777,1,2
89,154,15880,1,2
89,154,15983,2,0,B|66:222|159:294|221:250,1,180,0|8
283,281,16604,2,0,B|269:329|205:343,1,90,2|4
364,299,17018,2,0,B|364:239|364:239|382:186|382:186|382:104,1,180,2|2
299,159,17639,1,0
299,159,17742,1,2
299,159,17846,2,0,B|299:63,2,90,0|8|2
209,152,18466,6,0,B|196:201|145:217,1,90,4|2
128,127,18880,2,0,B|74:141|-8:79|5:7,2,180,8|0|8
134,217,19914,2,0,B|228:216,1,90,2|4
301,262,20328,1,2
379,218,20535,1,8
336,138,20742,6,0,B|428:138,1,90
278,61,21156,2,0,B|376:61,2,90,0|8|2
256,192,21777,12,2,23639
132,137,24052,6,0,B|96:137|59:110|63:68,1,90,2|0
107,216,24466,2,0,B|148:219|176:250|172:294,1,90,0|8
86,303,24880,1,0
86,303,25087,2,0,B|281:304,1,180,4|8
320,232,25708,1,2
320,232,25811,1,2
320,232,25914,6,0,B|344:283|404:292,1,90
396,198,26328,1,8
396,198,26535,2,0,B|396:396,2,180,2|2|2
334,132,27570,1,0
334,132,27983,1,8
256,176,28190,1,2
256,192,28397,12,2,31294
381,101,31708,6,0,B|396:139|377:179|337:191,1,90,4|2
252,293,32121,2,0,B|237:255|256:215|296:203,1,90,8|2
436,384,32535,1,0
436,384,32742,2,0,B|374:377|327:312|340:255,2,180,0|2|2
421,294,33777,5,8
339,331,33983,1,0
249,319,34190,1,0
196,246,34397,1,0
210,157,34604,1,0
283,104,34811,1,2
160,317,35018,6,0,B|121:340|63:328,1,90,4|2
103,244,35432,2,0,B|53:240|9:186|16:131,1,135,8|0
60,159,35846,2,0,B|36:121|45:71,1,90,2|0
281,218,36466,2,0,B|309:173|354:158,1,90
371,247,36880,2,0,B|435:250|496:301|502:361,2,180,2|2|2
241,302,37915,1,8
177,183,38121,1,0
315,110,38328,6,0,B|362:83|369:28,1,90,4|2
276,39,38742,2,0,B|484:38,2,180,8|0|8
207,98,39777,1,2
207,98,39983,1,2
123,63,40190,1,2
123,63,40397,1,8
139,151,40604,2,0,B|140:251,1,90
373,95,41225,5,8
373,95,41432,1,0
373,95,41639,2,0,B|363:161|388:192|388:192|367:226|386:295,2,180,4|8|0
291,132,42673,1,0
291,132,43087,1,2
201,143,43294,1,4
129,88,43501,1,2
180,13,43708,1,8
129,88,43915,2,0,B|107:132|54:144,1,90,2|0
43,53,44328,5,0
60,142,44535,1,8
131,197,44742,1,2
184,269,44949,6,0,B|247:269|247:269|277:315|358:316,1,180,4|8
408,247,45570,1,2
408,247,45673,1,2
408,247,45777,2,0,B|500:247,2,90,0|0|8
422,158,46397,1,2
333,172,46604,5,4
361,86,46811,2,0,B|270:85|279:54|165:54,1,180,2|2
107,101,47432,2,0,B|69:73,2,45,0|2|0
148,181,47846,2,0,B|170:225|145:274,1,90,8|2
232,299,48259,2,0,B|220:346|164:371,2,90,4|2|8
272,217,48880,1,2
272,217,48983,1,0
272,217,49087,2,0,B|248:174|263:112,1,90
79,127,49708,6,0,B|81:217|127:213|130:314,1,180,2|2
39,285,50328,1,8
39,285,50535,1,2
163,155,50949,2,0,B|162:60,1,90,0|0
363,294,51570,5,4
440,247,51777,1,2
418,207,51880,1,2
424,162,51983,2,0,B|450:123|436:68,1,90,8|0
351,101,52397,2,0,B|321:59|270:45,1,90
255,135,52811,2,0,B|209:106|123:105|76:132,2,180,8|0|8
325,192,53846,5,2
325,192,54259,1,2
270,347,54466,1,0
89,299,54673,1,0
140,141,54880,1,4
210,238,55087,5,2
210,238,55190,1,2
210,238,55294,2,0,B|293:272,1,90,8|2
438,295,55708,2,0,B|350:332,1,90
256,360,56121,1,8
368,229,56328,2,0,B|405:131,1,90,0|0
144,229,56742,2,0,B|107:131,1,90
256,312,57156,2,0,B|256:224,1,90
34,99,57570,5,0
153,140,57777,1,0
271,99,57983,1,0
384,146,58190,6,0,B|348:201|404:284|475:265,1,180,4|8
410,339,58811,1,2
410,339,59018,2,0,B|318:323,1,90
230,323,59432,1,8
147,287,59639,2,0,B|46:268,1,90,2|4
58,270,60052,5,2
68,186,60259,1,8
68,186,60363,1,0
68,186,60466,2,0,B|49:80,2,90,2|0|0
153,216,61087,2,0,B|240:216|227:180|342:176,1,180,8|4
340,87,61708,5,2
357,87,61811,1,2
375,87,61915,2,0,B|474:88,2,90,8|0|0
147,51,62535,1,2
147,51,62949,2,0,B|147:116|147:116|167:153|161:211,1,135,0|2
117,191,63363,2,0,B|106:225|72:243,2,45,2|0|8
176,259,63777,1,2
204,174,63983,2,0,B|200:141|173:111|121:111,2,90,0|0|8
176,259,64604,1,2
118,189,64811,6,0,B|135:267|57:307|57:307|96:307|85:326,2,180,4|8|0
254,306,66052,1,8
254,306,66259,1,0
254,306,66466,1,0
254,306,66673,2,0,B|321:306|321:306|373:289|373:289|432:288,1,180,2|2
414,199,67294,1,0
450,172,67397,2,0,B|470:128|453:69,1,90,2|2
431,122,67708,2,0,B|417:71|357:44,1,90,8|2
343,128,68121,6,0,B|161:127,1,180,4|0
191,212,68742,1,0
161,297,68949,2,0,B|347:299,1,180,4|0
452,227,69570,1,0
452,227,69777,2,0,B|263:225,1,180,4|8
256,192,70294,12,4,71432
128,123,71742,5,2
154,159,71846,2,0,B|170:209|149:256,1,90,8|2
176,287,72156,1,2
218,299,72259,2,0,B|264:284|321:302,1,90
382,350,72673,1,8
307,299,72880,1,0
334,213,73087,6,0,B|365:181|365:113|334:66,1,135,4|2
314,118,73501,2,0,B|362:143|427:121,1,90,8|2
186,158,73915,2,0,B|122:148|82:159,1,90
220,81,74328,1,8
269,254,74742,6,0,B|270:315|313:327|313:405,2,135,4|2|2
270,208,75466,1,2
272,162,75570,2,0,B|288:126|247:102|273:58,1,90
353,89,75983,1,8
189,137,76190,6,0,B|195:205|120:260|44:214,1,180,2|2
105,143,76811,1,8
146,62,77018,2,0,B|187:47|242:73,1,90,2|0
425,166,77639,1,8
425,166,78052,6,0,B|425:268,1,90,4|2
349,351,78466,2,0,B|350:261,1,90,8|2
443,135,78880,2,0,B|443:249,1,90,0|2
149,289,79501,5,2
161,210,79708,1,4
230,267,79915,1,2
161,210,80121,2,0,B|172:157,1,45,8|2
230,267,80432,2,0,B|262:312,1,45,2|0
311,84,80742,6,0,B|305:135|256:162,1,90,0|8
130,88,81156,2,0,B|173:76|231:89,1,90,0|4
266,297,81570,2,0,B|197:280|170:209|190:149,1,180,2|2
279,241,82190,2,0,B|231:264|130:219|125:149,1,180,0|8
267,184,82811,1,2
267,184,83018,2,0,B|244:234|141:252|73:206,1,180,4|8
237,246,83639,5,0
237,246,83742,1,0
237,246,83846,2,0,B|277:270|334:261,1,90
413,245,84259,1,0
452,164,84466,1,4
256,192,84673,12,2,87983
