osu file format v9

[General]
AudioFilename: Ookamikakushi_-_Toki_no_Mukou_Maboroshi_no_Sora_(TV_Size).mp3
AudioLeadIn: 2000
PreviewTime: 57046
Countdown: 0
SampleSet: Normal
StackLeniency: 0.7
Mode: 1
LetterboxInBreaks: 1

[Editor]
DistanceSpacing: 1
BeatDivisor: 4
GridSize: 8

[Metadata]
Title:Toki no Mukou, Maboroshi no Sora (TV Size)
Artist:FictionJunction
Creator:kanpakyin
Version:Taiko
Source:Ookami Kakushi
Tags:kajiura yuki eveless

[Difficulty]
HPDrainRate:5
CircleSize:5
OverallDifficulty:5
ApproachRate:6
SliderMultiplier:1.4
SliderTickRate:1

[Events]
//Background and Video events
0,0,"taiko BG.png"
//Break Periods
//Storyboard Layer 0 (Background)
//Storyboard Layer 1 (Fail)
//Storyboard Layer 2 (Pass)
//Storyboard Layer 3 (Foreground)
//Storyboard Sound Samples
//Background Colour Transformations
3,100,163,162,255

[TimingPoints]
122,384.615384615385,4,1,1,70,1,0
57046,-100,4,1,1,70,0,1
78584,-100,4,1,1,70,0,0

[Colours]
Combo1 : 219,133,248
Combo2 : 255,128,128
Combo3 : 183,0,0

[HitObjects]
416,96,122,1,8
416,96,506,1,0
416,96,698,1,0
416,96,891,1,8
416,96,1275,1,0
416,96,1660,1,8
416,96,1852,1,0
416,96,2045,1,0
416,96,2429,1,8
416,96,2814,1,0
416,96,3198,1,12
416,96,3391,1,0
416,96,3583,1,8
416,96,3775,1,0
416,96,4160,1,0
416,96,4352,1,8
416,96,4737,1,0
416,96,5506,1,0
416,96,6275,1,0
416,96,6660,1,8
416,96,6852,1,0
416,96,7237,1,0
416,96,7429,1,8
416,96,7814,1,8
416,96,8198,1,8
416,96,8391,1,0
416,96,8775,1,0
416,96,8968,1,8
416,96,9352,1,0
416,96,9737,1,8
416,96,9929,1,0
416,96,10314,1,0
416,96,10506,1,8
416,96,10891,1,0
416,96,11275,1,8
416,96,11468,1,0
416,96,11660,1,0
416,96,12045,1,0
416,96,12429,1,8
416,96,12814,1,8
416,96,13006,1,0
416,96,13391,1,0
416,96,13583,1,8
416,96,13968,1,0
416,96,14352,1,8
416,96,14545,1,0
416,96,14737,1,0
416,96,15122,1,0
416,96,15314,1,8
416,96,15506,1,0
416,96,15891,1,8
416,96,16083,1,0
416,96,16468,1,0
416,96,16660,1,8
416,96,16852,1,0
416,96,17045,1,8
416,96,17237,1,0
416,96,17429,1,8
416,96,17622,1,0
416,96,17718,1,0
416,96,17814,1,0
416,96,18006,1,0
416,96,18102,1,0
416,96,18198,1,8
416,96,18391,1,0
416,96,18583,1,8
416,96,18968,1,0
416,96,19160,1,0
416,96,19352,1,8
416,96,19737,1,0
416,96,19929,1,0
416,96,20122,1,8
416,96,20506,1,0
416,96,20698,1,8
416,96,21083,1,0
416,96,21275,1,8
416,96,21660,1,8
416,96,22045,1,0
416,96,22237,1,8
416,96,22622,1,8
416,96,22814,1,0
416,96,23198,1,8
416,96,23583,1,0
416,96,23968,1,8
416,96,24352,1,0
416,96,24545,1,0
416,96,24737,1,8
416,96,25122,1,0
416,96,25314,1,0
416,96,25698,1,0
416,96,25891,1,8
416,96,26275,1,0
416,96,26660,1,8
416,96,26852,1,0
416,96,27045,1,8
416,96,27429,1,0
416,96,27814,1,8
416,96,28198,1,8
416,96,28391,1,0
416,96,28775,1,0
416,96,29160,1,0
416,96,29352,1,8
416,96,29737,1,8
416,96,29929,1,8
416,96,30314,1,8
416,96,30506,1,8
416,96,30891,1,8
416,96,31083,1,0
416,96,31275,1,8
416,96,31468,1,8
416,96,31660,1,0
416,96,32045,1,8
416,96,32429,1,8
416,96,32622,1,0
416,96,32814,1,0
416,96,33006,1,8
416,96,33391,1,0
416,96,33583,1,8
416,96,33968,1,0
416,96,34160,1,8
416,96,34352,1,0
416,96,34545,1,0
416,96,34929,1,0
416,96,35122,1,8
416,96,35506,1,8
416,96,36083,1,8
416,96,36660,1,0
416,96,37045,1,8
416,96,37814,1,0
416,96,38198,1,8
416,96,38583,1,0
416,96,38775,1,8
416,96,38968,1,8
416,96,39160,1,8
416,96,39545,1,0
416,96,39737,1,8
416,96,40122,1,8
416,96,40506,1,8
416,96,40699,1,0
416,96,40891,1,8
416,96,41275,1,0
416,96,41660,1,8
416,96,42237,1,8
416,96,42814,1,0
416,96,43006,1,0
416,96,43198,1,8
416,96,43968,1,8
416,96,44352,1,8
416,96,44737,1,0
416,96,45122,1,0
416,96,45314,1,8
416,96,45698,1,8
416,96,45891,1,0
416,96,46083,1,8
416,96,46468,1,0
416,96,46660,1,8
416,96,47045,1,8
416,96,47429,1,8
416,96,47814,1,0
416,96,48198,1,0
416,96,48391,1,8
416,96,48775,1,0
416,96,48968,1,8
416,96,49160,1,0
416,96,49352,1,0
416,96,49737,1,8
416,96,50122,1,0
416,96,50314,1,0
416,96,50506,1,8
416,96,50891,1,8
416,96,51275,1,8
416,96,51660,1,8
416,96,52045,1,8
416,96,52429,1,4
416,96,52814,1,8
416,96,53006,1,0
416,96,53391,1,0
416,96,53583,1,8
416,96,53968,1,8
416,96,54160,1,0
416,96,54256,1,0
416,96,54352,1,0
416,96,54545,1,8
416,96,54929,1,0
416,96,55122,1,8
416,96,55314,1,0
416,96,55506,1,0
416,96,55698,1,0
416,96,55891,1,8
416,96,56083,1,0
416,96,56179,1,0
416,96,56275,1,0
416,96,56468,1,0
416,96,56660,1,8
416,96,57045,1,4
416,96,57429,1,0
416,96,57622,1,8
416,96,58006,1,0
416,96,58198,1,8
416,96,58391,1,0
416,96,58583,1,8
416,96,58968,1,0
416,96,59160,1,8
416,96,59352,1,0
416,96,59737,1,0
416,96,60122,1,8
416,96,60506,1,0
416,96,60698,1,0
416,96,60891,1,8
416,96,61275,1,0
416,96,61660,1,8
416,96,62237,1,0
416,96,62429,1,8
416,96,62814,1,0
416,96,63198,1,8
416,96,63583,1,8
416,96,63775,1,0
416,96,64160,1,0
416,96,64352,1,8
416,96,64737,1,8
416,96,65122,1,8
416,96,65314,1,0
416,96,65506,1,0
416,96,65891,1,0
416,96,66275,1,8
416,96,66660,1,8
416,96,66852,1,0
416,96,67237,1,0
416,96,67429,1,8
416,96,67814,1,8
416,96,68198,1,0
416,96,68391,1,0
416,96,68583,1,8
416,96,68968,1,8
416,96,69160,1,0
416,96,69352,1,8
416,96,69737,1,8
416,96,69929,1,0
416,96,70314,1,0
416,96,70506,1,8
416,96,70891,1,8
416,96,71275,1,0
416,96,71468,1,8
416,96,71660,1,0
416,96,72045,1,0
416,96,72429,1,8
416,96,72814,1,0
416,96,73006,1,8
416,96,73391,1,8
416,96,73583,1,0
416,96,73968,1,8
416,96,74352,1,0
416,96,74545,1,8
416,96,74737,1,0
416,96,75122,1,0
416,96,75314,1,0
416,96,75506,1,8
416,96,75891,1,8
416,96,76083,1,0
416,96,76468,1,8
416,96,76660,1,0
416,96,77045,1,8
416,96,77429,1,0
416,96,77814,1,8
416,96,78198,1,0
416,96,78391,1,0
416,96,78583,1,0
416,96,78968,1,8
416,96,79352,1,0
416,96,79737,1,8
416,96,80122,1,0
416,96,80506,1,8
416,96,80891,1,0
416,96,81275,1,8
416,96,81660,1,0
416,96,82045,1,8
416,96,82429,1,0
416,96,82814,1,8
416,96,83198,1,8
416,96,83391,1,0
416,96,83583,1,0
416,96,83775,1,8
416,96,84160,1,0
416,96,84352,1,8
256,192,84737,12,0,87814
