osu file format v9

[General]
AudioFilename: Ookamikakushi_-_Toki_no_Mukou_Maboroshi_no_Sora_(TV_Size).mp3
AudioLeadIn: 1989
PreviewTime: 57046
Countdown: 0
SampleSet: Soft
StackLeniency: 0.7
Mode: 0
LetterboxInBreaks: 1

[Editor]
DistanceSpacing: 1
BeatDivisor: 4
GridSize: 8

[Metadata]
Title:Toki no Mukou, Maboroshi no Sora (TV Size)
Artist:FictionJunction
Creator:kanpakyin
Version:Normal
Source:Ookami Kakushi
Tags:kajiura yuki eveless

[Difficulty]
HPDrainRate:4
CircleSize:4
OverallDifficulty:5
ApproachRate:5
SliderMultiplier:1
SliderTickRate:1

[Events]
//Background and Video events
0,0,"BG.jpg"
Video,0,"Video.avi"
//Break Periods
//Storyboard Layer 0 (Background)
//Storyboard Layer 1 (Fail)
//Storyboard Layer 2 (Pass)
//Storyboard Layer 3 (Foreground)
//Storyboard Sound Samples
//Background Colour Transformations
3,100,163,162,255

[TimingPoints]
122,384.615384615385,4,2,1,40,1,0
3199,-100,4,1,1,40,0,0
7814,-100,4,1,1,40,0,0
8102,-100,4,1,2,40,0,0
9160,-100,4,1,1,40,0,0
43968,-100,4,1,1,46,0,0
57046,-100,4,1,1,49,0,1
78584,-100,4,1,1,49,0,0
84545,-100,4,2,1,0,0,0

[Colours]
Combo1 : 219,133,248
Combo2 : 255,128,128
Combo3 : 183,0,0

[HitObjects]
256,112,122,1,0
168,160,506,1,2
168,160,698,1,0
168,160,891,2,0,B|64:160,2,100,0|2|0
191,204,1852,1,0
213,248,2045,1,2
304,200,2429,6,0,B|416:200,2,100,0|2|4
216,248,3583,1,8
216,248,3775,1,0
160,168,4160,1,8
160,168,4352,1,8
264,168,4737,2,0,B|384:168,3,100,0|2|0|2
304,248,6275,6,0,B|200:248,2,100,0|2|0
368,176,7429,1,2
304,104,7814,6,0,B|192:104|216:152|104:152,2,200,0|0|0
288,200,9737,1,8
288,200,9929,1,0
224,272,10314,1,0
224,272,10506,2,0,B|112:272,2,100,8|0|8
320,248,11660,5,0
272,160,12045,1,8
376,160,12429,1,0
320,80,12814,1,8
320,80,13198,2,0,B|312:24|240:24,2,100,0|8|0
248,152,14352,2,0,B|248:264,2,100,8|0|8
168,216,15506,6,0,B|168:336,2,100,0|8|0
72,176,16660,2,0,B|96:120|144:112,1,100,8|0
160,208,17429,6,0,B|216:184|280:200,1,100,8|0
232,288,18198,2,0,B|288:288|344:320,2,100,8|0|8
184,272,19160,1,0
136,288,19352,2,0,B|32:288,2,100,0|8|0
168,192,20506,5,8
240,256,20891,1,0
312,192,21275,1,8
240,128,21660,1,0
240,128,22045,2,0,B|216:80|144:80,1,100,8|0
168,176,22814,2,0,B|168:288,2,100,8|0|8
248,232,23968,2,0,B|248:336,2,100,0|8|0
248,128,25122,6,0,B|288:96|344:96,1,100,8|0
312,192,25891,2,0,B|408:160|512:200,2,200,8|8|8
376,264,27814,2,0,B|432:264|472:312,2,100,0|8|0
272,264,28968,2,0,B|160:264,2,100,8|0|8
200,192,30122,6,0,B|144:192,2,50,0|0|8
296,160,30891,1,0
336,256,31275,1,8
240,288,31660,2,0,B|240:344|176:352,2,100,4|2|0
144,280,32814,5,2
144,280,33006,1,0
208,208,33391,1,0
208,208,33583,1,2
112,200,33968,2,0,B|0:200,2,100,0|2|0
112,200,35122,1,2
184,136,35506,6,0,B|96:120|64:32,2,150,0|8|2
280,104,37045,1,0
352,176,37429,1,2
296,256,37814,1,0
200,232,38198,1,2
184,136,38583,6,0,B|104:112|24:128,2,150,0|8|2
160,232,40122,1,0
248,280,40506,1,2
336,232,40891,1,0
304,136,41275,5,2
304,136,41660,2,0,B|352:72|448:72,2,150,0|0|2
216,88,43198,2,0,B|160:112|120:152,1,100,0|2
216,192,43968,6,0,B|168:216|160:288,2,100,4|2|0
312,216,45122,2,0,B|416:216,2,100,2|0|2
344,120,46275,6,0,B|248:120|275:76|144:74,2,200,0|0|0
344,24,48198,2,0,B|456:24,2,100,2|0|2
264,80,49352,5,0
328,160,49737,1,2
232,168,50122,1,0
232,168,50314,1,0
232,168,50506,2,0,B|208:216|152:224,2,100,2|0|2
280,256,51660,2,0,B|288:312|360:328,2,100,0|2|0
320,168,52814,5,2
320,168,53006,2,0,B|432:168,1,100
420,168,53583,1,2
256,192,53968,12,0,56660
256,192,57045,6,0,B|200:192|160:144,2,100,4|2|0
256,96,58198,2,0,B|368:96,2,100,2|0|2
256,96,59160,1,0
256,96,59352,1,0
288,192,59737,1,2
192,160,60122,6,0,B|96:160|40:104,2,150,0|0|2
248,240,61660,2,0,B|288:240|288:240|320:256|320:256|344:256,2,100,0|2|0
248,240,62622,1,0
248,240,62814,1,2
160,280,63198,6,0,B|88:208,1,100,0|2
184,192,63968,2,0,B|112:120,1,100,0|2
208,96,64737,6,0,B|136:24,2,100,0|2|0
200,192,65891,1,2
288,144,66275,2,0,B|360:144|352:184|448:184,2,150,0|2|2
288,248,67814,5,0
200,296,68198,1,2
200,296,68391,2,0,B|160:240|64:216,1,150,0|2
40,312,69352,6,0,B|136:248|128:136,1,200,4|0
216,88,70506,2,0,B|264:40,2,50,2|0|0
240,184,71275,2,0,B|192:232,2,50,2|0|2
328,128,72045,1,2
384,208,72429,6,0,B|440:216|472:272,2,100,0|2|0
384,312,73583,2,0,B|344:288|312:328|280:288,3,100,2|0|2|0
208,240,75122,1,2
208,240,75314,1,0
208,240,75506,6,0,B|200:192|200:192|160:144,2,100,0|2|0
280,168,76660,1,2
280,168,77045,2,0,B|264:112|216:80,1,100,0|2
336,88,77814,1,0
336,88,78198,1,2
432,128,78583,5,4
432,128,78968,2,0,B|400:176|440:240,1,100,2|8
328,232,79737,2,0,B|352:296|320:344,1,100,2|8
256,264,80506,6,0,B|216:224|160:216,1,100,2|8
184,320,81275,1,2
184,320,81660,2,8,B|104:264|-24:256,2,200
248,240,83583,5,8
248,240,83775,1,4
248,136,84160,1,0
248,136,84352,1,12
256,192,84737,12,0,87814
