osu file format v9

[General]
AudioFilename: Ookamikakushi_-_Toki_no_Mukou_Maboroshi_no_Sora_(TV_Size).mp3
AudioLeadIn: 1993
PreviewTime: 57046
Countdown: 0
SampleSet: Soft
StackLeniency: 0.7
Mode: 0
LetterboxInBreaks: 1

[Editor]
DistanceSpacing: 1
BeatDivisor: 4
GridSize: 8

[Metadata]
Title:Toki no Mukou, Maboroshi no Sora (TV Size)
Artist:FictionJunction
Creator:kanpakyin
Version:Hard
Source:Ookami Kakushi
Tags:kajiura yuki eveless

[Difficulty]
HPDrainRate:5
CircleSize:4
OverallDifficulty:5
ApproachRate:7
SliderMultiplier:1.5
SliderTickRate:1

[Events]
//Background and Video events
Video,0,"Video.avi"
0,0,"BG.jpg"
//Break Periods
//Storyboard Layer 0 (Background)
//Storyboard Layer 1 (Fail)
//Storyboard Layer 2 (Pass)
//Storyboard Layer 3 (Foreground)
//Storyboard Sound Samples
//Background Colour Transformations
3,100,163,162,255

[TimingPoints]
122,384.615384615385,4,2,1,40,1,0
3199,-100,4,1,1,40,0,0
7237,-100,4,2,1,40,0,0
7814,-100,4,2,1,40,0,0
9064,-100,4,1,1,40,0,0
9256,-100,4,2,1,40,0,0
16756,-100,4,1,1,40,0,0
16948,-100,4,2,1,40,0,0
18295,-100,4,1,1,40,0,0
18487,-100,4,2,1,40,0,0
19833,-100,4,1,1,55,0,0
20025,-100,4,2,1,40,0,0
21372,-100,4,1,1,40,0,0
21564,-100,4,2,1,40,0,0
22910,-100,4,1,1,40,0,0
23102,-100,4,2,1,40,0,0
24448,-100,4,1,1,40,0,0
24641,-100,4,2,1,40,0,0
25987,-100,4,1,1,40,0,0
26179,-100,4,2,1,40,0,0
31660,-200,4,1,1,34,0,0
44737,-100,4,1,1,40,0,0
52237,-100,4,2,1,40,0,0
54064,-100,4,1,1,40,0,0
57046,-100,4,1,1,50,0,1
78584,-100,4,1,1,49,0,0
84545,-100,4,2,1,0,0,0

[Colours]
Combo1 : 219,133,248
Combo2 : 255,128,128
Combo3 : 183,0,0

[HitObjects]
160,272,122,1,2
304,232,506,1,2
376,264,698,1,0
440,224,891,1,2
264,88,1275,1,0
120,128,1660,1,2
88,192,1852,1,0
120,256,2045,1,2
232,224,2429,6,0,B|264:304|208:376,2,150,2|0|4
160,248,3391,1,2
128,176,3583,1,2
200,152,3775,2,0,B|160:80|200:0,1,150
196,7,4352,1,2
256,192,4737,12,4,7429
208,256,7814,6,0,B|48:256,2,150,2|0|2
248,192,8775,1,0
176,160,8968,2,0,B|80:160,2,75,0|0|2
336,160,9737,5,0
336,160,9929,2,0,B|424:160,3,75,0|2|0|0
288,248,10891,2,0,B|360:248|360:288|432:288,2,150,2|0|2
304,320,11852,1,0
304,320,12045,2,0,B|144:320,2,150,0|0|2
304,320,13006,1,0
304,64,13391,5,0
304,64,13583,2,0,B|152:64,2,150,0|2|0
288,136,14545,1,0
288,136,14737,2,0,B|448:136,2,150,2|0|2
184,248,15891,5,8
184,248,16083,2,0,B|112:248|112:296|40:288,2,150
176,320,17045,2,0,B|336:320,2,150,8|2|8
176,320,18006,1,0
176,320,18198,1,2
176,320,18391,1,0
144,256,18583,6,0,B|184:184|144:104,1,150,8|0
72,112,19160,1,2
72,112,19352,2,0,B|232:112,1,150,8|0
280,64,19929,5,0
280,64,20122,2,0,B|240:136|288:224,1,150,12|0
352,176,20698,2,0,B|384:256|336:336,2,150,8|0|0
352,176,21660,1,0
208,224,22045,6,0,B|128:224|152:264|56:264,2,150,2|8|0
208,296,23006,1,0
208,296,23198,2,0,B|368:296,2,150,8|0|8
208,368,24160,1,0
144,336,24352,1,2
144,264,24545,1,0
208,224,24737,6,0,B|248:144|200:72,2,150,8|2|8
280,248,25698,2,0,B|320:224|368:224,2,75
328,304,26275,2,0,B|408:272|504:320,2,150,8|0|8
256,336,27237,1,0
256,336,27429,1,2
256,336,27814,5,8
136,248,28198,1,0
136,248,28391,1,2
272,184,28775,1,0
272,184,28968,1,2
144,104,29352,6,0,B|112:32|16:16,2,150,4|2|2
216,80,30314,1,0
256,144,30506,1,0
256,296,30891,1,2
296,360,31083,1,0
368,336,31275,1,0
256,192,31660,5,4
256,192,32045,1,2
256,192,32429,2,0,B|176:192,2,75,0|2|0
328,232,33583,1,2
328,232,33968,1,0
256,96,34737,6,0,B|344:96,2,75,0|2|0
192,56,35891,1,2
192,56,36083,2,0,B|80:56,1,112.5,0|2
80,56,37045,1,0
192,160,37814,6,0,B|232:144|280:144,1,75,0|2
264,216,38583,2,0,B|320:208|384:216,2,112.5,0|0|2
200,256,40122,1,0
200,256,40506,1,2
200,256,40891,2,0,B|200:296,2,37.5,0|0|2
144,200,41660,6,0,B|152:144|144:80,2,112.5,0|0|2
144,200,43198,1,4
288,256,43968,5,0
288,256,44352,1,2
288,256,44737,2,0,B|440:256,2,150,0|2|0
304,184,45698,1,0
304,184,45891,2,0,B|152:184,2,150,2|0|2
184,88,47045,5,0
184,88,47429,1,2
184,88,47814,2,0,B|32:88,2,150,0|2|0
152,168,48775,1,0
152,168,48968,2,0,B|232:168|216:208|312:208,2,150,2|0|2
160,240,49929,1,0
160,240,50122,2,0,B|8:240,2,150,0|0|4
296,184,51275,6,0,B|464:184,2,150,2|0|2
256,328,52429,1,4
80,192,52814,1,2
80,192,53006,1,12
312,112,53391,1,0
312,112,53583,1,6
384,248,53968,6,0,B|384:336,2,75,4|2|2
312,232,54545,2,0,B|312:160|296:80,2,150,0|2|0
240,216,55506,2,0,B|216:184|216:184|160:152,1,75,0|0
160,240,55891,2,0,B|112:208|64:208,1,75,2|0
96,288,56275,2,0,B|16:288,2,75,8|0|2
168,320,56852,1,0
240,296,57045,5,4
136,184,57429,2,0,B|224:184|200:144|288:144,2,150,2|0|2
152,112,58391,1,0
152,112,58583,2,0,B|0:112,2,150,0|2|0
152,184,59545,2,0,B|192:180|248:184,1,75,0|2
264,112,59929,1,0
304,176,60122,6,0,B|336:256|288:336,2,150,0|2|0
376,176,61083,1,0
376,176,61275,2,0,B|200:176,2,150,2|0|2
416,240,62237,1,0
376,304,62429,2,0,B|216:304,1,150,0|2
216,376,63006,6,0,B|160:376|144:312,1,75,0|0
224,304,63391,1,0
224,304,63583,1,2
176,248,63775,2,0,B|168:168|176:80,1,150,0|0
174,98,64352,1,2
104,64,64545,1,0
128,136,64737,6,0,B|208:144|304:136,1,150,0|2
344,96,65314,1,0
344,96,65506,2,0,B|360:184|336:264,1,150,0|2
264,240,66083,5,0
264,240,66275,2,0,B|240:280|184:296,1,75,8|0
176,216,66660,2,0,B|144:248|88:256,1,75,2|0
96,176,67045,2,0,B|96:112|96:112|104:96|104:96|96:80|96:80|96:16,2,150,0|2|0
96,248,68006,2,0,B|80:288|24:304,2,75,0|2|0
168,216,68583,2,0,B|248:208|344:224,1,150,0|2
384,264,69160,1,0
432,208,69352,6,0,B|440:160|384:136,2,75,4|0|2
360,208,69929,1,0
360,208,70122,2,0,B|288:248|288:248|192:264,1,150,0|2
232,184,70698,1,0
232,184,70891,2,0,B|152:200|56:176,1,150,0|2
48,120,71468,1,0
120,96,71660,2,0,B|112:176|120:272,1,150,0|2
264,288,72429,5,4
264,288,72814,2,0,B|304:320|344:320,1,75,2|0
336,248,73198,2,0,B|418:273|495:251,2,150,0|2|0
336,176,74160,1,0
336,176,74352,2,0,B|336:96,1,75
264,128,74737,2,0,B|272:216|264:280,1,150,0|2
416,256,75506,5,4
384,112,75891,1,2
384,112,76083,1,8
384,112,76275,1,0
232,128,76660,1,2
256,280,77045,6,0,B|224:352|128:376,2,150,8|2|0
304,224,78006,1,0
304,224,78198,2,0,B|384:232|480:224,2,150,2|4|2
272,152,79160,5,0
272,152,79352,2,0,B|184:160|112:152,2,150,0|2|0
288,80,80314,1,0
288,80,80506,2,0,B|376:80|360:48|440:48,2,150,2|0|2
224,40,81468,5,0
224,40,81660,2,0,B|144:32|144:32|64:40,1,150,0|2
168,160,82429,2,0,B|88:168|88:168|8:160,2,150,0|2|4
312,200,83583,2,0,B|304:248|312:296,1,75,4|0
160,264,84160,2,0,B|168:304|160:352,1,75,0|4
256,192,84737,12,0,87814
