osu file format v9

[General]
AudioFilename: Ookamikakushi_-_Toki_no_Mukou_Maboroshi_no_Sora_(TV_Size).mp3
AudioLeadIn: 1988
PreviewTime: 57046
Countdown: 0
SampleSet: Normal
StackLeniency: 0.7
Mode: 0
LetterboxInBreaks: 1

[Editor]
DistanceSpacing: 1
BeatDivisor: 4
GridSize: 8

[Metadata]
Title:Toki no Mukou, Maboroshi no Sora (TV Size)
Artist:FictionJunction
Creator:kanpakyin
Version:Easy
Source:Ookami Kakushi
Tags:kajiura yuki eveless

[Difficulty]
HPDrainRate:2
CircleSize:4
OverallDifficulty:3
ApproachRate:3
SliderMultiplier:0.8
SliderTickRate:1

[Events]
//Background and Video events
0,0,"BG.jpg"
Video,0,"Video.avi"
//Break Periods
//Storyboard Layer 0 (Background)
//Storyboard Layer 1 (Fail)
//Storyboard Layer 2 (Pass)
//Storyboard Layer 3 (Foreground)
//Storyboard Sound Samples
//Background Colour Transformations
3,100,163,162,255

[TimingPoints]
122,384.615384615385,4,2,1,52,1,0
3199,-100,4,1,1,52,0,0
3487,-100,4,1,2,52,0,0
3679,-100,4,1,1,52,0,0
7814,-100,4,1,1,40,0,0
8102,-100,4,1,2,40,0,0
9545,-100,4,1,1,40,0,0
12718,-100,4,1,2,40,0,0
14160,-100,4,1,1,40,0,0
15025,-100,4,1,2,40,0,0
15218,-100,4,1,1,40,0,0
20410,-100,4,1,2,40,0,0
21468,-100,4,1,1,40,0,0
57046,-100,4,1,1,52,0,1
78584,-100,4,1,1,52,0,0
84545,-100,4,2,1,0,0,0

[Colours]
Combo1 : 219,133,248
Combo2 : 255,128,128
Combo3 : 183,0,0

[HitObjects]
256,192,122,1,0
224,120,506,2,0,B|136:120,2,80,2|0|2
288,168,1660,2,0,B|336:168,2,40,0|0|2
288,248,2429,2,0,B|208:248|232:296|136:296,2,160,0|4|0
288,328,4352,2,0,B|456:328,2,160,8|8|8
232,272,6275,5,0
184,208,6660,1,8
104,208,7045,1,0
144,136,7429,1,8
224,136,7814,6,0,B|392:136,2,160,4|0|0
224,56,9737,2,0,B|152:56|160:104|72:104,2,160,8|8|8
264,128,11660,1,0
344,104,12045,1,8
328,184,12429,6,0,B|376:256|320:344,2,160,0|0|0
408,184,14352,1,8
408,184,14737,2,0,B|232:184,1,160,0|0
248,104,15891,1,8
176,144,16275,1,0
176,224,16660,1,8
248,264,17045,6,0,B|248:312|296:336,2,80,0|8|0
328,264,18198,1,8
328,264,18583,2,0,B|424:264,2,80,0|8|0
264,224,19737,1,8
264,224,20122,2,0,B|104:224,2,160,0|0|2
232,152,22045,6,0,B|64:152,2,160,8|8|8
304,112,23968,1,0
304,32,24352,2,0,B|376:32|376:80|472:80,2,160,8|8|8
248,88,26275,6,0,B|232:136|176:136,1,80,0|8
168,56,27045,2,0,B|88:56,2,80,0|8|0
152,136,28198,2,0,B|200:136,2,40,8|0|0
112,208,28968,2,0,B|56:208|48:256,2,80,8|0|8
192,208,30122,2,0,B|280:208,1,80,0|8
352,208,30891,6,0,B|408:208|408:152,2,80,0|8|6
304,144,32045,1,2
224,144,32429,1,4
168,296,33198,1,2
328,328,33968,5,0
376,176,34737,1,0
376,176,35122,1,2
376,176,35506,2,0,B|336:152|296:192|256:160,2,120,0|0|2
368,96,37045,1,4
224,160,37814,5,0
152,120,38198,1,2
152,200,38583,2,0,B|152:328,2,120,0|0|2
104,128,40122,5,0
176,88,40506,1,2
224,160,40891,1,0
152,200,41275,1,2
152,200,41660,2,0,B|104:256|160:320,2,120,8|8|10
208,256,43198,5,8
208,256,43583,1,2
208,256,43968,2,0,B|368:256,2,160,0|4|0
152,200,45891,1,2
200,136,46275,6,0,B|368:136,2,160,0|0|0
160,64,48198,1,2
88,96,48583,6,0,B|128:168|80:256,1,160,0|0
160,256,49737,1,2
160,256,50122,2,0,B|136:304|160:344,2,80,0|2|0
232,216,51275,5,2
232,216,51660,2,0,B|320:216|296:176|392:176,2,160,0|4|0
240,136,53583,2,0,B|144:136,2,80,2|4|2
272,208,54737,6,0,B|320:208,4,40,0|0|2|0|0
200,248,55891,2,0,B|200:296|152:328,2,80,2|2|2
144,192,57045,6,0,B|16:192,2,120,4|8|2
224,192,58583,1,0
184,128,58968,2,0,B|160:88|184:48,2,80,2|0|2
256,88,60122,6,0,B|392:88,2,120,0|8|2
256,168,61660,2,0,B|184:168|184:224|104:224,2,160,0|0|0
256,248,63583,5,2
256,248,63968,2,0,B|256:344,2,80,0|2|0
184,280,65122,1,2
184,280,65506,2,0,B|184:232|136:200,2,80,0|2|0
104,280,66660,6,0,B|24:280,2,80,2|0|2
168,232,67814,1,0
136,160,68198,1,2
208,128,68583,1,0
240,200,68968,5,2
240,200,69352,2,0,B|320:176|408:208,2,160,4|0|0
240,120,71275,2,0,B|272:208|232:288,2,160,2|2|2
168,80,73198,5,0
104,128,73583,1,2
152,192,73968,2,0,B|128:232|80:240,2,80,0|2|0
232,192,75122,1,2
232,192,75506,6,0,B|352:192,2,120,4|8|2
224,112,77045,2,0,B|144:112|168:160|64:160,2,160,0|0|0
224,32,78968,5,2
296,72,79352,1,0
296,152,79737,1,2
224,184,80122,2,0,B|224:272|328:304,2,160,0|8|0
144,184,82045,6,0,B|56:184,2,80,2|0|2
208,136,83198,2,0,B|336:136,2,120,0|2|4
256,192,84737,12,0,87814
