osu file format v7

[General]
AudioFilename: Ookami_Kakushi_OP.mp3
AudioLeadIn: 0
PreviewTime: 44221
Countdown: 0
SampleSet: Soft
StackLeniency: 0.8
Mode: 0
LetterboxInBreaks: 1

[Editor]
DistanceSpacing: 0.800000011920929
BeatDivisor: 4
GridSize: 8

[Metadata]
Title:Toki no Muko Maboroshi no Sora (TV-Size)
Artist:FictionJunction
Creator:Sekuyi
Version:Hard
Source:Ookami Kakushi
Tags:

[Difficulty]
HPDrainRate:7
CircleSize:4
OverallDifficulty:8
SliderMultiplier:0.7
SliderTickRate:1

[Events]
//Background and Video events
0,0,"ookami.png"
Video,0,"Ookami Kakushi Opening Anime_xvid.avi"
//Break Periods
//Storyboard Layer 0 (Background)
//Storyboard Layer 1 (Fail)
//Storyboard Layer 2 (Pass)
//Storyboard Layer 3 (Foreground)
//Storyboard Sound Samples
//Background Colour Transformations
3,100,64,0,0

[TimingPoints]
3675,384.615384615385,4,2,0,60,1,0
56721,-100,4,2,0,60,0,1
56913,-100,4,1,0,60,0,1
69665,-100,4,1,0,60,0,0
69798,-100,4,1,0,60,0,1
84990,-100,4,2,0,60,0,0
85183,-100,4,2,0,60,0,1
85375,-100,4,2,0,60,0,0

[Colours]
Combo1 : 255,128,0
Combo2 : 36,251,36
Combo3 : 255,0,0

[HitObjects]
40,40,8290,1,0
120,96,8675,1,0
184,24,9059,1,0
216,112,9444,2,0,B|264:112,1,35,0|8
288,88,9828,5,0
288,184,10213,1,0
384,184,10598,1,0
384,88,10982,2,0,B|432:88,1,35,0|8
456,112,11367,5,0
456,208,11751,1,0
456,304,12136,1,0
360,304,12521,2,0,B|320:304,1,35,0|8
328,256,12905,5,0
240,304,13290,1,0
240,208,13675,1,0
144,208,14059,2,0,B|144:248,1,35,0|8
144,288,14444,5,0
48,288,14828,1,0
48,192,15213,1,0
48,96,15598,2,0,B|48:56,1,35,0|8
88,96,15982,5,0
88,192,16367,1,0
184,192,16751,1,0
184,96,17136,2,0,B|216:72,1,35,0|8
256,88,17521,5,0
312,168,17905,1,0
360,88,18290,1,0
448,128,18674,2,0,B|480:168,1,35,0|8
440,192,19059,5,0
368,256,19444,1,0
304,184,19828,1,0
264,272,20213,2,8,B|232:232,1,35
200,248,20598,6,0,B|128:248,1,70
80,168,21367,2,0,B|32:224,1,70
88,288,22136,2,0,B|24:240,1,70
128,288,22905,2,0,B|216:288,1,70
240,288,23482,1,8
280,288,23674,1,0
368,288,24059,5,0
320,224,24444,1,0
416,224,24828,2,0,B|464:224,1,35,0|8
448,176,25213,1,0
448,80,25598,1,0
352,80,25982,1,0
256,80,26367,2,0,B|256:40,1,35,0|8
208,40,26751,5,0
112,40,27136,1,0
112,136,27521,1,0
112,232,27905,2,0,B|160:232,1,35,0|8
192,232,28290,1,0
288,232,28674,1,0
384,232,29059,1,0
480,232,29444,2,0,B|480:280,1,35,0|8
480,312,29828,5,0
392,264,30213,1,0
320,328,30598,1,0
256,256,30982,2,0,B|224:288,1,35,0|8
184,280,31367,1,0
88,280,31751,1,0
88,328,31943,2,8,B|128:328,1,35,8|0
168,328,32328,2,8,B|216:328,1,35
288,328,32905,1,4
56,48,34444,5,0
64,320,35982,5,0
464,328,37521,5,0
464,48,39059,5,0
64,48,40598,5,0
56,336,42136,5,0
456,336,43674,5,0
248,336,44444,5,0
344,336,44828,1,8
440,336,45213,2,0,B|360:336,1,70
336,328,45790,2,0,B|296:328|288:280,1,70
256,288,46336,1,8
216,288,46529,1,0
184,152,47136,1,8
184,56,47521,5,0
280,56,47905,1,8
376,56,48290,2,0,B|416:80|376:112,1,70,0|8
336,120,48867,1,0
288,120,49059,2,0,B|216:120,1,70,0|8
136,112,49828,1,0
88,192,50213,1,8
136,280,50598,1,0
232,280,50982,1,8
256,208,51367,12,4,56751
80,80,57136,5,4
168,40,57521,2,0,B|280:40,1,105
400,64,58674,5,0
464,136,59059,2,0,B|392:136,1,70
392,224,59828,2,0,B|480:224,1,70
400,304,60598,5,0
320,248,60982,1,0
224,248,61367,1,0
224,152,61751,1,0
128,152,62136,2,0,B|128:240,1,70
80,288,62905,2,0,B|80:208,1,70
64,168,63482,5,0
64,120,63675,2,0,B|152:120,1,70
216,96,64444,1,0
304,56,64828,1,0
400,48,65213,2,0,B|456:104,1,70
376,48,65982,2,0,B|320:112,1,70
296,128,66559,5,0
264,160,66751,2,0,B|208:216,1,70
136,264,67521,1,0
136,168,67905,1,0
144,72,68290,2,0,B|208:24,3,70
224,72,69636,1,0
256,112,69828,1,4
336,160,70213,5,0
432,160,70598,1,0
432,256,70982,1,0
432,352,71367,1,0
336,352,71751,2,0,B|320:304|344:280,2,70
288,352,72713,1,0
240,352,72905,6,0,B|160:352,1,70
280,352,73674,2,0,B|280:264,1,70
352,352,74444,2,0,B|352:272,1,70
440,256,75213,1,0
464,160,75567,1,0
464,112,75760,1,0
464,64,75982,1,0
368,64,76367,5,0
280,104,76751,1,0
352,168,77136,1,0
264,208,77521,1,0
456,232,78290,1,0
432,120,79059,2,0,B|336:48|296:72|240:128|168:104|176:56|48:40,1,385
32,152,81751,5,0
32,200,82136,2,0,B|119:226|176:196|244:195|274:252|304:284|408:232,1,385
312,240,84828,5,0
256,176,85213,1,4
