osu file format v14

[General]
AudioFilename: Lifill.mp3
AudioLeadIn: 0
PreviewTime: 88039
Countdown: 0
SampleSet: Normal
StackLeniency: 0.7
Mode: 1
LetterboxInBreaks: 0
WidescreenStoryboard: 0

[Editor]
Bookmarks: 11578,21956,42713,63474,89416,99797,110175,120554,130932
DistanceSpacing: 1
BeatDivisor: 4
GridSize: 4
TimelineZoom: 2.1

[Metadata]
Title:Lifill
TitleUnicode:Lifill
Artist:Feryquitous
ArtistUnicode:Feryquitous
Creator:SKSalt
Version:Lifill Oni
Source:
Tags:
BeatmapID:975429
BeatmapSetID:455031

[Difficulty]
HPDrainRate:6
CircleSize:5
OverallDifficulty:6.5
ApproachRate:5
SliderMultiplier:1.4
SliderTickRate:1

[Events]
//Background and Video events
0,0,"BG mori no yousei.jpg",0,50
//Break Periods
//Storyboard Layer 0 (Background)
//Storyboard Layer 1 (Fail)
//Storyboard Layer 2 (Pass)
//Storyboard Layer 3 (Foreground)
//Storyboard Sound Samples

[TimingPoints]
228,324.324324324324,4,1,0,30,1,0
390,-100,4,1,0,40,0,0
552,-100,4,1,0,50,0,0
714,-100,4,1,0,55,0,0
876,-100,4,1,0,60,0,0
1038,-100,4,1,0,65,0,0
1201.92379852169,324.324324324324,4,1,0,70,1,0
2458,-100,4,1,0,50,0,0
2539,-100,4,1,0,70,0,0
5053,-100,4,1,0,50,0,0
5134,-100,4,1,0,70,0,0
7647,-100,4,1,0,50,0,0
7728,-100,4,1,0,70,0,0
10242,-100,4,1,0,50,0,0
10323,-100,4,1,0,70,0,0
12837,-100,4,1,0,90,0,0
12918,-100,4,1,0,70,0,0
15431,-100,4,1,0,90,0,0
15512,-100,4,1,0,70,0,0
18026,-100,4,1,0,90,0,0
18107,-100,4,1,0,70,0,0
20620,-100,4,1,0,90,0,0
20701,-100,4,1,0,70,0,0
21958,-100,4,1,0,80,0,0
42715,-100,4,1,0,70,0,0
84350,-100,4,1,0,50,0,0
84391,-102.040816326531,4,1,0,50,0,0
84553,-104.166666666667,4,1,0,50,0,0
84715,-106.382978723404,4,1,0,50,0,0
85039,-111.111111111111,4,1,0,50,0,0
85201,-112.359550561798,4,1,0,50,0,0
85526,-114.942528735632,4,1,0,50,0,0
85850,-117.647058823529,4,1,0,50,0,0
86012,-119.047619047619,4,1,0,50,0,0
86174,-120.481927710843,4,1,0,50,0,0
86337,-121.951219512195,4,1,0,50,0,0
86661,-125,4,1,0,50,0,0
88120,-200,4,1,0,40,0,0
89377,-200,4,1,0,80,0,0
89418,-100,4,1,0,80,0,1
99796,-100,4,1,0,60,0,0
99958,-111.111111111111,4,1,0,60,0,0
102228,-100,4,1,0,80,0,1
110174,-100,4,1,0,60,0,0
110661,-133.333333333333,4,1,0,60,0,0
115364,-117.647058823529,4,1,0,60,0,0
119418,-114.942528735632,4,1,0,60,0,0
119580,-112.359550561798,4,1,0,60,0,0
119742,-109.89010989011,4,1,0,60,0,0
119904,-107.52688172043,4,1,0,60,0,0
119985,-106.382978723404,4,1,0,60,0,0
120066,-105.263157894737,4,1,0,60,0,0
120147,-104.166666666667,4,1,0,60,0,0
120228,-103.092783505155,4,1,0,60,0,0
120391,-102.040816326531,4,1,0,60,0,0
120472,-101.010101010101,4,1,0,60,0,0
120553,-100,4,1,0,80,0,1
130931,-100,4,1,0,60,0,0
131093,-101.010101010101,4,1,0,60,0,0
131255,-102.040816326531,4,1,0,60,0,0
131418,-103.092783505155,4,1,0,60,0,0
131742,-105.263157894737,4,1,0,60,0,0
131904,-106.382978723404,4,1,0,60,0,0
132228,-108.695652173913,4,1,0,60,0,0
132553,-111.111111111111,4,1,0,60,0,0
132715,-112.359550561798,4,1,0,60,0,0
132877,-113.636363636364,4,1,0,60,0,0
133039,-114.942528735632,4,1,0,60,0,0
133364,-117.647058823529,4,1,0,60,0,0
134985,-117.647058823529,4,1,0,30,0,0
135147,-117.647058823529,4,1,0,40,0,0
135310,-117.647058823529,4,1,0,50,0,0
135472,-117.647058823529,4,1,0,55,0,0
135634,-117.647058823529,4,1,0,60,0,0
135796,-117.647058823529,4,1,0,63,0,0
135958,-117.647058823529,4,1,0,66,0,0
136120,-117.647058823529,4,1,0,69,0,0

[HitObjects]
256,192,228,12,0,1038,0:0:0:0:
332,232,1200,5,0,0:0:0:0:
332,232,1526,1,0,0:0:0:0:
472,272,1688,1,2,0:0:0:0:
332,232,2012,1,2,0:0:0:0:
332,232,2174,1,0,0:0:0:0:
332,232,2499,1,6,0:0:0:0:
440,304,2823,1,2,0:0:0:0:
444,304,2985,1,0,0:0:0:0:
488,292,3147,1,2,0:0:0:0:
488,292,3228,1,2,0:0:0:0:
488,292,3310,1,0,0:0:0:0:
488,292,3391,1,0,0:0:0:0:
488,292,3472,1,2,0:0:0:0:
488,292,3634,1,0,0:0:0:0:
488,292,3796,1,2,0:0:0:0:
432,284,4120,1,0,0:0:0:0:
432,284,4445,1,0,0:0:0:0:
432,284,4607,1,2,0:0:0:0:
144,180,4931,1,0,0:0:0:0:
432,284,5093,1,6,0:0:0:0:
196,264,5418,1,2,0:0:0:0:
196,264,5580,1,0,0:0:0:0:
196,264,5742,1,2,0:0:0:0:
196,264,5904,1,0,0:0:0:0:
176,260,5985,1,0,0:0:0:0:
196,264,6066,1,2,0:0:0:0:
4,176,6228,1,2,0:0:0:0:
196,264,6391,1,0,0:0:0:0:
352,196,6715,1,0,0:0:0:0:
344,180,6877,1,0,0:0:0:0:
336,168,7201,1,2,0:0:0:0:
352,188,7364,1,0,0:0:0:0:
332,160,7688,1,6,0:0:0:0:
488,276,8012,1,2,0:0:0:0:
488,276,8174,1,0,0:0:0:0:
488,276,8337,1,2,0:0:0:0:
488,276,8499,1,0,0:0:0:0:
488,276,8580,1,0,0:0:0:0:
488,276,8661,1,2,0:0:0:0:
480,272,8823,1,0,0:0:0:0:
488,276,8985,1,2,0:0:0:0:
232,164,9310,1,0,0:0:0:0:
232,164,9634,1,0,0:0:0:0:
232,164,9796,1,2,0:0:0:0:
96,180,10120,1,0,0:0:0:0:
216,136,10283,1,6,0:0:0:0:
400,264,10607,1,0,0:0:0:0:
400,264,10931,1,2,0:0:0:0:
400,264,11093,1,0,0:0:0:0:
424,244,11174,1,0,0:0:0:0:
400,264,11255,1,2,0:0:0:0:
156,200,11418,1,0,0:0:0:0:
400,264,11580,1,0,0:0:0:0:
384,100,11904,1,0,0:0:0:0:
384,100,11958,1,0,0:0:0:0:
384,100,12012,1,0,0:0:0:0:
384,100,12066,1,2,0:0:0:0:
328,176,12228,1,0,0:0:0:0:
404,128,12391,1,2,0:0:0:0:
208,256,12553,1,0,0:0:0:0:
208,244,12715,1,0,0:0:0:0:
372,112,12877,1,6,0:0:0:0:
412,256,13201,1,2,0:0:0:0:
412,256,13364,1,0,0:0:0:0:
412,256,13526,1,2,0:0:0:0:
380,264,13607,1,2,0:0:0:0:
380,264,13688,1,0,0:0:0:0:
192,204,13769,1,0,0:0:0:0:
380,264,13850,1,2,0:0:0:0:
380,264,14012,1,0,0:0:0:0:
380,264,14174,1,2,0:0:0:0:
312,220,14499,1,0,0:0:0:0:
356,228,14661,1,2,0:0:0:0:
312,220,14823,1,0,0:0:0:0:
312,220,14985,1,0,0:0:0:0:
376,244,15066,1,0,0:0:0:0:
376,228,15147,1,2,0:0:0:0:
264,152,15310,1,0,0:0:0:0:
84,184,15472,1,6,0:0:0:0:
276,276,15796,1,2,0:0:0:0:
280,272,15958,1,0,0:0:0:0:
280,272,16120,1,2,0:0:0:0:
280,272,16283,1,0,0:0:0:0:
280,272,16364,1,0,0:0:0:0:
280,272,16445,1,2,0:0:0:0:
280,272,16607,1,2,0:0:0:0:
280,272,16688,1,2,0:0:0:0:
280,272,16769,1,0,0:0:0:0:
264,152,17093,1,2,0:0:0:0:
256,148,17147,1,0,0:0:0:0:
264,152,17201,1,0,0:0:0:0:
248,136,17255,1,2,0:0:0:0:
280,192,17418,1,0,0:0:0:0:
332,120,17580,1,2,0:0:0:0:
288,184,17904,1,0,0:0:0:0:
332,120,18066,1,6,0:0:0:0:
264,216,18391,1,2,0:0:0:0:
264,216,18553,1,0,0:0:0:0:
264,216,18715,1,2,0:0:0:0:
264,216,18796,1,2,0:0:0:0:
264,216,18877,1,0,0:0:0:0:
264,216,18958,1,0,0:0:0:0:
264,216,19039,1,2,0:0:0:0:
264,216,19201,1,0,0:0:0:0:
256,216,19364,1,2,0:0:0:0:
308,196,19688,1,0,0:0:0:0:
308,196,20012,1,0,0:0:0:0:
304,188,20174,1,2,0:0:0:0:
300,180,20499,1,0,0:0:0:0:
304,168,20661,1,2,0:0:0:0:
376,192,20985,1,0,0:0:0:0:
368,188,21039,1,0,0:0:0:0:
368,188,21093,1,0,0:0:0:0:
368,188,21147,1,0,0:0:0:0:
384,120,21228,1,0,0:0:0:0:
364,124,21310,1,2,0:0:0:0:
264,216,21472,1,0,0:0:0:0:
264,216,21553,1,2,0:0:0:0:
264,216,21715,1,0,0:0:0:0:
264,216,21796,1,2,0:0:0:0:
264,216,21958,1,0,0:0:0:0:
256,136,22120,1,0,0:0:0:0:
252,132,22283,1,2,0:0:0:0:
288,196,22445,1,0,0:0:0:0:
188,200,22607,1,2,0:0:0:0:
188,200,22769,1,2,0:0:0:0:
80,184,22850,1,0,0:0:0:0:
80,184,22931,1,2,0:0:0:0:
324,252,23093,1,2,0:0:0:0:
244,220,23255,1,0,0:0:0:0:
316,252,23418,1,0,0:0:0:0:
240,212,23499,1,2,0:0:0:0:
64,188,23661,1,2,0:0:0:0:
64,188,23742,1,0,0:0:0:0:
308,220,23904,1,0,0:0:0:0:
296,204,23985,1,0,0:0:0:0:
296,204,24066,1,0,0:0:0:0:
296,204,24147,1,0,0:0:0:0:
296,204,24228,1,2,0:0:0:0:
296,204,24391,1,2,0:0:0:0:
168,200,24472,1,2,0:0:0:0:
304,192,24553,1,0,0:0:0:0:
328,264,24715,1,0,0:0:0:0:
328,264,24796,1,0,0:0:0:0:
328,264,24877,1,2,0:0:0:0:
328,264,24958,1,2,0:0:0:0:
320,264,25039,1,0,0:0:0:0:
300,224,25201,1,0,0:0:0:0:
164,204,25283,1,2,0:0:0:0:
300,200,25364,1,2,0:0:0:0:
164,204,25445,1,0,0:0:0:0:
156,200,25526,1,0,0:0:0:0:
172,208,25688,1,2,0:0:0:0:
200,204,26012,1,0,0:0:0:0:
216,168,26174,1,2,0:0:0:0:
208,180,26337,1,2,0:0:0:0:
180,188,26418,1,2,0:0:0:0:
200,168,26499,1,0,0:0:0:0:
204,156,26661,1,0,0:0:0:0:
200,168,26742,1,2,0:0:0:0:
200,168,26823,1,2,0:0:0:0:
204,156,26985,1,0,0:0:0:0:
248,180,27066,1,0,0:0:0:0:
248,168,27147,1,2,0:0:0:0:
224,172,27228,1,0,0:0:0:0:
224,172,27310,1,2,0:0:0:0:
224,168,27391,1,0,0:0:0:0:
216,164,27472,1,2,0:0:0:0:
260,244,27553,1,0,0:0:0:0:
216,164,27634,1,0,0:0:0:0:
216,160,27796,1,0,0:0:0:0:
216,160,27958,1,0,0:0:0:0:
284,240,28039,1,2,0:0:0:0:
296,232,28120,1,0,0:0:0:0:
284,240,28283,1,2,0:0:0:0:
296,232,28445,1,0,0:0:0:0:
316,240,28607,1,0,0:0:0:0:
304,228,28688,1,2,0:0:0:0:
240,208,28850,1,2,0:0:0:0:
240,208,28931,1,0,0:0:0:0:
412,292,29093,1,0,0:0:0:0:
408,288,29174,1,0,0:0:0:0:
408,288,29255,1,0,0:0:0:0:
408,288,29337,1,0,0:0:0:0:
408,288,29418,1,2,0:0:0:0:
152,220,29580,1,0,0:0:0:0:
408,288,29742,1,2,0:0:0:0:
304,264,29904,1,0,0:0:0:0:
380,308,29985,1,0,0:0:0:0:
304,264,30066,1,2,0:0:0:0:
332,264,30147,1,2,0:0:0:0:
332,264,30228,1,0,0:0:0:0:
304,264,30391,1,0,0:0:0:0:
336,268,30472,1,2,0:0:0:0:
336,268,30553,1,2,0:0:0:0:
332,264,30634,1,0,0:0:0:0:
332,264,30715,1,0,0:0:0:0:
304,264,30877,1,2,0:0:0:0:
288,216,31201,1,0,0:0:0:0:
280,212,31364,1,2,0:0:0:0:
280,212,31526,1,0,0:0:0:0:
152,204,31688,1,0,0:0:0:0:
280,212,31769,1,0,0:0:0:0:
280,212,31850,1,2,0:0:0:0:
280,212,31931,1,0,0:0:0:0:
280,212,32012,1,2,0:0:0:0:
280,212,32174,1,0,0:0:0:0:
280,212,32255,1,0,0:0:0:0:
276,208,32337,1,2,0:0:0:0:
268,200,32499,1,0,0:0:0:0:
268,200,32661,1,2,0:0:0:0:
152,204,32742,1,0,0:0:0:0:
268,200,32823,1,2,0:0:0:0:
264,184,32985,1,2,0:0:0:0:
264,184,33066,1,0,0:0:0:0:
264,184,33147,1,2,0:0:0:0:
264,184,33228,1,2,0:0:0:0:
264,184,33310,1,0,0:0:0:0:
264,184,33472,1,2,0:0:0:0:
176,224,33634,1,0,0:0:0:0:
416,308,33796,1,0,0:0:0:0:
176,224,33877,1,2,0:0:0:0:
416,296,34039,1,2,0:0:0:0:
176,224,34120,1,0,0:0:0:0:
340,312,34283,1,2,0:0:0:0:
340,312,34364,1,0,0:0:0:0:
340,312,34445,1,0,0:0:0:0:
340,312,34526,1,0,0:0:0:0:
340,312,34607,1,2,0:0:0:0:
340,312,34769,1,2,0:0:0:0:
340,312,34931,1,0,0:0:0:0:
248,244,35093,1,0,0:0:0:0:
248,244,35174,1,0,0:0:0:0:
244,240,35255,1,2,0:0:0:0:
244,240,35337,1,2,0:0:0:0:
244,240,35418,1,0,0:0:0:0:
240,228,35580,1,0,0:0:0:0:
296,208,35661,1,2,0:0:0:0:
240,228,35742,1,2,0:0:0:0:
144,212,35823,1,0,0:0:0:0:
144,212,35904,1,0,0:0:0:0:
144,212,36066,1,2,0:0:0:0:
212,208,36391,1,0,0:0:0:0:
212,208,36553,1,2,0:0:0:0:
240,232,36715,1,0,0:0:0:0:
240,232,36877,1,2,0:0:0:0:
104,140,36958,1,0,0:0:0:0:
240,232,37039,1,0,0:0:0:0:
128,192,37120,1,2,0:0:0:0:
240,232,37201,1,0,0:0:0:0:
240,236,37364,1,0,0:0:0:0:
184,192,37445,1,0,0:0:0:0:
240,236,37526,1,2,0:0:0:0:
292,232,37688,1,0,0:0:0:0:
268,192,37850,1,2,0:0:0:0:
292,204,38012,1,2,0:0:0:0:
292,204,38174,1,0,0:0:0:0:
292,204,38337,1,2,0:0:0:0:
292,204,38418,1,0,0:0:0:0:
292,204,38499,1,2,0:0:0:0:
292,204,38661,1,2,0:0:0:0:
292,204,38823,1,0,0:0:0:0:
292,204,38985,1,0,0:0:0:0:
292,204,39066,1,2,0:0:0:0:
292,204,39228,1,2,0:0:0:0:
292,204,39310,1,0,0:0:0:0:
136,184,39472,1,0,0:0:0:0:
124,172,39553,1,0,0:0:0:0:
128,180,39634,1,0,0:0:0:0:
124,172,39715,1,0,0:0:0:0:
124,172,39796,1,2,0:0:0:0:
112,168,39958,1,2,0:0:0:0:
328,264,40120,1,0,0:0:0:0:
260,144,40931,1,0,0:0:0:0:
260,144,41418,1,2,0:0:0:0:
328,180,41472,1,2,0:0:0:0:
328,180,41526,1,2,0:0:0:0:
328,180,41580,1,0,0:0:0:0:
280,260,41661,1,0,0:0:0:0:
360,208,41742,1,2,0:0:0:0:
360,208,41796,1,0,0:0:0:0:
360,208,41850,1,0,0:0:0:0:
360,208,41904,1,2,0:0:0:0:
236,176,41985,1,0,0:0:0:0:
160,224,42066,1,2,0:0:0:0:
280,240,42228,1,2,0:0:0:0:
276,232,42310,1,2,0:0:0:0:
276,232,42391,1,0,0:0:0:0:
276,232,42553,1,2,0:0:0:0:
276,232,42634,1,2,0:0:0:0:
276,232,42715,1,0,0:0:0:0:
428,292,42877,1,0,0:0:0:0:
124,224,42958,1,0,0:0:0:0:
428,292,43039,1,2,0:0:0:0:
412,280,43093,1,0,0:0:0:0:
208,192,43147,1,0,0:0:0:0:
428,292,43201,1,2,0:0:0:0:
388,268,43364,1,0,0:0:0:0:
388,268,43526,1,2,0:0:0:0:
388,268,43850,1,0,0:0:0:0:
388,268,44012,1,2,0:0:0:0:
180,220,44337,1,0,0:0:0:0:
176,204,44499,1,2,0:0:0:0:
172,200,44580,1,0,0:0:0:0:
172,200,44661,1,2,0:0:0:0:
172,200,44742,1,2,0:0:0:0:
356,268,44823,1,0,0:0:0:0:
348,264,44904,1,0,0:0:0:0:
348,264,44985,1,2,0:0:0:0:
348,264,45147,1,0,0:0:0:0:
348,264,45310,1,2,0:0:0:0:
196,204,45634,1,2,0:0:0:0:
284,240,45796,1,0,0:0:0:0:
192,188,45877,1,0,0:0:0:0:
284,240,45958,1,2,0:0:0:0:
284,240,46120,1,2,0:0:0:0:
200,188,46283,1,0,0:0:0:0:
288,212,46445,1,0,0:0:0:0:
344,220,46526,1,0,0:0:0:0:
288,212,46607,1,2,0:0:0:0:
272,200,46931,1,0,0:0:0:0:
376,264,47093,1,0,0:0:0:0:
376,264,47174,1,0,0:0:0:0:
376,264,47255,1,2,0:0:0:0:
376,264,47337,1,0,0:0:0:0:
384,264,47418,1,0,0:0:0:0:
384,264,47499,1,0,0:0:0:0:
384,264,47580,1,2,0:0:0:0:
308,204,47634,1,2,0:0:0:0:
308,204,47688,1,0,0:0:0:0:
384,264,47742,1,0,0:0:0:0:
384,264,47823,1,0,0:0:0:0:
384,264,47904,1,2,0:0:0:0:
244,188,48066,1,0,0:0:0:0:
244,188,48147,1,2,0:0:0:0:
244,188,48228,1,0,0:0:0:0:
244,188,48283,1,0,0:0:0:0:
108,160,48337,1,0,0:0:0:0:
244,188,48391,1,2,0:0:0:0:
240,188,48472,1,2,0:0:0:0:
240,188,48553,1,0,0:0:0:0:
240,188,48715,1,2,0:0:0:0:
240,188,48877,1,0,0:0:0:0:
240,188,49201,1,2,0:0:0:0:
208,156,49526,1,0,0:0:0:0:
332,240,49688,1,0,0:0:0:0:
332,240,49769,1,0,0:0:0:0:
332,240,49850,1,2,0:0:0:0:
332,240,49931,1,0,0:0:0:0:
332,240,50012,1,2,0:0:0:0:
332,240,50093,1,2,0:0:0:0:
332,240,50174,1,0,0:0:0:0:
332,240,50337,1,0,0:0:0:0:
332,240,50499,1,2,0:0:0:0:
372,236,50661,1,0,0:0:0:0:
352,204,50823,1,2,0:0:0:0:
212,200,50904,1,0,0:0:0:0:
212,200,50985,1,0,0:0:0:0:
332,212,51147,1,0,0:0:0:0:
332,208,51310,1,2,0:0:0:0:
332,208,51634,1,0,0:0:0:0:
336,208,51796,1,2,0:0:0:0:
260,232,51958,1,0,0:0:0:0:
264,228,52039,1,0,0:0:0:0:
280,280,52120,1,2,0:0:0:0:
280,280,52283,1,0,0:0:0:0:
288,272,52364,1,0,0:0:0:0:
288,272,52445,1,2,0:0:0:0:
288,272,52526,1,0,0:0:0:0:
288,272,52607,1,2,0:0:0:0:
288,272,52688,1,0,0:0:0:0:
288,272,52769,1,2,0:0:0:0:
248,200,52823,1,2,0:0:0:0:
248,200,52877,1,2,0:0:0:0:
288,268,52931,1,0,0:0:0:0:
288,268,53012,1,0,0:0:0:0:
288,268,53093,1,2,0:0:0:0:
224,188,53255,1,0,0:0:0:0:
224,188,53337,1,0,0:0:0:0:
224,188,53418,1,2,0:0:0:0:
216,196,53499,1,2,0:0:0:0:
220,196,53580,1,0,0:0:0:0:
216,196,53742,1,0,0:0:0:0:
192,192,53904,1,2,0:0:0:0:
216,200,54066,1,0,0:0:0:0:
212,200,54391,1,2,0:0:0:0:
288,208,54553,1,0,0:0:0:0:
288,208,54715,1,2,0:0:0:0:
288,204,54877,1,0,0:0:0:0:
288,204,54958,1,2,0:0:0:0:
288,200,55039,1,0,0:0:0:0:
288,200,55201,1,0,0:0:0:0:
256,192,55364,1,2,0:0:0:0:
208,232,55445,1,0,0:0:0:0:
356,136,55526,1,0,0:0:0:0:
252,180,55607,1,0,0:0:0:0:
356,136,55688,1,2,0:0:0:0:
296,220,55850,1,0,0:0:0:0:
260,200,56012,1,2,0:0:0:0:
296,216,56174,1,0,0:0:0:0:
292,216,56255,1,0,0:0:0:0:
292,216,56337,1,2,0:0:0:0:
312,220,56499,1,2,0:0:0:0:
312,220,56661,1,0,0:0:0:0:
304,212,56985,1,2,0:0:0:0:
208,228,57147,1,0,0:0:0:0:
196,200,57310,1,2,0:0:0:0:
196,200,57472,1,0,0:0:0:0:
196,200,57553,1,2,0:0:0:0:
196,200,57634,1,2,0:0:0:0:
192,196,57715,1,0,0:0:0:0:
192,196,57796,1,0,0:0:0:0:
220,136,57850,1,2,0:0:0:0:
168,200,57904,1,2,0:0:0:0:
168,200,57958,1,0,0:0:0:0:
288,176,58039,1,0,0:0:0:0:
288,176,58120,1,2,0:0:0:0:
288,176,58201,1,2,0:0:0:0:
284,196,58283,1,0,0:0:0:0:
340,228,58445,1,0,0:0:0:0:
340,228,58526,1,0,0:0:0:0:
340,228,58607,1,2,0:0:0:0:
340,228,58688,1,0,0:0:0:0:
340,228,58769,1,0,0:0:0:0:
340,228,58931,1,0,0:0:0:0:
340,228,59093,1,2,0:0:0:0:
216,200,59174,1,0,0:0:0:0:
340,228,59255,1,0,0:0:0:0:
340,228,59418,1,0,0:0:0:0:
340,228,59580,1,2,0:0:0:0:
48,172,59904,1,2,0:0:0:0:
56,176,60066,1,0,0:0:0:0:
72,196,60147,1,0,0:0:0:0:
120,180,60228,1,2,0:0:0:0:
120,184,60283,1,0,0:0:0:0:
216,172,60337,1,0,0:0:0:0:
120,184,60391,1,2,0:0:0:0:
120,180,60472,1,0,0:0:0:0:
120,180,60553,1,2,0:0:0:0:
200,200,60634,1,2,0:0:0:0:
112,184,60715,1,0,0:0:0:0:
188,184,60796,1,0,0:0:0:0:
100,180,60877,1,2,0:0:0:0:
148,172,61039,1,0,0:0:0:0:
148,172,61201,1,0,0:0:0:0:
148,172,61526,1,0,0:0:0:0:
152,172,61688,1,2,0:0:0:0:
152,172,61850,1,0,0:0:0:0:
152,172,62012,1,0,0:0:0:0:
152,172,62093,1,0,0:0:0:0:
152,172,62174,1,2,0:0:0:0:
148,172,62499,1,2,0:0:0:0:
248,132,62661,1,0,0:0:0:0:
172,152,62823,1,0,0:0:0:0:
172,152,62985,1,2,0:0:0:0:
168,148,63066,1,0,0:0:0:0:
164,144,63147,1,2,0:0:0:0:
164,144,63228,1,2,0:0:0:0:
164,144,63310,1,0,0:0:0:0:
164,144,63391,1,0,0:0:0:0:
276,232,63472,1,2,0:0:0:0:
428,292,63634,1,0,0:0:0:0:
124,224,63715,1,0,0:0:0:0:
428,292,63796,1,2,0:0:0:0:
412,280,63850,1,0,0:0:0:0:
208,192,63904,1,0,0:0:0:0:
428,292,63958,1,2,0:0:0:0:
388,268,64120,1,0,0:0:0:0:
388,268,64283,1,2,0:0:0:0:
388,268,64607,1,0,0:0:0:0:
388,268,64769,1,2,0:0:0:0:
180,220,65093,1,0,0:0:0:0:
176,204,65255,1,2,0:0:0:0:
172,200,65337,1,0,0:0:0:0:
172,200,65418,1,2,0:0:0:0:
172,200,65499,1,2,0:0:0:0:
356,268,65580,1,0,0:0:0:0:
348,264,65661,1,0,0:0:0:0:
348,264,65742,1,2,0:0:0:0:
348,264,65904,1,0,0:0:0:0:
348,264,66066,1,2,0:0:0:0:
196,204,66391,1,2,0:0:0:0:
284,240,66553,1,0,0:0:0:0:
192,188,66634,1,0,0:0:0:0:
284,240,66715,1,2,0:0:0:0:
284,240,66877,1,2,0:0:0:0:
200,188,67039,1,0,0:0:0:0:
288,212,67201,1,0,0:0:0:0:
344,220,67283,1,0,0:0:0:0:
288,212,67364,1,2,0:0:0:0:
272,200,67688,1,0,0:0:0:0:
376,264,67850,1,0,0:0:0:0:
376,264,67931,1,0,0:0:0:0:
376,264,68012,1,2,0:0:0:0:
376,264,68093,1,0,0:0:0:0:
384,264,68174,1,0,0:0:0:0:
384,264,68255,1,0,0:0:0:0:
384,264,68337,1,2,0:0:0:0:
308,204,68391,1,2,0:0:0:0:
308,204,68445,1,0,0:0:0:0:
384,264,68499,1,0,0:0:0:0:
384,264,68580,1,0,0:0:0:0:
384,264,68661,1,2,0:0:0:0:
244,188,68823,1,0,0:0:0:0:
244,188,68904,1,2,0:0:0:0:
244,188,68985,1,0,0:0:0:0:
244,188,69039,1,0,0:0:0:0:
108,160,69093,1,0,0:0:0:0:
244,188,69147,1,2,0:0:0:0:
240,188,69228,1,2,0:0:0:0:
240,188,69310,1,0,0:0:0:0:
240,188,69472,1,2,0:0:0:0:
240,188,69634,1,0,0:0:0:0:
240,188,69958,1,2,0:0:0:0:
208,156,70283,1,0,0:0:0:0:
332,240,70445,1,0,0:0:0:0:
332,240,70526,1,0,0:0:0:0:
332,240,70607,1,2,0:0:0:0:
332,240,70688,1,0,0:0:0:0:
332,240,70769,1,2,0:0:0:0:
332,240,70850,1,2,0:0:0:0:
332,240,70931,1,0,0:0:0:0:
332,240,71093,1,0,0:0:0:0:
332,240,71255,1,2,0:0:0:0:
372,236,71418,1,0,0:0:0:0:
352,204,71580,1,2,0:0:0:0:
212,200,71661,1,0,0:0:0:0:
212,200,71742,1,0,0:0:0:0:
332,212,71904,1,0,0:0:0:0:
332,208,72066,1,2,0:0:0:0:
332,208,72391,1,0,0:0:0:0:
336,208,72553,1,2,0:0:0:0:
260,232,72715,1,0,0:0:0:0:
264,228,72796,1,0,0:0:0:0:
280,280,72877,1,2,0:0:0:0:
280,280,73039,1,0,0:0:0:0:
288,272,73120,1,0,0:0:0:0:
288,272,73201,1,2,0:0:0:0:
288,272,73283,1,0,0:0:0:0:
288,272,73364,1,2,0:0:0:0:
288,272,73445,1,0,0:0:0:0:
288,272,73526,1,2,0:0:0:0:
248,200,73580,1,2,0:0:0:0:
248,200,73634,1,2,0:0:0:0:
288,268,73688,1,0,0:0:0:0:
288,268,73769,1,0,0:0:0:0:
288,268,73850,1,2,0:0:0:0:
224,188,74012,1,0,0:0:0:0:
224,188,74093,1,0,0:0:0:0:
224,188,74174,1,2,0:0:0:0:
216,196,74228,1,0,0:0:0:0:
220,196,74283,1,0,0:0:0:0:
256,200,74337,1,2,0:0:0:0:
216,196,74499,1,0,0:0:0:0:
192,192,74661,1,2,0:0:0:0:
216,200,74823,1,0,0:0:0:0:
212,200,75147,1,2,0:0:0:0:
288,208,75310,1,0,0:0:0:0:
288,208,75472,1,2,0:0:0:0:
288,204,75634,1,0,0:0:0:0:
288,204,75715,1,2,0:0:0:0:
288,200,75796,1,0,0:0:0:0:
288,200,75958,1,0,0:0:0:0:
256,192,76120,1,2,0:0:0:0:
208,232,76201,1,0,0:0:0:0:
356,136,76283,1,0,0:0:0:0:
252,180,76364,1,0,0:0:0:0:
356,136,76445,1,2,0:0:0:0:
296,220,76607,1,0,0:0:0:0:
260,200,76769,1,2,0:0:0:0:
296,216,76931,1,0,0:0:0:0:
292,216,77012,1,0,0:0:0:0:
292,216,77093,1,2,0:0:0:0:
312,220,77255,1,2,0:0:0:0:
312,220,77418,1,0,0:0:0:0:
304,212,77742,1,2,0:0:0:0:
208,228,77904,1,0,0:0:0:0:
196,200,78066,1,2,0:0:0:0:
196,200,78228,1,0,0:0:0:0:
196,200,78310,1,2,0:0:0:0:
196,200,78391,1,2,0:0:0:0:
192,196,78472,1,0,0:0:0:0:
192,196,78553,1,0,0:0:0:0:
220,136,78607,1,2,0:0:0:0:
168,200,78661,1,2,0:0:0:0:
168,200,78715,1,0,0:0:0:0:
288,176,78796,1,0,0:0:0:0:
288,176,78877,1,2,0:0:0:0:
288,176,78958,1,2,0:0:0:0:
284,196,79039,1,0,0:0:0:0:
340,228,79201,1,0,0:0:0:0:
340,228,79283,1,0,0:0:0:0:
340,228,79364,1,2,0:0:0:0:
340,228,79418,1,0,0:0:0:0:
160,112,79472,1,0,0:0:0:0:
340,228,79526,1,2,0:0:0:0:
288,184,79607,1,0,0:0:0:0:
340,228,79688,1,0,0:0:0:0:
340,228,79850,1,2,0:0:0:0:
216,200,79931,1,0,0:0:0:0:
340,228,80012,1,0,0:0:0:0:
340,228,80174,1,0,0:0:0:0:
340,228,80337,1,2,0:0:0:0:
48,172,80661,1,2,0:0:0:0:
56,176,80823,1,0,0:0:0:0:
320,268,80904,1,0,0:0:0:0:
120,180,80985,1,2,0:0:0:0:
120,184,81039,1,0,0:0:0:0:
216,172,81093,1,0,0:0:0:0:
120,184,81147,1,2,0:0:0:0:
120,180,81228,1,0,0:0:0:0:
120,180,81310,1,2,0:0:0:0:
200,200,81391,1,2,0:0:0:0:
112,184,81472,1,0,0:0:0:0:
188,184,81553,1,0,0:0:0:0:
100,180,81634,1,2,0:0:0:0:
148,172,81796,1,0,0:0:0:0:
148,172,81958,1,0,0:0:0:0:
148,172,82283,1,0,0:0:0:0:
152,172,82445,1,2,0:0:0:0:
152,172,82607,1,0,0:0:0:0:
152,172,82769,1,0,0:0:0:0:
152,172,82850,1,0,0:0:0:0:
152,172,82931,1,2,0:0:0:0:
148,172,83255,1,2,0:0:0:0:
200,168,83418,1,0,0:0:0:0:
392,248,83499,1,2,0:0:0:0:
172,152,83580,1,0,0:0:0:0:
172,152,83742,1,2,0:0:0:0:
168,148,83823,1,0,0:0:0:0:
164,144,83904,1,2,0:0:0:0:
164,144,83985,1,2,0:0:0:0:
164,144,84066,1,0,0:0:0:0:
164,144,84147,1,0,0:0:0:0:
276,232,84228,1,2,0:0:0:0:
356,296,84391,1,0,0:0:0:0:
356,296,84553,1,0,0:0:0:0:
356,296,84715,1,2,0:0:0:0:
356,296,85039,1,0,0:0:0:0:
356,296,85201,1,2,0:0:0:0:
356,296,85526,1,2,0:0:0:0:
348,292,85850,1,0,0:0:0:0:
236,160,86012,1,0,0:0:0:0:
348,292,86174,1,0,0:0:0:0:
348,292,86337,1,2,0:0:0:0:
348,292,86661,1,0,0:0:0:0:
468,248,88120,1,0,0:0:0:0:
300,188,88769,1,2,0:0:0:0:
272,204,89418,1,4,0:0:0:0:
376,164,89580,1,0,0:0:0:0:
208,248,89661,1,0,0:0:0:0:
268,196,89742,1,2,0:0:0:0:
304,232,89823,1,2,0:0:0:0:
356,160,89904,1,0,0:0:0:0:
352,148,90066,1,0,0:0:0:0:
276,212,90228,1,2,0:0:0:0:
304,204,90310,1,0,0:0:0:0:
312,228,90391,1,0,0:0:0:0:
344,144,90553,1,2,0:0:0:0:
152,152,90715,1,0,0:0:0:0:
336,124,90877,1,0,0:0:0:0:
276,176,90958,1,0,0:0:0:0:
336,124,91039,1,2,0:0:0:0:
284,172,91201,1,2,0:0:0:0:
220,152,91283,1,0,0:0:0:0:
336,124,91364,1,2,0:0:0:0:
336,124,91445,1,2,0:0:0:0:
336,124,91526,1,0,0:0:0:0:
336,124,91607,1,0,0:0:0:0:
336,124,91688,1,2,0:0:0:0:
336,124,91850,1,0,0:0:0:0:
128,100,91931,1,0,0:0:0:0:
416,260,92012,1,2,0:0:0:0:
272,200,92174,1,0,0:0:0:0:
252,192,92337,1,2,0:0:0:0:
252,188,92661,1,0,0:0:0:0:
248,184,92823,1,2,0:0:0:0:
192,156,92904,1,0,0:0:0:0:
192,148,92985,1,0,0:0:0:0:
232,164,93147,1,2,0:0:0:0:
284,192,93310,1,0,0:0:0:0:
232,164,93472,1,0,0:0:0:0:
232,164,93634,1,2,0:0:0:0:
232,164,93796,1,2,0:0:0:0:
232,164,93877,1,0,0:0:0:0:
232,164,93958,1,2,0:0:0:0:
232,164,94039,1,0,0:0:0:0:
232,164,94201,1,0,0:0:0:0:
232,164,94283,1,2,0:0:0:0:
232,164,94445,1,0,0:0:0:0:
436,220,94526,1,0,0:0:0:0:
436,212,94607,1,2,0:0:0:0:
304,212,94769,1,0,0:0:0:0:
304,212,94931,1,2,0:0:0:0:
220,204,95093,1,2,0:0:0:0:
320,220,95174,1,2,0:0:0:0:
220,204,95255,1,0,0:0:0:0:
384,256,95418,1,0,0:0:0:0:
220,204,95499,1,2,0:0:0:0:
220,204,95580,1,2,0:0:0:0:
220,204,95661,1,0,0:0:0:0:
376,252,95742,1,2,0:0:0:0:
200,200,95904,1,0,0:0:0:0:
280,192,96066,1,0,0:0:0:0:
232,84,96147,1,0,0:0:0:0:
276,168,96228,1,2,0:0:0:0:
232,84,96391,1,0,0:0:0:0:
276,168,96553,1,2,0:0:0:0:
268,168,96634,1,2,0:0:0:0:
276,168,96715,1,0,0:0:0:0:
268,168,96796,1,0,0:0:0:0:
276,168,96877,1,2,0:0:0:0:
264,168,97039,1,2,0:0:0:0:
264,168,97201,1,0,0:0:0:0:
252,224,97364,1,0,0:0:0:0:
232,84,97445,1,0,0:0:0:0:
348,324,97526,1,2,0:0:0:0:
252,224,97688,1,0,0:0:0:0:
252,224,97769,1,0,0:0:0:0:
352,312,97850,1,0,0:0:0:0:
336,296,98012,1,2,0:0:0:0:
152,208,98174,1,0,0:0:0:0:
336,304,98337,1,2,0:0:0:0:
336,304,98661,1,0,0:0:0:0:
336,304,98823,1,2,0:0:0:0:
332,236,98904,1,0,0:0:0:0:
332,236,98985,1,2,0:0:0:0:
332,236,99066,1,0,0:0:0:0:
332,236,99147,1,2,0:0:0:0:
332,236,99228,1,2,0:0:0:0:
332,236,99310,1,0,0:0:0:0:
332,236,99391,1,0,0:0:0:0:
332,236,99472,1,2,0:0:0:0:
332,236,99553,1,2,0:0:0:0:
332,236,99634,1,2,0:0:0:0:
332,236,99715,1,0,0:0:0:0:
324,232,99796,1,2,0:0:0:0:
288,224,100120,1,0,0:0:0:0:
288,224,100201,1,0,0:0:0:0:
288,224,100283,1,2,0:0:0:0:
244,228,100445,1,0,0:0:0:0:
244,228,100607,1,2,0:0:0:0:
256,192,100931,1,2,0:0:0:0:
252,272,101093,1,0,0:0:0:0:
164,256,101418,1,2,0:0:0:0:
248,296,101580,1,0,0:0:0:0:
248,296,101904,1,0,0:0:0:0:
260,288,102228,1,4,0:0:0:0:
320,264,102553,1,0,0:0:0:0:
320,264,102715,1,2,0:0:0:0:
172,232,102877,1,0,0:0:0:0:
320,264,103039,1,0,0:0:0:0:
320,264,103201,1,2,0:0:0:0:
176,240,103283,1,0,0:0:0:0:
176,240,103364,1,0,0:0:0:0:
320,264,103526,1,2,0:0:0:0:
168,244,103688,1,0,0:0:0:0:
320,264,103850,1,0,0:0:0:0:
320,264,104012,1,2,0:0:0:0:
320,268,104174,1,0,0:0:0:0:
256,196,104255,1,0,0:0:0:0:
32,172,104337,1,2,0:0:0:0:
264,196,104418,1,2,0:0:0:0:
32,172,104580,1,0,0:0:0:0:
320,268,104661,1,2,0:0:0:0:
264,196,104823,1,0,0:0:0:0:
264,196,104904,1,0,0:0:0:0:
264,196,104985,1,2,0:0:0:0:
348,224,105147,1,2,0:0:0:0:
344,216,105228,1,0,0:0:0:0:
96,280,105310,1,2,0:0:0:0:
160,120,105472,1,0,0:0:0:0:
80,280,105634,1,0,0:0:0:0:
72,240,105796,1,2,0:0:0:0:
180,176,105877,1,2,0:0:0:0:
168,180,105958,1,0,0:0:0:0:
220,232,106120,1,2,0:0:0:0:
220,232,106445,1,0,0:0:0:0:
220,220,106607,1,2,0:0:0:0:
336,232,106769,1,0,0:0:0:0:
220,220,106931,1,2,0:0:0:0:
252,184,107012,1,2,0:0:0:0:
252,184,107093,1,0,0:0:0:0:
252,184,107174,1,0,0:0:0:0:
220,216,107255,1,2,0:0:0:0:
212,208,107418,1,2,0:0:0:0:
212,208,107580,1,0,0:0:0:0:
284,184,107742,1,0,0:0:0:0:
340,256,107904,1,2,0:0:0:0:
320,184,108066,1,0,0:0:0:0:
320,184,108147,1,2,0:0:0:0:
324,240,108228,1,0,0:0:0:0:
312,216,108391,1,2,0:0:0:0:
272,192,108472,1,0,0:0:0:0:
272,192,108553,1,0,0:0:0:0:
304,212,108715,1,2,0:0:0:0:
308,224,109039,1,0,0:0:0:0:
308,224,109201,1,2,0:0:0:0:
396,248,109364,1,2,0:0:0:0:
396,248,109445,1,0,0:0:0:0:
308,224,109526,1,2,0:0:0:0:
304,208,109607,1,2,0:0:0:0:
396,248,109688,1,0,0:0:0:0:
308,192,109769,1,0,0:0:0:0:
400,248,109850,1,2,0:0:0:0:
400,248,110012,1,0,0:0:0:0:
400,240,110093,1,2,0:0:0:0:
396,248,110174,1,0,0:0:0:0:
244,232,111147,1,2,0:0:0:0:
240,208,111472,1,0,0:0:0:0:
176,144,111958,1,2,0:0:0:0:
172,128,112445,1,2,0:0:0:0:
172,128,112769,1,0,0:0:0:0:
264,272,114715,1,0,0:0:0:0:
244,240,115364,1,2,0:0:0:0:
248,212,115688,1,0,0:0:0:0:
248,212,115769,1,0,0:0:0:0:
248,212,115850,1,2,0:0:0:0:
244,152,116174,1,0,0:0:0:0:
244,152,116499,1,0,0:0:0:0:
320,176,116661,1,2,0:0:0:0:
296,248,117310,1,2,0:0:0:0:
296,248,117391,1,0,0:0:0:0:
276,212,117472,1,2,0:0:0:0:
244,192,117634,1,0,0:0:0:0:
224,144,117796,1,2,0:0:0:0:
220,136,117958,1,0,0:0:0:0:
120,188,118120,1,2,0:0:0:0:
116,188,118283,1,2,0:0:0:0:
116,184,118445,1,0,0:0:0:0:
152,200,118769,1,2,0:0:0:0:
144,184,118931,1,0,0:0:0:0:
152,200,119093,1,0,0:0:0:0:
144,184,119174,1,0,0:0:0:0:
144,184,119255,1,2,0:0:0:0:
180,168,119580,1,2,0:0:0:0:
292,168,119904,1,2,0:0:0:0:
128,192,119985,1,2,0:0:0:0:
128,172,120066,1,0,0:0:0:0:
128,172,120147,1,0,0:0:0:0:
272,152,120228,1,2,0:0:0:0:
104,160,120391,1,2,0:0:0:0:
368,224,120472,1,2,0:0:0:0:
352,200,120553,1,0,0:0:0:0:
376,164,120715,1,0,0:0:0:0:
208,248,120796,1,0,0:0:0:0:
268,196,120877,1,2,0:0:0:0:
304,232,120958,1,2,0:0:0:0:
356,160,121039,1,0,0:0:0:0:
352,148,121201,1,0,0:0:0:0:
276,212,121364,1,2,0:0:0:0:
304,204,121445,1,0,0:0:0:0:
312,228,121526,1,0,0:0:0:0:
344,144,121688,1,2,0:0:0:0:
360,336,121850,1,0,0:0:0:0:
336,124,122012,1,0,0:0:0:0:
132,160,122093,1,0,0:0:0:0:
336,124,122174,1,2,0:0:0:0:
284,172,122337,1,2,0:0:0:0:
220,152,122418,1,0,0:0:0:0:
336,124,122499,1,2,0:0:0:0:
336,124,122580,1,2,0:0:0:0:
336,124,122661,1,0,0:0:0:0:
336,124,122742,1,0,0:0:0:0:
336,124,122823,1,2,0:0:0:0:
336,124,122985,1,0,0:0:0:0:
128,100,123066,1,0,0:0:0:0:
416,260,123147,1,2,0:0:0:0:
272,200,123310,1,0,0:0:0:0:
252,192,123472,1,2,0:0:0:0:
252,188,123796,1,0,0:0:0:0:
248,184,123958,1,2,0:0:0:0:
192,156,124039,1,0,0:0:0:0:
192,148,124120,1,0,0:0:0:0:
232,164,124283,1,2,0:0:0:0:
284,192,124445,1,0,0:0:0:0:
232,164,124607,1,0,0:0:0:0:
232,164,124769,1,2,0:0:0:0:
232,164,124931,1,2,0:0:0:0:
232,164,125012,1,0,0:0:0:0:
232,164,125093,1,2,0:0:0:0:
232,164,125174,1,0,0:0:0:0:
232,164,125337,1,0,0:0:0:0:
232,164,125418,1,2,0:0:0:0:
232,164,125580,1,0,0:0:0:0:
436,220,125661,1,0,0:0:0:0:
436,212,125742,1,2,0:0:0:0:
304,212,125904,1,0,0:0:0:0:
304,212,126066,1,2,0:0:0:0:
220,204,126228,1,2,0:0:0:0:
320,220,126310,1,2,0:0:0:0:
220,204,126391,1,0,0:0:0:0:
384,256,126553,1,0,0:0:0:0:
220,204,126634,1,2,0:0:0:0:
220,204,126715,1,2,0:0:0:0:
220,204,126796,1,0,0:0:0:0:
376,252,126877,1,2,0:0:0:0:
200,200,127039,1,0,0:0:0:0:
280,192,127201,1,0,0:0:0:0:
132,160,127283,1,0,0:0:0:0:
276,168,127364,1,2,0:0:0:0:
132,160,127526,1,0,0:0:0:0:
276,168,127688,1,2,0:0:0:0:
268,168,127769,1,2,0:0:0:0:
276,168,127850,1,0,0:0:0:0:
268,168,127931,1,0,0:0:0:0:
276,168,128012,1,2,0:0:0:0:
264,168,128174,1,2,0:0:0:0:
264,168,128337,1,0,0:0:0:0:
252,224,128499,1,0,0:0:0:0:
132,160,128580,1,0,0:0:0:0:
348,324,128661,1,2,0:0:0:0:
252,224,128823,1,0,0:0:0:0:
252,224,128904,1,0,0:0:0:0:
352,312,128985,1,0,0:0:0:0:
336,296,129147,1,2,0:0:0:0:
152,208,129310,1,0,0:0:0:0:
336,304,129472,1,2,0:0:0:0:
336,304,129796,1,0,0:0:0:0:
336,304,129958,1,2,0:0:0:0:
332,236,130039,1,0,0:0:0:0:
332,236,130120,1,2,0:0:0:0:
332,236,130201,1,0,0:0:0:0:
332,236,130283,1,2,0:0:0:0:
332,236,130364,1,2,0:0:0:0:
332,236,130445,1,0,0:0:0:0:
332,236,130526,1,0,0:0:0:0:
332,236,130607,1,2,0:0:0:0:
332,236,130688,1,2,0:0:0:0:
332,236,130769,1,2,0:0:0:0:
332,236,130850,1,0,0:0:0:0:
324,232,130931,1,2,0:0:0:0:
352,248,131093,1,0,0:0:0:0:
356,252,131255,1,0,0:0:0:0:
352,248,131418,1,2,0:0:0:0:
356,240,131742,1,0,0:0:0:0:
356,240,131904,1,2,0:0:0:0:
356,240,132228,1,0,0:0:0:0:
360,232,132553,1,0,0:0:0:0:
40,156,132715,1,0,0:0:0:0:
360,232,132877,1,0,0:0:0:0:
360,232,133039,1,2,0:0:0:0:
360,232,133364,1,0,0:0:0:0:
256,192,134985,12,0,136120,0:0:0:0:
