osu file format v11

[General]
AudioFilename: Feint - Vision Driver .mp3
AudioLeadIn: 2000
PreviewTime: 40000
Countdown: 0
SampleSet: Normal
StackLeniency: 0.5
Mode: 0
LetterboxInBreaks: 1

[Editor]
DistanceSpacing: 1
BeatDivisor: 4
GridSize: 4

[Metadata]
Title:Vision Driver
TitleUnicode:Vision Driver
Artist:Feint
ArtistUnicode:Feint
Creator:phaZ
Version:Pie's Easy
Source:
Tags:dnb Drum 'n' Bass Katty Pie
BeatmapID:205453
BeatmapSetID:51042

[Difficulty]
HPDrainRate:3
CircleSize:3
OverallDifficulty:2
ApproachRate:3
SliderMultiplier:0.799999999999999
SliderTickRate:1

[Events]
//Background and Video events
0,0,"Rainbow_Drip.png"
//Break Periods
2,21945,30755
2,110934,117384
2,129810,138956
//Storyboard Layer 0 (Background)
//Storyboard Layer 1 (Fail)
//Storyboard Layer 2 (Pass)
//Storyboard Layer 3 (Foreground)
//Storyboard Sound Samples
//Background Colour Transformations
3,100,255,255,255

[TimingPoints]
173,337.076757995742,4,2,0,40,1,0
510,-100,4,2,2,40,0,0
594,-100,4,2,0,40,0,0
1858,-100,4,2,2,40,0,0
1942,-100,4,2,0,40,0,0
3206,-100,4,2,2,40,0,0
3290,-100,4,2,0,40,0,0
5903,-100,4,2,2,40,0,0
5987,-100,4,2,0,40,0,0
7251,-100,4,2,2,40,0,0
7335,-100,4,2,0,40,0,0
11296,-100,4,2,2,40,0,0
11380,-100,4,2,0,40,0,0
12644,-100,4,2,2,40,0,0
12729,-100,4,2,0,40,0,0
13993,-100,4,2,2,40,0,0
14077,-100,4,2,0,40,0,0
15341,-100,4,2,2,40,0,0
15425,-100,4,2,0,40,0,0
16689,-100,4,2,2,40,0,0
16774,-100,4,2,0,40,0,0
18038,-100,4,2,2,40,0,0
18122,-100,4,2,0,40,0,0
37925,-100,4,3,0,30,0,0
40622,-100,4,2,0,35,0,0
40959,-100,4,2,0,40,0,0
41296,-100,4,2,0,45,0,0
41633,-100,4,2,0,50,0,0
41970,-100,4,2,0,55,0,0
42307,-100,4,2,0,60,0,0
42644,-100,4,2,0,65,0,0
42981,-100,4,2,0,70,0,0
43319,-100,4,1,1,60,0,1
56801,-100,4,1,1,60,0,0
59498,-100,4,1,1,60,0,1
86464,-100,4,1,1,60,0,0
86801,-100,4,1,2,60,0,0
86885,-100,4,1,1,60,0,0
88150,-100,4,1,2,60,0,0
88234,-100,4,1,1,60,0,0
89498,-100,4,1,2,60,0,0
89582,-100,4,1,1,60,0,0
92194,-100,4,1,2,60,0,0
92279,-100,4,1,1,60,0,0
93543,-100,4,1,2,60,0,0
93627,-100,4,1,1,60,0,0
94891,-100,4,1,2,60,0,0
94975,-100,4,1,1,60,0,0
97588,-100,4,1,2,60,0,0
97672,-100,4,1,1,60,0,0
98936,-100,4,1,2,60,0,0
99020,-100,4,1,1,60,0,0
100284,-100,4,1,2,60,0,0
100369,-100,4,1,1,60,0,0
102981,-100,4,1,2,60,0,0
103065,-100,4,1,1,60,0,0
104329,-100,4,1,2,60,0,0
104413,-100,4,1,1,60,0,0
105678,-100,4,1,2,60,0,0
105762,-100,4,1,1,60,0,0
110734,-100,4,2,1,40,0,0
150846,-100,4,1,1,40,0,0
151183,-100,4,2,1,60,0,0
167363,-100,4,1,1,60,0,0
172756,-100,4,1,1,60,0,1
178486,-100,4,1,2,60,0,1
178570,-100,4,1,1,60,0,1
179834,-100,4,1,2,60,0,1
179919,-100,4,1,1,60,0,1
181183,-100,4,1,2,60,0,1
181267,-100,4,1,1,60,0,1
189273,-100,4,1,2,60,0,1
189357,-100,4,1,1,60,0,1
190621,-100,4,1,2,60,0,1
190705,-100,4,1,1,60,0,1
199722,-100,4,1,1,60,0,0
200059,-100,4,1,2,60,0,0
200143,-100,4,1,1,60,0,0
201407,-100,4,1,2,60,0,0
201492,-100,4,1,1,60,0,0
205452,-100,4,1,2,60,0,0
205537,-100,4,1,1,60,0,0
206801,-100,4,1,2,60,0,0
206885,-100,4,1,1,60,0,0
208149,-100,4,1,2,60,0,0
208233,-100,4,1,1,60,0,0
208823,-100,4,1,2,60,0,0
208907,-100,4,1,1,60,0,0
215817,-100,4,1,1,60,0,1
215986,-100,4,1,1,60,0,0

[Colours]
Combo1 : 176,196,196
Combo2 : 206,6,6
Combo3 : 210,143,250
Combo4 : 0,213,213
Combo5 : 18,194,18
Combo6 : 227,138,4

[HitObjects]
108,44,173,2,0,P|68:112|180:180,1,240,4|8,0:0|0:0,0:0:0
160,104,1521,2,0,P|216:104|256:52|256:52|300:108|364:108,1,240,0|8,0:0|0:0,0:0:0
444,108,2869,6,0,P|428:156|328:180,1,160,0|0,0:0|0:0,0:0:0
296,252,3880,1,8,0:0:0
272,328,4217,2,0,P|176:328,1,79.9999999999999,2|8,0:0|0:0,0:0:0
132,276,4892,2,0,P|132:188,1,79.9999999999999,2|8,0:0|0:0,0:0:0
156,120,5566,6,0,P|176:48|268:124,1,240,4|8,0:0|0:0,0:0:0
212,176,6914,2,0,P|212:204|212:204|220:232|212:264|212:264|220:292|212:320|212:320|256:300|304:324,1,240,0|8,0:0|0:0,0:0:0
384,324,8262,5,2,0:0:0
448,276,8599,1,8,0:0:0
468,200,8936,2,0,P|480:164|464:124,1,79.9999999999999,2|8,0:0|0:0,0:0:0
392,96,9611,2,0,P|304:96,1,79.9999999999999,2|8,0:0|0:0,0:0:0
244,136,10285,2,0,P|232:84|248:48,1,79.9999999999999,2|8,0:0|0:0,0:0:0
164,32,10959,6,0,P|96:84|112:236,1,240,4|8,0:0|0:0,0:0:0
148,292,12307,2,0,P|172:308|200:296|200:296|228:308|256:296|256:296|284:308|312:296|312:296|340:308|368:296|368:296|392:304,1,240,0|8,0:0|0:0,0:0:0
420,368,13656,6,0,P|460:304|416:228,1,160,0|0,0:0|0:0,0:0:0
420,156,14667,1,8,0:0:0
488,112,15004,2,0,P|412:76|351:110,1,160
284,152,16015,1,8,0:0:0
216,108,16352,6,0,P|72:104|76:176,1,240,4|8,0:0|0:0,0:0:0
148,156,17700,2,0,P|148:220|204:260|204:260|256:228|314:263,1,240,0|8,0:0|0:0,0:0:0
256,192,19049,12,4,21745,0:0:0
256,220,32195,6,0,P|256:136,2,79.9999999999999,0|2|2,0:0|0:0|0:0,0:0:0
316,324,33375,2,2,P|364:324,1,40
436,324,33880,2,2,P|480:324,2,40
400,208,34723,2,2,P|400:152,1,40
372,92,35228,6,0,P|336:72|292:76,1,79.9999999999999,2|2,0:0|0:0,0:0:0
244,132,35903,2,0,P|280:152|324:148,1,79.9999999999999,2|2,0:0|0:0,0:0:0
348,224,36577,2,0,P|348:320,1,79.9999999999999,2|2,0:0|0:0,0:0:0
272,328,37251,2,0,P|272:236,1,79.9999999999999,2|2,0:0|0:0,0:0:0
272,168,37925,5,8,0:3:0
224,104,38262,2,8,P|188:84|188:84|144:84,1,79.9999999999999
92,140,38936,2,8,P|128:160|128:160|172:160,1,79.9999999999999
164,240,39610,2,8,P|152:276|176:320,2,79.9999999999999
240,272,40622,6,2,P|316:272|340:64,2,320,2|2|4,0:0|0:0|0:0,0:0:0
244,192,43655,6,0,P|180:216|172:312,1,160,8|8,0:0|0:0,0:0:0
236,340,44667,1,0,0:0:0
316,340,45004,2,0,P|396:340|396:340|442:275,1,160,8|8,0:0|0:0,0:0:0
476,200,46015,5,0,0:0:0
436,128,46352,2,0,P|368:88|291:100,1,160,8|8,0:0|0:0,0:0:0
220,64,47363,1,0,0:0:0
148,100,47700,1,8,0:0:0
76,60,48037,2,0,P|64:116|84:144,1,79.9999999999999,2|2,0:0|0:0,0:0:0
76,212,48712,5,4,0:0:0
148,244,49049,2,0,P|198:244|244:340,1,160,8|8,0:0|0:0,0:0:0
324,356,50060,1,0,0:0:0
400,332,50397,2,0,P|447:245|498:245,1,160,8|8,0:0|0:0,0:0:0
492,164,51408,5,0,0:0:0
448,96,51745,2,0,P|372:64|372:64|296:100,1,160,8|8,0:0|0:0,0:0:0
256,164,52756,1,0,0:0:0
208,100,53094,1,8,0:0:0
128,100,53431,1,2,0:0:0
80,164,53768,1,2,0:0:0
88,244,54105,6,0,P|112:340,1,79.9999999999999,4|8,0:0|0:0,0:0:0
188,332,54779,2,0,P|168:244,1,79.9999999999999,0|8,0:0|0:0,0:0:0
240,216,55453,2,0,P|264:312,1,79.9999999999999,0|8,0:0|0:0,0:0:0
340,300,56127,2,0,P|320:212,1,79.9999999999999,0|8,0:0|0:0,0:0:0
384,172,56801,5,0,0:0:0
376,92,57138,2,0,P|304:56|240:96,1,160,8|8,0:0|0:0,0:0:0
308,136,58150,1,0,0:0:0
240,176,58487,2,0,P|160:176,2,79.9999999999999,8|2|2,0:0|0:0|0:0,0:0:0
240,256,59498,5,4,0:0:0
176,304,59835,2,0,P|96:300|60:228,1,160,8|8,0:0|0:0,0:0:0
140,232,60846,1,0,0:0:0
140,152,61183,2,0,P|140:48|192:40,1,160,8|8,0:0|0:0,0:0:0
208,112,62195,5,0,0:0:0
288,112,62532,2,0,P|452:112,1,160,8|8,0:0|0:0,0:0:0
480,184,63543,1,0,0:0:0
448,256,63880,1,8,0:0:0
380,300,64217,2,0,P|340:324|296:312,1,79.9999999999999,2|2,0:0|0:0,0:0:0
324,240,64891,5,4,0:0:0
328,160,65228,2,0,P|336:88|264:24,1,160,8|8,0:0|0:0,0:0:0
208,64,66240,1,0,0:0:0
136,28,66577,2,0,P|79:87|87:159,1,160,8|8,0:0|0:0,0:0:0
88,240,67588,5,0,0:0:0
136,304,67925,2,0,P|212:328|288:300,1,160,8|8,0:0|0:0,0:0:0
348,252,68936,2,0,P|420:200,1,79.9999999999999,0|8,0:0|0:0,0:0:0
380,132,69610,2,0,P|316:180,1,79.9999999999999,2|2,0:0|0:0,0:0:0
256,124,70284,5,4,0:0:0
196,180,70622,2,0,P|132:132,1,79.9999999999999,8|0,0:0|0:0,0:0:0
99,205,71296,2,0,P|164:252,1,79.9999999999999,8|0,0:0|0:0,0:0:0
184,328,71970,2,0,P|256:360|336:316,1,160,8|8,0:0|0:0,0:0:0
256,276,72981,5,0,0:0:0
256,196,73318,2,0,P|256:36,1,160,8|8,0:0|0:0,0:0:0
336,44,74329,1,0,0:0:0
412,68,74666,2,0,P|444:96|452:140,1,79.9999999999999,8|2,0:0|0:0,0:0:0
400,192,75341,1,2,0:0:0
456,248,75678,5,4,0:0:0
396,304,76015,2,0,P|336:328|272:252,1,160,8|8,0:0|0:0,0:0:0
256,192,77026,1,0,0:0:0
239,114,77363,2,0,P|176:56|116:80,1,160,0|8,0:0|0:0,0:0:0
56,136,78374,5,0,0:0:0
40,216,78711,2,0,P|40:268|40:268|20:288|20:288|40:304|40:304|40:358,1,160,8|8,0:0|0:0,0:0:0
120,348,79723,1,0,0:0:0
188,308,80060,1,8,0:0:0
240,244,80397,1,2,0:0:0
260,168,80734,1,2,0:0:0
264,88,81071,6,0,P|352:60,1,79.9999999999999,4|8,0:0|0:0,0:0:0
420,64,81745,2,0,P|496:88,2,79.9999999999999,0|8|0,0:0|0:0|0:0,0:0:0
384,136,82756,2,0,P|408:212|376:292,1,160,8|8,0:0|0:0,0:0:0
308,256,83768,5,0,0:0:0
256,316,84105,2,0,P|180:340|100:308,1,160,8|8,0:0|0:0,0:0:0
72,244,85116,2,0,P|28:164,1,79.9999999999999,0|8,0:0|0:0,0:0:0
88,116,85790,2,0,P|128:188,1,79.9999999999999,2|2,0:0|0:0,0:0:0
188,136,86464,6,0,P|188:76|256:48|256:48|324:76|324:140,1,240,4|8,0:0|0:0,0:0:0
404,132,87812,2,0,P|368:224|252:176,1,240,0|8,0:0|0:0,0:0:0
256,187,89161,6,0,P|144:225|108:133,1,240,0|8,0:0|0:0,0:0:0
144,60,90509,1,2,0:0:0
216,96,90846,1,8,0:0:0
296,96,91183,1,2,0:0:0
368,60,91520,1,8,0:0:0
408,128,91857,6,0,P|432:268|360:308,1,240,4|8,0:0|0:0,0:0:0
332,232,93206,2,0,P|324:176|280:168|280:168|256:132|232:168|232:168|188:176|181:235,1,240,0|8,0:0|0:0,0:0:0
148,307,94554,6,0,P|80:268|104:128,1,240,0|8,0:0|0:0,0:0:0
144,56,95902,2,0,P|224:96,1,79.9999999999999,2|8,0:0|0:0,0:0:0
296,91,96576,2,0,P|368:56,1,79.9999999999999,2|8,0:0|0:0,0:0:0
440,92,97251,6,0,P|484:176|428:304,1,240,4|8,0:0|0:0,0:0:0
372,248,98599,2,0,P|340:248|340:248|312:236|284:248|284:248|256:236|228:248|228:248|200:236|172:248|172:248|137:248,1,240,0|8,0:0|0:0,0:0:0
81,301,99947,6,0,P|28:176|72:92,1,240,0|8,0:0|0:0,0:0:0
136,44,101296,1,2,0:0:0
216,28,101633,1,8,0:0:0
296,28,101970,1,2,0:0:0
376,44,102307,1,8,0:0:0
435,97,102644,6,0,P|436:160|376:192|376:192|436:220|435:289,1,240,4|8,0:0|0:0,0:0:0
356,272,103992,2,0,P|256:340|256:340|152:272,1,240,0|8,0:0|0:0,0:0:0
76,289,105340,6,0,P|76:220|136:192|136:192|76:160|76:97,1,240,0|8,0:0|0:0,0:0:0
148,60,106689,2,0,P|188:48|232:64,1,79.9999999999999,2|8,0:0|0:0,0:0:0
264,128,107363,2,0,P|224:140|180:128,1,79.9999999999999,2|8,0:0|0:0,0:0:0
256,192,108037,12,2,110734,0:0:0
420,64,118824,6,0,P|452:188|368:256,1,240,4|2,0:0|0:0,0:0:0
336,184,120172,2,0,P|256:112|175:188,1,240,2|2,0:0|0:0,0:0:0
132,256,121520,6,0,P|57:190|89:66,1,240,4|2,0:0|0:0,0:0:0
156,112,122868,2,0,P|220:112|256:56|256:56|292:112|364:112,1,240,2|2,0:0|0:0,0:0:0
404,176,124217,6,0,P|460:216|408:280|408:280|352:244|292:279,1,240,4|2,0:0|0:0,0:0:0
216,280,125565,2,0,P|159:246|103:282|103:282|51:218|107:178,1,240,2|2,0:0|0:0,0:0:0
256,192,126913,12,4,129610,0:0:0
128,268,140396,6,8,P|256:348|384:264,2,320,2|2|2,0:0|0:0|0:0,0:3:0
200,224,143430,6,0,P|256:272|312:216,1,160,2|2,0:0|0:0,0:0:0
256,164,144441,1,2,0:0:0
216,96,144778,2,0,P|256:88|296:96,2,79.9999999999999,2|2|2,0:0|0:0|0:0,0:0:0
136,100,145790,6,8,P|101:72|49:84|49:136|89:172|89:216|125:244|125:292|89:320|40:290,2,320,0|2|2,0:0|0:0|0:0,0:3:0
188,160,148823,6,0,P|256:196|324:156,1,160,2|2,0:0|0:0,0:0:0
256,116,149835,1,2,0:0:0
296,48,150172,2,0,P|252:36|208:56,2,79.9999999999999,2|2|8,0:0|0:0|0:0,0:0:0
376,44,151183,6,0,P|456:44,1,79.9999999999999,4|8,0:0|0:0,0:0:0
476,120,151857,2,0,P|392:120,1,79.9999999999999,0|8,0:0|0:0,0:0:0
376,196,152531,1,0,0:0:0
340,268,152868,2,0,P|276:312|212:256,1,160,8|8,0:0|0:0,0:0:0
276,216,153880,6,0,P|280:160|264:136,1,79.9999999999999,4|8,0:0|0:0,0:0:0
192,112,154554,2,0,P|188:168|208:192,2,79.9999999999999,0|8|0,0:0|0:0|0:0,0:0:0
264,76,155565,2,0,P|204:32|128:64,1,160,8|8,0:0|0:0,0:0:0
80,124,156576,6,0,P|40:208,1,79.9999999999999,4|8,0:0|0:0,0:0:0
124,212,157250,2,0,P|84:296,1,79.9999999999999,0|8,0:0|0:0,0:0:0
160,324,157924,1,0,0:0:0
240,324,158261,2,0,P|288:324|312:300|312:300|336:324|388:323,1,160,8|8,0:0|0:0,0:0:0
444,264,159273,6,0,P|468:172,1,79.9999999999999,4|8,0:0|0:0,0:0:0
464,108,159947,2,0,P|440:16,2,79.9999999999999,0|8|0,0:0|0:0|0:0,0:0:0
392,148,160958,2,0,P|220:148,1,160,8|8,0:0|0:0,0:0:0
152,148,161969,5,4,0:0:0
84,188,162306,1,8,0:0:0
84,268,162643,1,0,0:0:0
156,304,162981,2,0,P|244:304,1,79.9999999999999,8|0,0:0|0:0,0:0:0
316,304,163655,2,0,P|368:276|384:172,1,160,8|8,0:0|0:0,0:0:0
368,104,164666,6,0,P|292:56,1,79.9999999999999,4|8,0:0|0:0,0:0:0
244,120,165340,2,0,P|324:172,1,79.9999999999999,0|8,0:0|0:0,0:0:0
256,224,166014,2,0,P|184:176,1,79.9999999999999,0|8,0:0|0:0,0:0:0
136,240,166688,2,0,P|216:292,1,79.9999999999999,0|8,0:0|0:0,0:0:0
280,308,167363,6,0,P|392:328|448:220,1,240,4|8,0:0|0:0,0:0:0
449,152,168711,2,0,P|392:56|280:76,1,240,4|8,0:0|0:0,0:0:0
200,92,170059,6,0,P|100:196|208:296,2,320,4|4|4,0:0|0:0|0:0,0:0:0
247,160,173093,6,0,P|255:236|195:300,1,160,8|8,0:0|0:0,0:0:0
244,364,174104,1,0,0:0:0
324,356,174441,2,0,P|372:296|459:293,1,160,8|8,0:0|0:0,0:0:0
488,220,175452,5,0,0:0:0
448,152,175789,2,0,P|369:145|321:85,1,160,8|8,0:0|0:0,0:0:0
240,88,176801,2,0,P|148:88,1,79.9999999999999,0|8,0:0|0:0,0:0:0
88,52,177475,2,0,P|76:84|100:136,1,79.9999999999999,2|2,0:0|0:0,0:0:0
112,204,178149,6,0,P|96:288|220:276,1,240,4|0,0:0|0:0,0:0:0
296,285,179497,2,0,P|416:288|400:204,1,240,0|8,0:0|0:0,0:0:0
328,169,180846,6,0,P|328:112|256:84|256:84|184:112|184:170,1,240,0|8,0:0|0:0,0:0:0
136,232,182194,1,0,0:0:0
160,308,182531,1,8,0:0:0
232,344,182868,1,2,0:0:0
312,344,183205,1,2,0:0:0
384,308,183542,6,0,P|440:248,1,79.9999999999999,4|8,0:0|0:0,0:0:0
364,220,184216,2,0,P|420:160,2,79.9999999999999,0|8|0,0:0|0:0|0:0,0:0:0
308,164,185228,2,0,P|248:116|176:144,1,160,8|8,0:0|0:0,0:0:0
236,196,186239,5,0,0:0:0
164,228,186576,2,0,P|224:276|296:248,1,160,8|8,0:0|0:0,0:0:0
360,296,187587,1,0,0:0:0
440,292,187924,1,8,0:0:0
468,216,188261,1,2,0:0:0
412,156,188598,1,2,0:0:0
412,76,188935,6,0,P|308:24|204:80,1,240,4|8,0:0|0:0,0:0:0
256,140,190284,2,0,P|320:224|256:324,1,240,0|8,0:0|0:0,0:0:0
180,292,191632,5,0,0:0:0
104,320,191969,2,0,P|84:244|108:156,1,160,8|8,0:0|0:0,0:0:0
124,88,192980,2,0,P|204:48,1,79.9999999999999,0|8,0:0|0:0,0:0:0
276,52,193655,2,0,P|347:87,1,79.9999999999999,2|2,0:0|0:0,0:0:0
420,120,194329,5,4,0:0:0
436,200,194666,2,0,P|440:296|392:308,1,160,8|8,0:0|0:0,0:0:0
316,308,195677,2,0,P|228:308,1,79.9999999999999,0|8,0:0|0:0,0:0:0
196,240,196351,2,0,P|100:240,2,79.9999999999999,0|8|0,0:0|0:0|0:0,0:0:0
232,168,197362,6,0,P|272:108|352:112,1,160,8|8,0:0|0:0,0:0:0
312,184,198374,1,0,0:0:0
380,228,198711,2,0,P|464:228,2,79.9999999999999,0|2|2,0:0|0:0|0:0,0:0:0
336,296,199722,6,0,P|272:372|192:288,1,240,4|8,0:0|0:0,0:0:0
264,256,201070,2,0,P|244:184|88:132,1,240,0|8,0:0|0:0,0:0:0
60,196,202419,5,0,0:0:0
88,272,202756,2,0,P|124:336|124:336|210:336,1,160,8|8,0:0|0:0,0:0:0
292,336,203767,2,0,P|376:336,1,79.9999999999999,0|8,0:0|0:0,0:0:0
440,296,204441,1,2,0:0:0
472,224,204778,1,2,0:0:0
438,150,205115,6,0,P|360:52|308:152|239:39,1,240,4|8,0:0|0:0,0:0:0
160,48,206463,2,0,P|216:140|344:180,1,240,0|8,0:0|0:0,0:0:0
352,260,207812,6,0,P|292:320|216:288,2,160
276,236,209497,1,8,0:0:0
212,192,209834,1,2,0:0:0
148,240,210171,1,2,0:0:0
84,188,210508,5,4,0:0:0
84,108,210845,2,0,P|120:72|232:68,1,160,8|8,0:0|0:0,0:0:0
292,104,211857,1,0,0:0:0
348,160,212194,2,0,P|384:196|388:308,1,160,0|8,0:0|0:0,0:0:0
256,192,213205,12,4,215902,0:0:0
