osu file format v12

[General]
AudioFilename: Feint - Vision Driver .mp3
AudioLeadIn: 2000
PreviewTime: 40000
Countdown: 0
SampleSet: Normal
StackLeniency: 0.5
Mode: 0
LetterboxInBreaks: 1

[Editor]
DistanceSpacing: 0.9
BeatDivisor: 4
GridSize: 4

[Metadata]
Title:Vision Driver
TitleUnicode:Vision Driver
Artist:Feint
ArtistUnicode:Feint
Creator:phaZ
Version:Overdrive
Source:
Tags:dnb Drum 'n' Bass Katty Pie
BeatmapID:165183
BeatmapSetID:51042

[Difficulty]
HPDrainRate:7
CircleSize:4
OverallDifficulty:8
ApproachRate:9
SliderMultiplier:1.9
SliderTickRate:1

[Events]
//Background and Video events
0,0,"Rainbow_Drip.png",0,0
//Break Periods
2,21947,31934
2,86666,91259
2,108239,118226
//Storyboard Layer 0 (Background)
//Storyboard Layer 1 (Fail)
//Storyboard Layer 2 (Pass)
//Storyboard Layer 3 (Foreground)
//Storyboard Sound Samples
//Background Colour Transformations
3,100,255,255,255

[TimingPoints]
175,337.076757995742,4,2,0,40,1,0
175,-133.333333333333,4,2,0,40,0,0
3545,-114.285714285714,4,2,0,55,0,0
6916,-100,4,2,0,70,0,0
8264,-100,4,2,0,85,0,0
19051,-100,4,2,0,50,0,0
21747,-100,4,2,0,40,0,0
32534,-113.636363636364,4,1,1,25,0,0
42562,-113.636363636364,4,1,1,15,0,0
42662,-113.636363636364,4,1,1,20,0,0
42762,-113.636363636364,4,1,1,25,0,0
42815,-50,4,1,1,25,0,0
43320,-83.3333333333333,4,1,1,33,0,1
76186,-83.3333333333333,4,2,0,40,0,0
78039,-83.3333333333333,4,1,1,33,0,0
79557,-83.3333333333333,4,1,1,35,0,1
79893,-83.3333333333333,4,1,1,50,0,1
80231,-83.3333333333333,4,1,1,60,0,1
80568,-83.3333333333333,4,1,1,35,0,1
80904,-83.3333333333333,4,1,1,33,0,0
81747,-83.3333333333333,4,2,0,40,0,0
83601,-83.3333333333333,4,2,0,85,0,0
83938,-83.3333333333333,4,1,1,33,0,0
84276,-83.3333333333333,4,1,1,33,0,1
84613,-83.3333333333333,4,1,1,49,0,1
84950,-83.3333333333333,4,1,1,60,0,1
85623,-83.3333333333333,4,1,1,66,0,1
85792,-83.3333333333333,4,1,1,30,0,0
86382,-83.3333333333333,4,2,0,65,0,0
91860,-125,4,2,0,50,0,0
93882,-90.9090909090909,4,2,0,50,0,0
94219,-105.263157894737,4,2,0,50,0,0
94557,-125,4,2,0,50,0,0
101298,-125,4,2,0,33,0,0
101972,-83.3333333333333,4,2,0,50,0,0
102309,-125,4,2,0,50,0,0
104668,-83.3333333333333,4,2,0,50,0,0
118826,-200,4,2,0,25,0,0
124219,-200,4,2,0,15,0,0
126916,-200,4,2,0,65,0,0
128180,-200,4,2,0,15,0,0
128686,-200,4,2,0,25,0,0
129360,-200,4,2,0,35,0,0
129528,-200,4,2,0,65,0,0
129571,-133.333333333333,4,2,0,35,0,0
137365,-100,4,2,0,35,0,0
140399,-100,4,1,1,20,0,0
145455,-100,4,1,1,15,0,0
148658,-100,4,1,1,10,0,0
150849,-100,4,1,1,30,0,0
167027,-100,4,1,1,20,0,0
169387,-100,4,1,1,30,0,0
171409,-50,4,1,1,20,0,0
171747,-50,4,1,1,24,0,0
172084,-50,4,1,1,28,0,0
172168,-50,4,1,1,26,0,0
172252,-50,4,1,1,24,0,0
172336,-50,4,1,1,22,0,0
172421,-50,4,1,1,20,0,0
172505,-50,4,1,1,18,0,0
172589,-50,4,1,1,16,0,0
172674,-50,4,1,1,14,0,0
172758,-83.3333333333333,4,2,0,65,0,1
173095,-83.3333333333333,4,1,1,45,0,1
177814,-83.3333333333333,4,1,1,25,0,1
178151,-83.3333333333333,4,1,1,45,0,1
183207,-83.3333333333333,4,1,1,25,0,1
183544,-83.3333333333333,4,1,1,45,0,1
188600,-83.3333333333333,4,1,1,25,0,1
188937,-83.3333333333333,4,1,1,45,0,1
193994,-83.3333333333333,4,1,1,25,0,1
194331,-83.3333333333333,4,1,1,45,0,1
199387,-83.3333333333333,4,1,1,25,0,1
199724,-83.3333333333333,4,1,1,45,0,0
204780,-83.3333333333333,4,1,1,25,0,0
205117,-83.3333333333333,4,1,1,45,0,0
205623,-83.3333333333333,4,2,0,45,0,0
207814,-83.3333333333333,4,1,1,45,0,0
209162,-83.3333333333333,4,1,1,30,0,0
210005,-83.3333333333333,4,2,0,45,0,0
210173,-83.3333333333333,4,1,1,45,0,0
211185,-83.3333333333333,4,2,0,45,0,0
213207,-83.3333333333333,4,2,0,85,0,0
213291,-83.3333333333333,4,1,1,40,0,0
214555,-83.3333333333333,4,1,1,25,0,0
214640,-83.3333333333333,4,1,1,40,0,0
214724,-83.3333333333333,4,1,1,25,0,0
214808,-83.3333333333333,4,1,1,40,0,0
214892,-83.3333333333333,4,1,1,25,0,0
214977,-83.3333333333333,4,1,1,40,0,0
215061,-83.3333333333333,4,1,1,25,0,0
215145,-83.3333333333333,4,1,1,40,0,0
215229,-83.3333333333333,4,1,1,25,0,0
215314,-83.3333333333333,4,1,1,40,0,0
215398,-83.3333333333333,4,1,1,25,0,0
215482,-83.3333333333333,4,1,1,40,0,0
215567,-83.3333333333333,4,2,0,45,0,0
215819,-83.3333333333333,4,2,0,45,0,1
215988,-83.3333333333333,4,2,0,45,0,0

[Colours]
Combo1 : 176,196,196
Combo2 : 206,6,6
Combo3 : 210,143,250
Combo4 : 0,213,213
Combo5 : 18,194,18
Combo6 : 227,138,4

[HitObjects]
57,331,175,6,0,B|73:283|121:251,1,71.2499978765846,0|0,0:0|0:0,0:0:0:0:
96,272,512,1,2,0:0:0:0:
480,176,849,1,0,0:0:0:0:
455,53,1017,2,0,B|439:101|391:133,2,71.2499978765846,0|2|0,0:0|0:0|0:0,0:0:0:0:
416,112,1523,5,0,0:0:0:0:
240,268,1691,2,0,B|282:259|310:207,1,71.2499978765846,0|2,0:0|0:0,0:0:0:0:
269,113,2028,2,0,B|227:122|199:174,1,71.2499978765846,0|0,0:0|0:0,0:0:0:0:
312,224,2365,1,0,0:0:0:0:
336,80,2534,1,2,0:0:0:0:
380,192,2703,2,0,B|424:176|448:140,1,71.2499978765846
448,280,3040,5,0,0:0:0:0:
448,280,3208,2,0,B|410:296|390:320,1,71.2499978765846,2|0,0:0|0:0,0:0:0:0:
160,336,3545,1,0,0:0:0:0:
320,336,3714,1,0,0:0:0:0:
160,336,3882,1,2,0:0:0:0:
24,192,4051,6,0,B|24:248|56:304,2,83.1249962840231
256,60,4556,1,2,0:0:0:0:
256,196,4725,1,0,0:0:0:0:
256,328,4894,1,0,0:0:0:0:
380,136,5062,1,0,0:0:0:0:
132,136,5231,1,2,0:0:0:0:
256,196,5399,1,0,0:0:0:0:
388,268,5568,6,0,B|408:304|408:304|416:376,2,83.1249962840231,0|0|2,0:0|0:0|0:0,0:0:0:0:
276,144,6073,1,0,0:0:0:0:
272,260,6242,1,0,0:0:0:0:
396,144,6410,1,0,0:0:0:0:
234,95,6579,1,2,0:0:0:0:
240,260,6747,1,0,0:0:0:0:
148,320,6916,5,0,0:0:0:0:
140,328,7000,1,0,0:0:0:0:
132,336,7085,2,0,B|92:372|36:364,1,95,0|2,0:0|0:0,0:0:0:0:
44,260,7422,1,0,0:0:0:0:
192,272,7590,1,0,0:0:0:0:
64,176,7759,1,0,0:0:0:0:
192,160,7927,1,2,0:0:0:0:
316,136,8096,5,0,0:0:0:0:
320,144,8180,1,0,0:0:0:0:
324,152,8264,2,0,B|345:198|392:236,1,95
256,324,8601,1,2,0:0:0:0:
256,192,8770,1,0,0:0:0:0:
196,132,8938,1,0,0:0:0:0:
192,144,9023,1,0,0:0:0:0:
188,152,9107,2,0,B|166:198|120:236,2,95,0|2|0,0:0|0:0|0:0,0:0:0:0:
324,44,9613,6,0,B|348:88|384:120,1,95
188,44,9950,2,0,B|164:88|128:120,1,95,2|0,0:0|0:0,0:0:0:0:
344,180,10287,2,0,B|368:224|412:252,1,95
168,180,10624,2,0,B|144:224|100:252,1,95,2|0,0:0|0:0,0:0:0:0:
332,336,10961,6,0,B|356:292|400:264,2,95,0|0|2,0:0|0:0|0:0,0:0:0:0:
332,336,11467,1,0,0:0:0:0:
180,336,11635,2,0,B|156:292|112:264,2,95,0|0|2,0:0|0:0|0:0,0:0:0:0:
180,336,12141,1,0,0:0:0:0:
71,331,12309,1,0,0:0:0:0:
188,236,12478,1,0,0:0:0:0:
324,148,12646,1,2,0:0:0:0:
440,52,12815,2,0,B|484:76|499:123,2,95
332,128,13320,1,2,0:0:0:0:
408,236,13489,1,0,0:0:0:0:
512,160,13658,5,0,0:0:0:0:
400,100,13826,1,0,0:0:0:0:
348,256,13995,2,0,B|332:300|280:344,1,95,2|0,0:0|0:0,0:0:0:0:
164,256,14332,1,0,0:0:0:0:
164,256,14416,1,0,0:0:0:0:
164,256,14500,2,0,B|180:300|232:344,2,95,0|2|0,0:0|0:0|0:0,0:0:0:0:
320,136,15006,5,0,0:0:0:0:
192,136,15174,1,0,0:0:0:0:
256,256,15343,1,2,0:0:0:0:
320,136,15511,1,0,0:0:0:0:
236,68,15680,2,0,B|184:152,1,95
276,316,16017,2,0,B|328:232,2,95,2|0|0,0:0|0:0|0:0,0:0:0:0:
120,356,16523,5,0,0:0:0:0:
80,200,16691,1,2,0:0:0:0:
236,160,16860,2,0,B|280:144|301:92,1,95
316,220,17197,2,0,B|272:236|251:288,1,95,0|2,0:0|0:0,0:0:0:0:
185,148,17534,5,0,0:0:0:0:
236,68,17702,1,0,0:0:0:0:
344,224,17871,5,0,0:0:0:0:
268,144,18040,1,2,0:0:0:0:
156,296,18208,5,0,0:0:0:0:
232,220,18377,1,0,0:0:0:0:
344,372,18545,5,0,0:0:0:0:
268,296,18714,1,2,0:0:0:0:
174,349,18882,5,0,0:0:0:0:
256,192,19051,12,0,21747,0:0:0:0:
88,144,32534,6,0,B|91:91|127:58,2,83.6000007972717
488,208,33208,1,0,0:0:0:0:
424,336,33377,2,0,B|372:336|336:304,2,83.6000007972717
208,304,33882,2,0,B|178:260|183:212,2,83.6000007972717
460,80,34556,5,0,0:0:0:0:
396,172,34725,2,0,B|352:144|324:88,2,83.6000007972717
173,255,35399,2,0,B|171:202|218:153,2,83.6000007972717
338,255,36073,2,0,B|339:202|292:154,2,83.6000007972717
200,284,36579,1,0,0:0:0:0:
116,172,36747,2,0,B|160:144|188:88,2,83.6000007972717
63,288,37253,5,0,0:0:0:0:
116,172,37421,1,0,0:0:0:0:
63,288,37590,1,0,0:0:0:0:
160,368,37759,1,0,0:0:0:0:
269,301,37927,1,0,0:0:0:0:
242,179,38096,1,0,0:0:0:0:
269,301,38264,5,0,0:0:0:0:
400,56,38601,1,0,0:0:0:0:
512,300,38938,1,0,0:0:0:0:
248,252,39275,1,0,0:0:0:0:
432,32,39612,1,0,0:0:0:0:
468,324,39950,1,0,0:0:0:0:
328,256,40118,1,0,0:0:0:0:
184,324,40287,1,0,0:0:0:0:
43,255,40455,1,0,0:0:0:0:
64,120,40624,6,0,B|88:84|88:12,1,83.6000007972717
240,192,40961,2,0,B|253:150|288:125,1,83.6000007972717
224,0,41298,1,0,0:0:0:0:
300,200,41466,21,4,0:0:0:0:
292,236,41551,1,0,0:0:0:0:
270,268,41635,1,4,0:0:0:0:
261,305,41719,1,0,0:0:0:0:
268,340,41803,1,0,0:0:0:0:
296,360,41888,1,0,0:0:0:0:
328,364,41972,1,4,0:0:0:0:
364,344,42056,1,0,0:0:0:0:
376,312,42141,53,4,0:0:0:0:
360,256,42225,1,0,0:0:0:0:
368,200,42309,1,4,0:0:0:0:
416,168,42393,1,0,0:0:0:0:
464,176,42478,1,0,0:0:0:0:
496,216,42562,1,2,0:0:0:0:
496,272,42646,1,6,0:0:0:0:
480,328,42730,1,2,0:0:0:0:
444,364,42815,6,2,B|384:304|308:344,1,142.5,14|0,0:0|0:0,0:0:0:0:
304,336,42983,2,2,B|328:200|248:136|132:144,1,285,14|0,0:0|0:0,0:0:0:0:
124,152,43320,6,0,B|140:215|200:240,2,114.000002717972,4|4|8,0:0|0:0|0:0,0:0:0:0:
168,24,43826,1,0,0:0:0:0:
300,0,43994,1,0,0:0:0:0:
385,103,44163,1,0,0:0:0:0:
338,228,44332,1,12,0:0:0:0:
206,249,44500,6,0,B|188:312|136:340,1,114.000002717972,0|0,0:0|0:0,0:0:0:0:
120,236,44837,1,0,0:0:0:0:
176,112,45006,1,8,0:0:0:0:
306,135,45174,2,0,B|324:72|376:44,1,114.000002717972
392,148,45511,1,0,0:0:0:0:
336,272,45680,1,8,0:0:0:0:
456,320,45848,1,0,0:0:0:0:
512,200,46017,6,0,B|464:176|440:112,2,114.000002717972,4|4|12,0:0|0:0|0:0,0:0:0:0:
256,272,46523,2,0,B|285:227|274:159,1,114.000002717972
200,64,46860,1,0,0:0:0:0:
144,168,47028,1,8,0:0:0:0:
72,72,47197,2,0,B|24:97|0:160,1,113.999996520996
72,312,47534,2,0,B|24:287|0:224,2,113.999996520996,0|8|0,0:0|0:0|0:0,0:0:0:0:
216,304,48039,1,0,0:0:0:0:
120,192,48208,1,0,0:0:0:0:
200,288,48376,1,10,0:0:0:0:
80,144,48545,1,2,0:0:0:0:
200,112,48714,6,4,B|236:128|240:192|280:208,1,113.999996520996
352,280,49051,1,8,0:0:0:0:
496,112,49219,1,0,0:0:0:0:
312,192,49388,1,0,0:0:0:0:
432,200,49556,1,0,0:0:0:0:
448,16,49725,1,8,0:0:0:0:
339,4,49893,1,0,0:0:0:0:
268,93,50062,6,0,B|224:136|224:136|224:208,2,114.000002717972,0|0|8,0:0|0:0|0:0,0:0:0:0:
256,312,50567,1,0,0:0:0:0:
376,288,50736,2,0,B|424:248|424:248|424:176,2,114.000002717972,0|0|8,0:0|0:0|0:0,0:0:0:0:
400,56,51242,1,0,0:0:0:0:
208,56,51410,5,4,0:0:0:0:
208,56,51494,1,0,0:0:0:0:
208,56,51579,1,4,0:0:0:0:
104,96,51747,2,0,B|40:112|24:168,1,114.000002717972,8|0,0:0|0:0,0:0:0:0:
193,208,52084,1,0,0:0:0:0:
232,40,52253,1,0,0:0:0:0:
64,1,52421,2,0,B|120:32|120:120,1,114.000002717972,8|0,0:0|0:0,0:0:0:0:
193,208,52758,5,0,0:0:0:0:
319,176,52927,1,0,0:0:0:0:
393,288,53096,2,0,B|392:352|448:383,1,114.000002717972,8|0,0:0|0:0,0:0:0:0:
272,328,53433,2,0,B|273:264|217:233,1,114.000002717972
296,64,53770,1,10,0:0:0:0:
408,208,53938,1,2,0:0:0:0:
218,234,54107,5,4,0:0:0:0:
218,234,54191,1,0,0:0:0:0:
218,234,54275,2,0,B|170:242|138:274|150:351,2,114.000002717972,4|8|0,0:0|0:0|0:0,0:0:0:0:
216,96,54781,2,0,B|208:144|176:176|98:163,2,114.000002717972,0|0|8,0:0|0:0|0:0,0:0:0:0:
320,256,55287,1,0,0:0:0:0:
324,264,55371,1,0,0:0:0:0:
328,272,55455,1,0,0:0:0:0:
176,344,55624,1,0,0:0:0:0:
96,192,55792,1,8,0:0:0:0:
256,112,55961,5,0,0:0:0:0:
245,290,56129,1,0,0:0:0:0:
96,192,56298,1,0,0:0:0:0:
52,368,56466,1,8,0:0:0:0:
136,220,56635,1,0,0:0:0:0:
32,84,56803,6,0,B|17:133|17:133|33:193,1,114.000002717972
220,216,57140,2,0,B|238:158|238:158|218:105,1,114.000002717972,0|0,0:0|0:0,0:0:0:0:
152,164,57478,1,0,0:0:0:0:
240,320,57646,2,0,B|271:374|334:388,1,114.000002717972,0|8,0:0|0:0,0:0:0:0:
392,232,57983,1,0,0:0:0:0:
220,216,58152,5,0,0:0:0:0:
352,328,58320,1,0,0:0:0:0:
311,159,58489,1,8,0:0:0:0:
140,132,58657,2,0,B|108:76|128:15,2,114.000002717972
95,344,59163,1,2,0:0:0:0:
48,192,59331,1,10,0:0:0:0:
240,336,59500,5,4,0:0:0:0:
256,344,59584,1,0,0:0:0:0:
272,344,59669,1,4,0:0:0:0:
432,320,59837,2,0,B|496:304|496:304|544:216,1,114.000002717972,8|0,0:0|0:0,0:0:0:0:
304,104,60174,2,0,B|240:120|240:120|192:208,1,114.000002717972
416,248,60511,2,0,B|434:184|434:184|381:99,2,114.000002717972,8|0|0,0:0|0:0|0:0,0:0:0:0:
232,352,61017,1,0,0:0:0:0:
128,168,61185,1,0,0:0:0:0:
313,65,61354,2,0,B|345:110|408:124,1,113.999996520996
262,152,61691,2,0,B|253:205|287:260,2,113.999996520996,0|8|0,0:0|0:0|0:0,0:0:0:0:
92,76,62197,5,4,0:0:0:0:
112,264,62365,1,4,0:0:0:0:
236,76,62534,1,8,0:0:0:0:
256,264,62702,1,0,0:0:0:0:
328,376,62871,2,0,B|384:384|448:368,1,114.000002717972
184,376,63208,2,0,B|128:384|64:368,2,114.000002717972,8|0|0,0:0|0:0|0:0,0:0:0:0:
432,272,63713,2,0,B|374:257|318:265,2,114.000002717972,0|8|0,0:0|0:0|0:0,0:0:0:0:
80,272,64219,2,0,B|138:257|194:265,1,114.000002717972
80,32,64556,1,10,0:0:0:0:
256,112,64725,1,2,0:0:0:0:
160,272,64893,6,4,B|144:328|160:384|176:392,1,114.000002717972
352,168,65230,2,0,B|368:112|352:56|336:48,1,114.000002717972,8|0,0:0|0:0,0:0:0:0:
352,168,65567,1,0,0:0:0:0:
120,208,65736,1,0,0:0:0:0:
120,208,65904,2,0,B|160:249|216:264|231:254,1,114.000002717972,8|0,0:0|0:0,0:0:0:0:
328,96,66242,2,0,B|272:110|231:151|232:169,1,114.000002717972
320,336,66579,2,0,B|335:280|320:224|304:216,2,114.000002717972,8|0|0,0:0|0:0|0:0,0:0:0:0:
176,344,67084,5,0,0:0:0:0:
400,336,67253,1,8,0:0:0:0:
472,152,67421,1,0,0:0:0:0:
328,48,67590,6,4,B|320:120|280:168,1,114.000002717972,4|4,0:0|0:0,0:0:0:0:
120,184,67927,1,8,0:0:0:0:
240,312,68095,1,0,0:0:0:0:
256,120,68264,1,0,0:0:0:0:
128,256,68433,1,0,0:0:0:0:
320,216,68601,1,8,0:0:0:0:
141,142,68770,1,0,0:0:0:0:
160,320,68938,6,0,B|192:368|256:376,1,114.000002717972
320,216,69275,1,8,0:0:0:0:
312,48,69444,2,0,B|250:28|201:58,2,114.000002717972
424,224,69949,5,10,0:0:0:0:
208,336,70118,1,2,0:0:0:0:
104,128,70286,5,4,0:0:0:0:
108,144,70371,1,0,0:0:0:0:
112,160,70455,1,4,0:0:0:0:
72,324,70624,2,0,B|120:352|188:328,1,114.000002717972,8|0,0:0|0:0,0:0:0:0:
272,264,70961,2,0,B|307:221|296:156,1,114.000002717972
344,80,71298,2,0,B|294:18|201:43,1,114.000002717972,8|0,0:0|0:0,0:0:0:0:
368,208,71635,2,0,B|417:269|510:244,1,114.000002717972
184,336,71972,2,0,B|134:274|41:299,2,114.000002717972,8|0|0,0:0|0:0|0:0,0:0:0:0:
128,192,72477,1,0,0:0:0:0:
212,120,72646,2,0,B|208:128|224:200|284:216|296:220,1,114.000002717972,8|0,0:0|0:0,0:0:0:0:
296,320,72983,6,4,B|200:248,1,114.000002717972,4|4,0:0|0:0,0:0:0:0:
192,96,73320,1,8,0:0:0:0:
321,7,73489,1,0,0:0:0:0:
461,75,73657,1,0,0:0:0:0:
472,231,73826,1,0,0:0:0:0:
343,318,73994,1,8,0:0:0:0:
176,288,74163,6,0,B|140:270|120:256|120:256|96:208|96:176,1,114.000002717972
320,8,74500,1,0,0:0:0:0:
407,270,74668,2,0,B|367:269|343:265|343:265|301:232|288:203,2,114.000002717972,8|0|0,0:0|0:0|0:0,0:0:0:0:
480,144,75174,1,0,0:0:0:0:
336,144,75343,1,10,0:0:0:0:
312,336,75511,1,2,0:0:0:0:
120,312,75680,5,4,0:0:0:0:
144,120,75848,1,4,0:0:0:0:
304,224,76017,1,8,0:0:0:0:
120,312,76185,1,0,0:0:0:0:
144,120,76354,2,4,B|192:80|192:80|248:72,1,114.000002717972,4|0,0:0|0:0,0:0:0:0:
220,264,76691,2,0,B|172:304|172:304|116:312,1,114.000002717972,4|4,0:0|0:0,0:0:0:0:
128,72,77028,2,0,B|186:93|186:93|221:138,1,114.000002717972,0|0,0:0|0:0,0:0:0:0:
384,312,77365,2,0,B|325:290|325:290|290:245,2,114.000002717972,4|4|4,0:0|0:0|0:0,0:0:0:0:
464,192,77871,6,4,B|336:192,1,114.000002717972,4|8,0:0|0:1,0:0:0:0:
160,192,78208,1,0,0:0:0:0:
344,88,78376,1,4,0:0:0:0:
168,296,78545,2,0,B|104:296|72:352,1,114.000002717972,0|8,0:0|0:0,0:0:0:0:
48,192,78882,1,0,0:0:0:0:
168,88,79050,2,0,B|104:88|73:34,2,114.000002717972,0|0|8,0:0|0:0|0:0,0:0:0:0:
266,102,79556,5,2,0:0:0:0:
306,322,79725,1,2,0:0:0:0:
416,102,79893,1,2,0:0:0:0:
456,322,80062,1,10,0:0:0:0:
266,102,80230,1,2,0:0:0:0:
306,322,80399,1,2,0:0:0:0:
416,102,80567,1,2,0:0:0:0:
168,112,80736,1,10,0:0:0:0:
304,184,80904,1,0,0:0:0:0:
424,176,81073,6,4,B|401:229|366:274,1,114.000002717972
192,200,81410,2,0,B|214:146|249:101,1,114.000002717972,8|4,0:0|0:2,0:0:0:0:
88,136,81747,5,4,0:0:0:0:
272,264,81916,1,0,0:0:0:0:
120,296,82084,2,0,B|142:242|177:197,1,114.000002717972,4|0,0:0|0:0,0:0:0:0:
392,88,82421,2,0,B|370:142|335:187,2,114.000002717972,4|0|4,0:0|0:0|0:0,0:0:0:0:
392,88,82927,1,0,0:0:0:0:
120,88,83095,2,0,B|142:142|177:187,1,114.000002717972,4|0,0:0|0:0,0:0:0:0:
40,144,83432,2,0,B|40:202|55:257,1,114.000002717972,12|0,0:0|0:0,0:0:0:0:
296,256,83770,5,4,0:0:0:0:
216,144,83938,1,0,0:0:0:0:
208,304,84107,1,8,0:0:0:0:
294,86,84275,2,2,B|392:144,1,114.000002717972
120,136,84612,2,2,B|72:239,1,114.000002717972,2|10,0:0|0:0,0:0:0:0:
303,42,84949,2,2,B|403:101,1,114.000002717972
92,100,85286,2,2,B|43:206,1,114.000002717972,2|10,0:0|0:0,0:0:0:0:
304,360,85623,1,6,0:0:0:0:
256,192,85708,12,4,86466,0:0:0:0:
160,152,91859,6,2,B|152:208|121:250,1,76,6|2,0:0|0:0,0:0:0:0:
80,72,92196,2,2,B|96:126|86:177,1,76
89,146,92534,1,0,0:0:0:0:
422,146,92871,1,2,0:0:0:0:
256,232,93208,6,0,B|256:144,2,76,0|0|2,0:0|0:0|0:0,0:0:0:0:
352,336,93713,1,0,0:0:0:0:
160,336,93882,2,0,B|127:300|121:241,1,104.500003189087
121,143,94219,2,0,B|127:88|164:40,2,90.2499975900651,2|0|0,0:0|0:0|0:0,0:0:0:0:
264,144,94725,1,0,0:0:0:0:
192,32,94893,5,2,0:0:0:0:
192,132,95062,1,0,0:0:0:0:
192,232,95230,2,0,B|201:278|201:278|237:328,1,76
408,232,95567,2,0,B|398:278|398:278|362:328,1,76,2|0,0:0|0:0,0:0:0:0:
296,178,95904,5,0,0:0:0:0:
174,69,96073,1,0,0:0:0:0:
141,229,96241,1,2,0:0:0:0:
254,104,96410,1,0,0:0:0:0:
130,145,96578,1,0,0:0:0:0:
228,233,96747,1,0,0:0:0:0:
204,160,96916,1,2,0:0:0:0:
320,152,97084,5,0,0:0:0:0:
244,260,97253,2,0,B|228:324|244:364,1,76,0|0,0:0|0:0,0:0:0:0:
105,333,97590,1,0,0:0:0:0:
32,224,97758,2,0,B|48:160|32:120,2,76
32,224,98264,1,2,0:0:0:0:
380,108,98601,6,0,B|360:96|348:80|348:80|320:84|288:68,1,76
132,276,98938,2,0,B|152:288|164:304|164:304|192:300|224:316,1,76,2|0,0:0|0:0,0:0:0:0:
381,217,99275,2,0,B|376:224|387:250|387:250|376:265|368:288,1,76,0|0,0:0|0:0,0:0:0:0:
132,162,99612,2,0,B|135:157|125:131|125:131|135:115|142:93,1,76,2|0,0:0|0:0,0:0:0:0:
336,40,99949,5,0,0:0:0:0:
288,136,100118,1,0,0:0:0:0:
288,248,100286,1,2,0:0:0:0:
336,344,100455,1,0,0:0:0:0:
396,256,100623,2,0,B|362:278|324:280,1,76
116,280,100960,2,0,B|150:258|188:256,1,76
373,302,101298,5,2,0:0:0:0:
369,288,101382,1,2,0:0:0:0:
366,276,101466,1,2,0:0:0:0:
363,262,101550,1,2,0:0:0:0:
359,249,101635,1,2,0:0:0:0:
345,244,101719,1,2,0:0:0:0:
333,240,101803,1,2,0:0:0:0:
322,236,101887,1,2,0:0:0:0:
311,234,101972,6,6,B|256:256|256:256|204:232,1,114.000002717972,2|0,0:0|0:0,0:0:0:0:
220,328,102309,2,2,B|256:340|256:340|304:324,1,76,6|2,0:0|0:0,0:0:0:0:
188,128,102646,6,0,B|152:116|152:116|104:132,1,76,0|0,0:0|0:0,0:0:0:0:
224,184,102983,1,2,0:0:0:0:
288,200,103151,1,0,0:0:0:0:
175,251,103320,1,0,0:0:0:0:
337,133,103489,1,0,0:0:0:0:
359,332,103657,1,2,0:0:0:0:
208,304,103826,6,0,B|160:296|160:296|120:256,2,76
316,196,104331,1,2,0:0:0:0:
209,88,104500,1,0,0:0:0:0:
104,196,104668,2,0,B|69:249|4:252,1,113.999996520996
174,329,105005,1,0,0:0:0:0:
322,224,105174,1,0,0:0:0:0:
306,44,105342,1,0,0:0:0:0:
256,192,105427,12,4,108039,0:0:0:0:
256,149,118826,5,0,0:0:0:0:
256,155,119163,1,2,0:0:0:0:
256,161,119500,1,0,0:0:0:0:
256,168,119837,1,2,0:0:0:0:
176,232,120174,5,0,0:0:0:0:
178,232,120511,1,2,0:0:0:0:
336,232,120848,1,0,0:0:0:0:
334,232,121185,1,2,0:0:0:0:
256,112,121522,5,0,0:0:0:0:
256,271,121859,1,2,0:0:0:0:
346,182,122196,1,0,0:0:0:0:
166,202,122533,1,2,0:0:0:0:
235,326,122870,5,0,0:0:0:0:
275,57,123208,1,2,0:0:0:0:
370,224,123545,1,0,0:0:0:0:
140,160,123882,1,2,0:0:0:0:
332,96,124219,6,0,B|292:64|276:8,1,95,0|2,0:0|0:0,0:0:0:0:
220,196,124893,2,0,B|260:228|272:273,1,95,0|2,0:0|0:0,0:0:0:0:
232,364,125567,2,0,B|192:332|179:286,1,95,0|2,0:0|0:0,0:0:0:0:
244,112,126241,2,0,B|284:144|296:189,1,95,0|2,0:0|0:0,0:0:0:0:
256,192,127000,12,4,129528,0:0:0:0:
312,116,129612,2,0,B|352:128|370:177,1,71.2500027179719,2|0,0:0|0:0,0:0:0:0:
404,224,129949,1,0,0:0:0:0:
404,296,130118,2,0,B|400:336|415:364,2,71.2500027179719,0|2|0,0:0|0:0|0:0,0:0:0:0:
324,252,130623,1,0,0:0:0:0:
325,344,130792,1,0,0:0:0:0:
324,252,130960,6,2,B|290:280|251:269,1,71.2500027179719,2|0,0:0|0:0,0:0:0:0:
196,240,131297,2,2,B|169:211|179:173,1,71.2500027179719,0|0,0:0|0:0,0:0:0:0:
216,108,131634,1,2,0:0:0:0:
124,124,131803,1,0,0:0:0:0:
216,108,131972,1,0,0:0:0:0:
108,108,132140,1,0,0:0:0:0:
56,192,132309,6,0,B|53:237|86:258,2,71.2500027179719,2|0|0,0:0|0:0|0:0,0:0:0:0:
154,192,132814,1,0,0:0:0:0:
252,192,132983,2,0,B|254:145|221:125,2,71.2500027179719,2|0|0,0:0|0:0|0:0,0:0:0:0:
194,287,133488,1,0,0:0:0:0:
154,192,133657,1,2,0:0:0:0:
262,263,133825,1,0,0:0:0:0:
334,154,133994,1,0,0:0:0:0:
225,83,134163,1,0,0:0:0:0:
256,192,134331,5,2,0:0:0:0:
360,176,134500,1,0,0:0:0:0:
296,88,134668,2,0,B|258:65|230:18,1,71.2500027179719
236,140,135005,6,0,B|250:175|250:175|252:209,1,71.2500027179719,6|0,0:0|0:0,0:0:0:0:
185,260,135342,2,0,B|149:244|149:244|124:222,2,71.2500027179719,0|0|2,0:0|0:0|0:0,0:0:0:0:
123,219,135848,1,0,0:0:0:0:
194,260,136016,1,0,0:0:0:0:
63,273,136185,1,0,0:0:0:0:
177,339,136354,1,2,0:0:0:0:
96,348,136522,1,0,0:0:0:0:
248,328,136691,5,0,0:0:0:0:
96,348,136859,1,0,0:0:0:0:
168,232,137028,1,2,0:0:0:0:
93,345,137196,1,0,0:0:0:0:
61,178,137365,2,0,B|63:274,1,95
61,103,137702,2,0,B|61:62|59:2,1,95,2|0,0:0|0:0,0:0:0:0:
155,38,138039,2,0,B|155:82|155:138,1,95,0|0,0:0|0:0,0:0:0:0:
155,246,138376,2,0,B|155:194|155:146,1,95,2|0,0:0|0:0,0:0:0:0:
240,144,138713,1,0,0:0:0:0:
352,160,138882,1,0,0:0:0:0:
283,249,139050,6,0,B|240:272|192:256,2,95,2|0|0,0:0|0:0|0:0,0:0:0:0:
283,134,139556,2,0,B|240:112|192:128,2,95,0|2|0,0:0|0:0|0:0,0:0:0:0:
160,192,140061,2,0,B|104:192|56:192,1,95
256,192,140398,6,0,B|204:192|156:192,1,95,4|0,0:0|0:0,0:0:0:0:
309,300,140736,1,0,0:0:0:0:
370,232,140904,1,0,0:0:0:0:
370,150,141073,1,0,0:0:0:0:
309,82,141241,1,0,0:0:0:0:
203,82,141410,2,0,B|160:52|148:8,1,95
236,172,141747,6,0,B|279:142|291:98,1,95
204,82,142084,2,0,B|161:112|149:156,1,95
304,204,142421,2,0,B|342:171|352:124,1,95
208,180,142758,2,0,B|169:212|159:259,1,95
160,96,143095,5,0,0:0:0:0:
256,184,143264,2,0,B|256:280,2,95
314,286,143769,1,0,0:0:0:0:
195,286,143938,1,0,0:0:0:0:
195,167,144106,1,0,0:0:0:0:
314,167,144275,1,0,0:0:0:0:
368,64,144443,6,0,B|320:72|291:116,1,95
220,116,144780,2,0,B|192:72|144:64,1,95,0|0,0:0|0:0,0:0:0:0:
168,224,145118,1,0,0:0:0:0:
256,332,145286,2,0,B|256:236,2,95
186,259,145792,5,0,0:0:0:0:
327,259,145960,1,0,0:0:0:0:
197,186,146129,1,0,0:0:0:0:
315,185,146297,1,0,0:0:0:0:
313,50,146466,2,0,B|292:96|266:136,1,95
198,50,146803,2,0,B|220:96|245:136,1,95
128,168,147140,2,0,B|149:213|174:253,1,95
240,128,147477,1,0,0:0:0:0:
104,132,147646,1,0,0:0:0:0:
172,280,147814,2,0,B|205:311|261:301,1,95
408,212,148151,2,0,B|388:265|345:278,1,95
260,144,148488,5,0,0:0:0:0:
125,62,148657,2,0,B|176:106|179:160,2,95
98,191,149162,1,0,0:0:0:0:
176,244,149331,2,0,B|164:292|125:321,2,95
201,108,149837,1,0,0:0:0:0:
306,108,150005,1,0,0:0:0:0:
306,273,150174,1,0,0:0:0:0:
201,273,150342,1,0,0:0:0:0:
354,191,150511,1,0,0:0:0:0:
153,191,150679,1,0,0:0:0:0:
319,236,150848,6,0,B|296:280|248:300,1,95,8|0,0:0|0:0,0:0:0:0:
192,147,151185,2,0,B|216:104|264:84,1,95,0|0,0:0|0:0,0:0:0:0:
220,249,151522,2,0,B|166:253|122:281,1,95,8|0,0:0|0:0,0:0:0:0:
291,134,151859,2,0,B|345:130|389:102,1,95,0|4,0:0|0:0,0:0:0:0:
256,271,152196,1,8,0:0:0:0:
256,113,152365,1,0,0:0:0:0:
168,64,152533,6,0,B|124:68|84:116,2,95,0|0|8,0:0|0:0|0:0,0:0:0:0:
344,64,153039,2,0,B|388:68|428:116,2,95,0|0|4,0:0|0:0|0:0,0:0:0:0:
232,152,153544,1,8,0:0:0:0:
184,284,153713,1,0,0:0:0:0:
52,282,153882,6,0,B|52:232|92:200,1,95
256,254,154219,1,8,0:0:0:0:
420,200,154387,1,0,0:0:0:0:
280,152,154556,1,0,0:0:0:0:
167,64,154724,1,4,0:0:0:0:
299,10,154893,1,8,0:0:0:0:
220,112,155061,1,0,0:0:0:0:
191,234,155230,6,0,B|179:285|179:285|184:328,1,95
292,256,155567,1,8,0:0:0:0:
220,148,155735,1,0,0:0:0:0:
112,220,155904,2,0,B|84:264|84:264|74:305,2,95,0|4|8,0:0|0:0|0:0,0:0:0:0:
252,240,156410,1,0,0:0:0:0:
344,320,156578,6,0,B|397:316|433:291,1,95,0|0,0:0|0:0,0:0:0:0:
168,320,156915,2,0,B|114:316|78:291,1,95,8|0,0:0|0:0,0:0:0:0:
316,172,157252,2,0,B|369:168|405:143,1,95,0|4,0:0|0:0,0:0:0:0:
196,172,157589,2,0,B|142:168|106:143,1,95,8|0,0:0|0:0,0:0:0:0:
224,80,157926,2,0,B|192:176,1,95
256,240,158263,1,8,0:0:0:0:
384,104,158432,1,0,0:0:0:0:
288,80,158601,2,0,B|320:176,1,95,0|4,0:0|0:0,0:0:0:0:
318,170,158938,2,0,B|350:266,1,95,8|0,0:0|0:0,0:0:0:0:
192,216,159275,6,0,B|172:172|160:120,1,95
256,120,159612,1,8,0:0:0:0:
312,216,159780,1,0,0:0:0:0:
256,312,159949,2,0,B|208:352|160:344,1,95,0|4,0:0|0:0,0:0:0:0:
80,320,160286,5,8,0:0:0:0:
64,224,160454,1,0,0:0:0:0:
184,120,160623,5,0,0:0:0:0:
200,216,160792,1,0,0:0:0:0:
336,280,160960,6,0,B|376:248|432:216,1,95,8|0,0:0|0:0,0:0:0:0:
288,176,161297,1,0,0:0:0:0:
392,104,161466,1,4,0:0:0:0:
288,176,161634,1,8,0:0:0:0:
448,64,161803,1,0,0:0:0:0:
248,80,161971,6,0,B|288:56|336:24,1,95
264,304,162308,2,0,B|224:328|176:360,1,95,8|0,0:0|0:0,0:0:0:0:
216,144,162645,6,0,B|242:184|266:224,1,95,0|4,0:0|0:0,0:0:0:0:
312,96,162983,1,8,0:0:0:0:
184,56,163151,1,0,0:0:0:0:
176,264,163320,2,0,B|152:224|125:183,1,95
336,120,163657,1,8,0:0:0:0:
386,200,163825,1,0,0:0:0:0:
336,120,163994,1,0,0:0:0:0:
392,296,164162,1,4,0:0:0:0:
336,120,164331,2,0,B|348:171|336:232,1,95,8|0,0:0|0:0,0:0:0:0:
256,360,164668,6,0,B|256:256,1,95
104,72,165005,2,0,B|68:110|48:169,1,95,8|0,0:0|0:0,0:0:0:0:
176,120,165342,2,0,B|164:171|176:232,1,95,0|4,0:0|0:0,0:0:0:0:
256,120,165679,2,0,B|268:69|256:8,1,95,8|0,0:0|0:0,0:0:0:0:
400,144,166016,5,0,0:0:0:0:
280,288,166185,1,0,0:0:0:0:
136,168,166353,1,8,0:0:0:0:
258,25,166522,1,0,0:0:0:0:
224,207,166690,1,0,0:0:0:0:
400,148,166859,1,4,0:0:0:0:
344,48,167027,2,0,B|296:16|240:8,1,95,8|0,0:0|0:0,0:0:0:0:
424,187,167365,6,0,B|428:245|407:297,1,95
136,168,167702,2,0,B|174:124|226:102,2,95,8|0|0,0:0|0:0|0:0,0:0:0:0:
256,272,168207,1,4,0:0:0:0:
344,136,168376,2,0,B|368:88|344:40,1,95,8|0,0:0|0:0,0:0:0:0:
360,224,168713,2,0,B|412:211|433:162,1,95,0|4,0:0|0:0,0:0:0:0:
168,80,169050,1,8,0:0:0:0:
96,176,169218,1,0,0:0:0:0:
168,80,169387,1,0,0:0:0:0:
128,272,169556,1,4,0:0:0:0:
208,168,169724,1,8,0:0:0:0:
248,352,169893,1,0,0:0:0:0:
320,248,170061,6,0,B|360:200,3,47.5
256,192,170398,2,0,B|256:132,1,47.5,8|0,0:0|0:0,0:0:0:0:
257,113,170567,2,0,B|256:50,3,47.5
172,112,170904,2,0,B|133:66,1,47.5
72,104,171072,2,0,B|58:155,3,47.5,8|0|0|0,0:0|0:0|0:0|0:0,0:0:0:0:
60,200,171409,6,0,B|68:272,7,47.5
64,248,171747,2,0,B|88:296,7,47.5
85,291,172084,6,0,B|136:300,1,47.5
131,299,172168,2,0,B|184:308,1,47.5
178,307,172252,2,0,B|236:320,1,47.5
224,317,172336,2,0,B|272:328,1,47.5
272,328,172421,2,0,B|335:339,1,47.5
318,336,172505,2,0,B|375:347,1,47.5
365,345,172589,2,0,B|411:355,1,47.5
411,355,172674,2,0,B|476:368,1,47.5
496,368,172758,6,0,B|520:304|484:236,1,114.000002717972,4|0,0:0|0:0,0:0:0:0:
244,128,173095,2,0,B|220:192|256:260,1,114.000002717972,8|0,0:0|0:0,0:0:0:0:
468,96,173432,2,0,B|424:43|347:40,1,114.000002717972
46,96,173769,2,0,B|86:48|144:44,1,114.000002717972,12|0,0:0|0:0,0:0:0:0:
244,128,174106,6,0,B|186:132|146:180,1,114.000002717972
216,272,174443,1,12,0:0:0:0:
288,360,174612,1,0,0:0:0:0:
352,152,174780,2,0,B|304:117|243:128,1,114.000002717972,0|0,0:0|0:0,0:0:0:0:
268,244,175117,1,0,0:0:0:0:
288,360,175286,1,0,0:0:0:0:
84,291,175454,6,0,B|95:252|102:227|102:227|123:209|148:188,1,114.000002717972,4|0,0:0|0:0,0:0:0:0:
373,196,175791,2,0,B|389:209|410:227|410:227|417:252|428:291,1,114.000002717972,8|8,0:0|0:0,0:0:0:0:
256,96,176129,2,0,B|256:216,1,114.000002717972
256,360,176466,2,0,B|296:320|316:252,1,114.000002717972,8|0,0:0|0:0,0:0:0:0:
208,64,176803,6,0,B|168:104|148:172,2,114.000002717972,0|0|8,0:0|0:0|0:0,0:0:0:0:
328,48,177308,1,0,0:0:0:0:
448,32,177477,1,0,0:0:0:0:
288,200,177645,1,0,0:0:0:0:
424,184,177814,2,2,B|464:136|464:136|496:80,1,114.000002717972,10|2,0:0|0:0,0:0:0:0:
440,296,178151,6,0,B|392:344|304:328,1,114.000002717972,4|0,0:0|0:0,0:0:0:0:
224,248,178488,2,0,B|144:328,1,114.000002717972,8|0,0:0|0:0,0:0:0:0:
168,160,178825,2,0,B|80:248,2,114.000002717972,0|0|12,0:0|0:0|0:0,0:0:0:0:
256,80,179331,1,0,0:0:0:0:
376,80,179499,1,0,0:0:0:0:
256,200,179668,1,0,0:0:0:0:
376,200,179836,5,8,0:0:0:0:
256,320,180005,1,0,0:0:0:0:
212,156,180173,1,0,0:0:0:0:
92,276,180342,1,0,0:0:0:0:
212,156,180511,1,8,0:0:0:0:
256,320,180679,1,0,0:0:0:0:
440,232,180848,6,0,B|472:176|448:88,1,114.000002717972,4|0,0:0|0:0,0:0:0:0:
272,96,181185,1,8,0:0:0:0:
256,248,181353,1,0,0:0:0:0:
80,192,181522,2,0,B|48:248|72:336,2,114.000002717972,0|0|8,0:0|0:0|0:0,0:0:0:0:
144,72,182027,1,0,0:0:0:0:
216,192,182196,2,0,B|272:176|272:176|312:136,1,114.000002717972
312,296,182533,2,0,B|352:254|352:254|367:199,1,114.000002717972,8|0,0:0|0:0,0:0:0:0:
200,296,182870,2,0,B|160:254|160:254|145:199,1,114.000002717972
264,72,183207,1,10,0:0:0:0:
432,48,183376,1,2,0:0:0:0:
448,192,183544,6,0,B|448:256|400:304,1,114.000002717972,4|0,0:0|0:0,0:0:0:0:
176,264,183881,2,0,B|176:200|224:152,1,114.000002717972,8|0,0:0|0:0,0:0:0:0:
336,80,184218,1,0,0:0:0:0:
328,216,184387,1,0,0:0:0:0:
212,140,184555,2,0,B|178:94|178:94|180:36,1,114.000002717972,12|0,0:0|0:0,0:0:0:0:
304,160,184893,5,0,0:0:0:0:
400,64,185061,1,0,0:0:0:0:
448,192,185230,2,0,B|320:192,1,114.000002717972,8|0,0:0|0:0,0:0:0:0:
178,192,185567,2,0,B|64:192,1,114.000002717972
256,0,185904,1,8,0:0:0:0:
256,264,186072,2,0,B|256:383,1,114.000002717972,0|4,0:0|0:0,0:0:0:0:
352,192,186409,5,0,0:0:0:0:
256,80,186578,2,0,B|184:80|136:144,1,114.000002717972,8|0,0:0|0:0,0:0:0:0:
358,239,186915,2,0,B|328:304|249:321,1,114.000002717972
120,320,187252,1,8,0:0:0:0:
192,176,187421,1,0,0:0:0:0:
237,72,187589,2,0,B|224:120|224:120|192:176,1,114.000002717972
360,144,187926,1,8,0:0:0:0:
392,312,188095,1,0,0:0:0:0:
224,344,188263,5,0,0:0:0:0:
281,183,188432,1,0,0:0:0:0:
392,312,188600,2,2,B|410:253|448:208,1,114.000002717972,10|10,0:0|0:0,0:0:0:0:
224,344,188937,6,0,B|227:282|206:227,1,114.000002717972,4|0,0:0|0:0,0:0:0:0:
88,208,189275,1,8,0:0:0:0:
232,112,189443,1,0,0:0:0:0:
244,286,189612,1,0,0:0:0:0:
70,298,189780,1,0,0:0:0:0:
146,141,189949,1,12,0:0:0:0:
160,316,190117,1,0,0:0:0:0:
302,224,190286,6,0,B|280:160|332:124,1,113.999996520996
403,206,190623,5,8,0:0:0:0:
388,320,190791,6,0,B|395:264|403:207,1,113.999996520996,0|0,0:0|0:0,0:0:0:0:
512,212,191128,2,0,B|503:268|496:324,1,113.999996520996,0|8,0:0|0:0,0:0:0:0:
344,160,191466,1,0,0:0:0:0:
192,16,191634,6,0,B|112:20|64:56,1,113.999996520996,4|0,0:0|0:0,0:0:0:0:
120,156,191971,1,8,0:0:0:0:
156,252,192140,1,0,0:0:0:0:
356,132,192308,5,0,0:0:0:0:
392,228,192477,1,0,0:0:0:0:
256,248,192645,2,0,B|256:194|256:134,1,113.999996520996,8|0,0:0|0:0,0:0:0:0:
112,80,192982,2,0,B|112:140|112:194,2,113.999996520996,0|0|8,0:0|0:0|0:0,0:0:0:0:
248,0,193488,1,0,0:0:0:0:
180,224,193657,5,0,0:0:0:0:
244,128,193825,1,0,0:0:0:0:
380,128,193994,2,2,B|413:79|444:34,1,113.999996520996,10|10,0:0|0:0,0:0:0:0:
310,248,194331,6,0,B|345:201|386:142,1,113.999996520996,4|0,0:0|0:0,0:0:0:0:
264,60,194668,1,8,0:0:0:0:
168,172,194836,1,0,0:0:0:0:
315,201,195005,2,0,B|351:250|357:320,1,113.999996520996,0|0,0:0|0:0,0:0:0:0:
156,306,195342,2,0,B|161:250|197:201,1,113.999996520996,12|0,0:0|0:0,0:0:0:0:
315,183,195679,2,0,B|351:134|355:77,1,113.999996520996
157,96,196016,2,0,B|193:145|197:201,1,113.999996520996,8|0,0:0|0:0,0:0:0:0:
156,306,196353,2,0,B|113:269|52:260,1,113.999996520996
356,306,196690,2,0,B|417:315|460:352,1,113.999996520996,8|0,0:0|0:0,0:0:0:0:
156,204,197027,6,0,B|95:195|52:158,1,113.999996520996,4|0,0:0|0:0,0:0:0:0:
356,204,197364,2,0,B|399:241|460:250,1,113.999996520996,8|0,0:0|0:0,0:0:0:0:
496,110,197701,1,0,0:0:0:0:
356,148,197870,2,0,B|345:202|368:260,1,113.999996520996,0|8,0:0|0:0,0:0:0:0:
260,352,198207,1,0,0:0:0:0:
144,260,198376,2,0,B|121:202|132:148,1,113.999996520996
356,204,198713,2,0,B|399:241|460:250,1,113.999996520996,8|0,0:0|0:0,0:0:0:0:
216,99,199050,2,0,B|226:43|204:-13,1,113.999996520996
356,100,199387,1,10,0:0:0:0:
212,208,199555,1,2,0:0:0:0:
356,300,199724,6,0,B|304:336|232:320,1,113.999996520996,4|0,0:0|0:0,0:0:0:0:
92,216,200061,2,0,B|108:271|166:298,1,113.999996520996,12|0,0:0|0:0,0:0:0:0:
212,136,200398,2,0,B|212:248,1,113.999996520996
372,192,200735,1,12,0:0:0:0:
212,136,200904,2,0,B|152:120|104:56,2,113.999996520996
336,20,201409,2,0,B|360:132,1,113.999996520996,8|0,0:0|0:0,0:0:0:0:
176,20,201746,1,0,0:0:0:0:
152,131,201915,1,0,0:0:0:0:
296,196,202083,1,8,0:0:0:0:
364,104,202252,1,0,0:0:0:0:
216,192,202421,6,0,B|264:84,1,113.999996520996,4|0,0:0|0:0,0:0:0:0:
388,204,202758,1,8,0:0:0:0:
341,308,202926,1,0,0:0:0:0:
340,148,203095,2,0,B|341:266,2,113.999996520996,0|0|8,0:0|0:0|0:0,0:0:0:0:
272,62,203600,1,0,0:0:0:0:
160,64,203769,2,0,B|122:110|122:110|111:165,1,113.999996520996
291,247,204106,2,0,B|329:201|329:201|340:146,1,113.999996520996,8|0,0:0|0:0,0:0:0:0:
291,247,204443,1,0,0:0:0:0:
236,132,204612,1,0,0:0:0:0:
128,64,204780,2,2,B|179:33|179:33|235:31,1,113.999996520996,10|2,0:0|0:0,0:0:0:0:
278,352,205117,6,0,B|333:351|333:351|384:320,1,113.999996520996,4|0,0:0|0:0,0:0:0:0:
280,184,205454,1,8,0:0:0:0:
144,288,205623,1,0,0:0:0:0:
303,354,205791,6,2,B|256:312|240:220,1,113.999996520996,4|0,0:0|0:0,0:0:0:0:
96,180,206128,1,4,0:0:0:0:
96,180,206297,1,4,0:0:0:0:
224,68,206465,2,0,B|271:110|287:202,1,113.999996520996,0|4,0:0|0:0,0:0:0:0:
356,96,206803,1,4,0:0:0:0:
208,232,206971,1,4,0:0:0:0:
208,80,207140,2,0,B|275:58|342:34|343:34,1,113.999996520996,0|4,0:0|0:0,0:0:0:0:
376,144,207477,5,0,0:0:0:0:
188,100,207645,1,0,0:0:0:0:
356,16,207814,5,4,0:0:0:0:
300,184,207982,1,0,0:0:0:0:
176,236,208151,2,0,B|120:256|64:240,1,113.999996520996,8|0,0:0|0:0,0:0:0:0:
160,100,208488,1,0,0:0:0:0:
336,148,208656,2,0,B|392:128|448:144,1,113.999996520996,0|8,0:0|0:0,0:0:0:0:
352,284,208994,1,0,0:0:0:0:
252,144,209162,1,2,0:0:0:0:
136,268,209331,1,2,0:0:0:0:
260,228,209499,1,10,0:0:0:0:
376,352,209668,1,2,0:0:0:0:
468,192,209836,5,6,0:0:0:0:
44,192,210005,1,4,0:0:0:0:
168,304,210173,2,0,B|224:280|248:224,1,113.999996520996,8|0,0:0|0:0,0:0:0:0:
108,140,210510,6,0,B|156:103|217:110,1,113.999996520996
384,140,210847,1,8,0:0:0:0:
344,304,211016,1,0,0:0:0:0:
248,200,211185,6,0,B|264:136|264:136|268:80,1,113.999996520996,4|0,0:0|0:0,0:0:0:0:
244,295,211522,2,0,B|248:248|248:248|264:184,1,113.999996520996,4|4,0:0|0:0,0:0:0:0:
116,96,211859,1,4,0:0:0:0:
112,240,212027,1,4,0:0:0:0:
373,151,212196,2,0,B|264:184,1,113.999996520996,0|4,0:0|0:0,0:0:0:0:
232,72,212533,2,0,B|177:172,1,113.999996520996,4|0,0:0|0:0,0:0:0:0:
372,232,212870,1,4,0:0:0:0:
168,272,213038,1,0,0:0:0:0:
288,100,213207,6,0,B|310:46,3,57.0000013589859,4|0|4|0,0:0|0:0|0:0|0:0,0:0:0:0:
208,100,213544,2,0,B|195:27,1,57.0000013589859,4|0,0:0|0:0,0:0:0:0:
140,144,213713,2,0,B|150:200,3,57.0000013589859,0|0|0|0,0:0|0:0|0:0|0:0,0:0:0:0:
52,144,214050,2,4,B|34:219,1,57.0000013589859
93,240,214218,2,4,B|80:296,3,57.0000013589859
168,312,214555,5,2,0:0:0:0:
193,264,214640,1,0,0:0:0:0:
204,220,214724,1,2,0:0:0:0:
240,192,214808,1,0,0:0:0:0:
284,224,214892,1,2,0:0:0:0:
292,272,214977,1,0,0:0:0:0:
316,316,215061,1,2,0:0:0:0:
360,324,215145,1,0,0:0:0:0:
400,304,215229,1,2,0:0:0:0:
416,260,215314,1,0,0:0:0:0:
412,208,215398,1,2,0:0:0:0:
384,172,215482,1,0,0:0:0:0:
348,152,215567,5,12,0:0:0:0:
171,262,215735,1,4,1:2:0:0:
356,360,215904,1,4,0:0:0:0:
