osu file format v11

[General]
AudioFilename: Feint - Vision Driver .mp3
AudioLeadIn: 2000
PreviewTime: 40000
Countdown: 0
SampleSet: Normal
StackLeniency: 0.7
Mode: 0
LetterboxInBreaks: 1

[Editor]
DistanceSpacing: 1
BeatDivisor: 4
GridSize: 4

[Metadata]
Title:Vision Driver
TitleUnicode:Vision Driver
Artist:Feint
ArtistUnicode:Feint
Creator:phaZ
Version:Normal
Source:
Tags:dnb Drum 'n' Bass Katty Pie
BeatmapID:205308
BeatmapSetID:51042

[Difficulty]
HPDrainRate:2
CircleSize:3
OverallDifficulty:3
ApproachRate:5
SliderMultiplier:1
SliderTickRate:1

[Events]
//Background and Video events
0,0,"Rainbow_Drip.png"
//Break Periods
2,21945,31332
2,86664,104140
2,119024,125713
//Storyboard Layer 0 (Background)
//Storyboard Layer 1 (Fail)
//Storyboard Layer 2 (Pass)
//Storyboard Layer 3 (Foreground)
//Storyboard Sound Samples
//Background Colour Transformations
3,100,255,255,255

[TimingPoints]
173,337.076757995742,4,2,0,40,1,0
3543,-100,4,2,0,55,0,0
6914,-100,4,2,0,70,0,0
8262,-100,4,2,0,85,0,0
19049,-100,4,2,0,50,0,0
21745,-100,4,2,0,40,0,0
32532,-100,4,1,1,25,0,0
33206,-100,4,1,1,5,0,0
33375,-100,4,1,1,25,0,0
42897,-100,4,1,1,5,0,0
42939,-100,4,1,1,70,0,0
43319,-100,4,1,1,50,0,1
56801,-100,4,1,1,50,0,0
59498,-100,4,1,1,50,0,1
76352,-100,4,2,0,40,0,1
78037,-100,4,1,1,50,0,1
81745,-100,4,2,0,40,0,1
84105,-100,4,1,1,50,0,1
84611,-100,4,1,1,55,0,1
84948,-100,4,1,1,60,0,1
85790,-100,4,1,1,45,0,0
86127,-100,4,1,1,30,0,0
86464,-100,4,2,1,45,0,0
105004,-117.647058823529,4,2,0,45,0,0
118824,-117.647058823529,4,1,1,25,0,0
126914,-117.647058823529,4,2,0,65,0,0
127672,-117.647058823529,4,2,0,15,0,0
128346,-117.647058823529,4,2,0,25,0,0
129020,-117.647058823529,4,2,0,35,0,0
129189,-117.647058823529,4,2,0,65,0,0
129273,-100,4,2,0,35,0,0
140397,-100,4,1,1,20,0,0
145453,-100,4,1,1,15,0,0
148656,-100,4,1,1,10,0,0
150847,-100,4,1,1,45,0,0
167025,-100,4,1,1,65,0,0
170902,-100,4,1,1,5,0,0
171407,-100,4,1,1,65,0,0
172419,-100,4,1,1,85,0,0
172756,-100,4,2,0,65,0,1
173093,-100,4,1,1,65,0,1
177812,-100,4,1,1,65,0,1
178149,-100,4,1,1,65,0,1
183205,-100,4,1,1,65,0,1
183542,-100,4,1,1,65,0,1
188598,-100,4,1,1,65,0,1
188935,-100,4,1,1,65,0,1
193992,-100,4,1,1,65,0,1
194329,-100,4,1,1,65,0,1
199385,-100,4,1,1,65,0,1
199722,-100,4,1,1,65,0,0
204778,-100,4,1,1,65,0,0
205115,-100,4,1,1,65,0,0
205621,-100,4,2,0,45,0,0
207812,-100,4,1,1,45,0,0
209160,-100,4,1,1,30,0,0
210171,-100,4,1,1,45,0,0
211183,-100,4,2,0,45,0,0
213205,-100,4,2,0,85,0,0
213289,-100,4,1,1,40,0,0
215565,-100,4,2,0,50,0,0
215817,-100,4,2,0,50,0,1
215986,-100,4,2,0,35,0,0

[Colours]
Combo1 : 176,196,196
Combo2 : 206,6,6
Combo3 : 210,143,250
Combo4 : 0,213,213
Combo5 : 18,194,18
Combo6 : 227,138,4

[HitObjects]
80,148,173,2,0,P|108:112|164:92,1,100,4|10,0:0|0:0,0:0:0
172,192,847,2,0,P|224:192,2,50,0|2|10,0:0|0:0|0:0,0:0:0
80,236,1521,2,0,P|108:272|164:292,1,100,0|10,0:0|0:0,0:0:0
256,292,2195,2,0,P|304:344,2,50,0|2|10,0:0|0:0|0:0,0:0:0
256,192,2869,6,0,P|348:136,2,100,0|10|0,0:0|0:0|0:0,0:0:0
212,220,3712,2,0,P|156:232,1,50,2|10,0:0|0:0,0:0:0
160,132,4217,2,0,P|208:142,2,50,0|0|10,0:0|0:0|0:0,0:0:0
256,20,5060,2,0,P|298:47,1,50,2|10,0:0|0:0,0:0:0
392,8,5566,5,0,0:0:0
444,92,5903,2,0,P|472:132|472:132|512:168,1,100,10|0,0:0|0:0,0:0:0
510,217,6408,2,0,P|472:252|472:252,1,50,2|10,0:0|0:0,0:0:0
392,192,6914,2,0,P|336:192,2,50,0|2|10,0:0|0:0|0:0,0:0:0
256,252,7757,2,0,P|218:287,1,50,2|10,0:0|0:0,0:0:0
184,192,8262,6,0,P|128:180|80:152,1,100,0|10,0:0|0:0,0:0:0
184,44,9105,2,0,P|184:94,1,50,2|10,0:0|0:0,0:0:0
184,192,9611,2,0,P|240:180|288:152,1,100,0|10,0:0|0:0,0:0:0
364,108,10285,2,0,P|400:156,2,50,0|2|10,0:0|0:0|0:0,0:0:0
296,32,10959,6,0,P|288:104|288:144,1,100,0|10,0:0|0:0,0:0:0
320,224,11633,2,0,P|345:234|365:254,2,50,0|2|10,0:0|0:0|0:0,0:0:0
224,252,12307,2,0,P|224:280|216:352,1,100,0|10,0:0|0:0,0:0:0
316,344,12981,2,0,P|380:340|428:344,1,100,0|10,0:0|0:0,0:0:0
356,260,13656,6,0,P|320:258|256:262,1,100,0|10,0:0|0:0,0:0:0
160,240,14330,2,0,P|120:252|96:268,2,50,0|2|10,0:0|0:0|0:0,0:0:0
160,144,15004,2,0,P|120:132|96:116,2,50,0|0|10,0:0|0:0|0:0,0:0:0
256,122,15678,2,0,P|320:126|356:124,1,100,0|10,0:0|0:0,0:0:0
416,44,16352,6,0,P|456:96|456:132,1,100,0|10,0:0|0:0,0:0:0
484,224,17026,2,0,P|452:231|392:206,1,100,0|10,0:0|0:0,0:0:0
344,120,17700,2,0,P|300:172,2,50,0|0|10,0:0|0:0|0:0,0:0:0
176,128,18543,2,0,P|144:168,1,50,2|10,0:0|0:0,0:0:0
256,192,19049,12,4,21745,0:0:0
156,60,32532,5,4,0:0:0
252,88,32869,2,0,P|328:96|328:96|416:80,1,150
448,72,33543,1,0,0:0:0
480,168,33880,2,0,P|504:236,2,50
376,276,34723,2,0,P|380:226,1,50
356,324,35228,5,0,0:0:0
260,296,35566,2,0,P|184:288|184:288|96:304,1,150
64,312,36240,1,0,0:0:0
32,216,36577,2,0,P|8:148,2,50
136,108,37419,2,0,P|131:157,1,50
124,256,37925,6,0,P|132:304|152:356,1,100
208,276,38599,2,0,P|256:264|256:264|308:276,1,100
362,351,39273,2,0,P|380:304|388:256,1,100
304,200,39948,2,0,P|256:188|256:188|204:200,1,100
116,240,40622,5,0,0:0:0
195,297,40959,1,0,0:0:0
256,192,41296,12,12,42939,0:0:0
296,108,43318,2,4,P|213:52,1,100,4|8,0:0|0:0,0:0:0
163,140,43992,2,0,P|200:168|200:168|196:192|204:224,1,100,0|8,0:0|0:0,0:0:0
256,308,44667,2,0,P|279:327|302:333|302:333|312:378,2,100,0|8|0,0:0|0:0|0:0,0:0:0
304,220,45678,1,8,0:0:0
256,132,46015,6,0,P|228:88|228:88|177:75,1,100,4|8,0:0|0:0,0:0:0
164,176,46689,2,0,P|192:220|192:220|242:232,1,100,0|8,0:0|0:0,0:0:0
256,328,47363,2,0,P|302:316|302:316|330:272,2,100,0|8|0,0:0|0:0|0:0,0:0:0
160,348,48374,1,8,0:0:0
60,336,48712,6,0,P|92:276|136:252,1,100,4|8,0:0|0:0,0:0:0
148,164,49386,2,0,P|173:146|205:86,1,100,0|12,0:0|0:0,0:0:0
306,86,50060,2,0,P|338:146|364:164,1,100,0|8,0:0|0:0,0:0:0
394,258,50734,2,0,P|420:276|452:336,1,100,0|8,0:0|0:0,0:0:0
508,252,51408,6,0,P|492:200|492:200|488:152,1,100,4|8,0:0|0:0,0:0:0
412,88,52082,1,0,0:0:0
412,188,52419,2,0,P|412:292,1,100,8|0,0:0|0:0,0:0:0
316,252,53094,2,0,P|332:200|332:200|336:152,1,100,8|0,0:0|0:0,0:0:0
256,92,53768,1,8,0:0:0
228,188,54105,6,0,P|192:304,1,100,4|8,0:0|0:0,0:0:0
313,283,54779,2,0,P|284:188,1,100,0|8,0:0|0:0,0:0:0
256,92,55453,1,8,0:0:0
339,36,55790,1,8,0:0:0
418,96,56127,2,0,P|408:144|408:144|384:192,1,100,0|8,0:0|0:0,0:0:0
412,284,56801,6,0,P|360:288|360:288|312:284,1,100,4|8,0:0|0:0,0:0:0
308,384,57476,2,0,P|194:383,1,100,0|8,0:0|0:0,0:0:0
200,284,58150,2,0,P|152:288|152:288|100:284,1,100,0|8,0:0|0:0,0:0:0
60,192,58824,1,0,0:0:0
159,180,59161,1,8,0:0:0
100,100,59498,6,0,P|148:80|184:40,1,100,4|8,0:0|0:0,0:0:0
248,120,60172,2,0,P|280:85|328:65,1,100,0|8,0:0|0:0,0:0:0
380,152,60846,2,0,P|347:186|299:206,1,100,0|8,0:0|0:0,0:0:0
248,120,61520,2,0,P|200:140|164:180,1,100,0|8,0:0|0:0,0:0:0
172,276,62195,6,0,P|213:307|265:318,1,100,4|8,0:0|0:0,0:0:0
260,220,62869,1,8,0:0:0
345,167,63206,2,0,P|358:212|352:264,2,100,8|0|0,0:0|0:0|0:0,0:0:0
260,220,64217,2,0,P|246:174|253:123,1,100,8|8,0:0|0:0,0:0:0
256,24,64891,6,0,P|212:48|212:48|176:92,1,100,4|8,0:0|0:0,0:0:0
108,156,65565,1,0,0:0:0
172,236,65902,2,0,P|196:279|196:279|235:310,2,100,8|0|8,0:0|0:0|0:0,0:0:0
244,164,66914,1,0,0:0:0
180,86,67251,1,8,0:0:0
144,180,67588,6,0,P|164:232|212:272,1,100,4|8,0:0|0:0,0:0:0
268,192,68262,1,0,0:0:0
368,180,68599,2,0,P|348:128|300:88,2,100,8|0|8,0:0|0:0|0:0,0:0:0
372,280,69610,2,0,P|348:324|348:324|304:360,1,100,0|8,0:0|0:0,0:0:0
202,355,70284,6,0,P|164:324|164:324|140:280,1,100,12|8,0:0|0:0,0:0:0
184,172,70959,2,0,P|240:280,1,100,0|8,0:0|0:0,0:0:0
284,344,71633,1,0,0:0:0
380,316,71970,1,8,0:0:0
444,240,72307,2,0,P|460:192|460:192|440:136,1,100,0|8,0:0|0:0,0:0:0
340,120,72981,6,0,P|376:64|416:44,2,100,4|8|0,0:0|0:0|0:0,0:0:0
324,220,73992,1,8,0:0:0
256,292,74329,2,0,P|196:322|152:319,1,100,0|8,0:0|0:0,0:0:0
72,280,75004,2,0,P|56:232|72:172,1,100,0|8,0:0|0:0,0:0:0
156,228,75678,6,0,P|198:204|224:161,1,100,4|8,0:0|0:0,0:0:0
128,132,76352,2,4,P|140:85|128:36,1,100,4|4,0:0|0:0,0:0:0
80,36,76857,2,4,P|32:52|32:52|2:91,2,100,4|0|4,0:0|0:0|0:0,0:0:0
128,36,77700,2,0,P|156:76|156:76|205:91,1,100,4|0,0:0|0:1,0:0:0
300,116,78374,6,0,P|349:131|349:131|377:171,1,100,4|8,0:0|0:0,0:0:0
328,256,79048,2,0,P|280:276,3,50,2|0|10|0,0:0|0:0|0:0|0:0,0:0:0
232,276,79723,2,2,P|185:256,3,50,2|2|10|2,0:0|0:0|0:0|0:0,0:0:0
152,220,80397,2,2,P|156:160|148:104,1,100,2|10,0:0|0:0,0:0:0
112,28,81071,2,0,P|72:88|56:176,1,150,4|0,0:0|0:0,0:0:0
55,220,81745,6,4,P|72:296|112:356,1,150
160,339,82419,2,4,P|256:307,1,100,4|4,0:0|0:0,0:0:0
308,224,83093,2,0,P|208:224,1,100,4|0,0:0|0:0,0:0:0
256,136,83768,6,0,P|161:104,1,100,4|8,0:0|0:1,0:0:0
208,16,84442,2,0,P|260:32,3,50,2|0|10|0,0:0|0:0|0:0|0:0,0:0:0
304,44,85116,2,2,P|356:60,3,50,2|2|10|2,0:0|0:0|0:0|0:0,0:0:0
400,72,85790,2,2,P|408:136|404:192,1,100,2|10,0:0|0:0,0:0:0
352,256,86464,1,4,0:0:0
256,192,105340,12,4,108037,0:0:0
188,137,109385,6,0,P|174:188|327:236,1,255.000004863739
395,283,110734,2,0,P|347:153|255:194,1,255.000004863739
324,240,112082,2,0,P|385:131|295:72,1,255.000004863739
256,148,113430,6,0,P|239:202|239:202|252:232|263:274|263:274|243:321|243:321,3,170.000003242493
184,185,116127,2,0,P|256:226|327:182,1,170.000003242493
472,84,117475,2,0,P|401:43|329:88,1,170.000003242493
256,236,118824,1,0,0:0:0
256,192,126913,12,0,129273,0:0:0
204,243,129610,2,0,P|184:199|148:171|140:168,1,100,6|0,0:0|0:0,0:0:0
208,92,130284,2,0,P|253:79|298:88|314:95,1,100,2|0,0:0|0:0,0:0:0
372,168,130958,2,0,P|364:171|328:199|308:243,1,100,2|0,0:0|0:0,0:0:0
304,344,131632,2,0,P|259:357|214:348|198:341,1,100,2|0,0:0|0:0,0:0:0
124,284,132307,6,0,P|139:237|172:206|187:199,1,100,2|0,0:0|0:0,0:0:0
272,240,132981,2,0,P|276:232|290:189|281:141,1,100,2|0,0:0|0:0,0:0:0
376,108,133655,2,0,P|368:105|332:77|312:33,1,100,2|0,0:0|0:0,0:0:0
412,16,134329,2,0,P|460:8|504:21|511:26,1,100,2|0,0:0|0:0,0:0:0
448,104,135003,6,0,P|424:146|386:170|370:176,1,100,2|0,0:0|0:0,0:0:0
284,136,135677,2,0,P|307:93|346:69|362:62,1,100,2|0,0:0|0:0,2:0:0
448,104,136352,2,0,P|456:107|492:135|512:179,2,100,2|0|2,0:0|0:0|0:0,0:0:0
356,64,137363,1,0,0:0:0
256,84,137700,6,0,P|216:112|216:112|164:132,1,100,2|0,0:0|0:0,0:0:0
144,228,138374,2,0,P|240:200,1,100,2|0,0:0|0:0,0:0:0
224,300,139048,2,0,P|274:292|274:292|323:296,1,100,2|0,0:0|0:0,0:0:0
412,344,139722,2,0,P|460:348|460:348|511:340,1,100,2|0,0:0|0:0,0:0:0
504,239,140396,6,4,P|444:207|418:120|418:120|295:89|295:89|252:50|186:3,1,400
8,239,143093,2,4,P|67:207|93:120|93:120|216:89|216:89|259:50|325:3,2,400
400,220,147138,6,4,P|244:336|112:212,1,400
256,184,149160,1,0,0:0:0
336,32,149835,2,0,P|356:152|356:152|424:320,1,300,4|8,0:0|0:0,0:0:0
340,372,151183,6,0,P|300:268,1,100,0|8,0:0|0:0,0:0:0
207,278,151857,2,0,P|172:372,1,100,0|8,0:0|0:0,0:0:0
256,320,152531,2,0,P|256:200,1,100,0|8,0:0|0:0,0:0:0
200,136,153205,2,0,P|160:96|136:60,1,100,0|8,0:0|0:0,0:0:0
72,140,153880,2,0,P|96:176|136:216,1,100,0|8,0:0|0:0,0:0:0
208,284,154554,2,0,P|256:264|256:264|304:284,1,100,0|8,0:0|0:0,0:0:0
376,216,155228,2,0,P|416:176|440:140,1,100,0|8,0:0|0:0,0:0:0
372,76,155902,2,0,P|332:116|308:152,1,100,0|8,0:0|0:0,0:0:0
204,152,156576,6,0,P|184:108|140:76,1,100,0|8,0:0|0:0,0:0:0
40,88,157250,2,0,P|12:128|0:178,1,100,0|8,0:0|0:0,0:0:0
104,168,157924,2,0,P|112:228,2,50,0|0|8,0:0|0:0|0:0,0:0:0
240,232,158767,2,0,P|233:182,1,50,0|8,0:0|0:0,0:0:0
308,116,159273,2,0,P|301:66,2,50,0|0|8,0:0|0:0|0:0,0:0:0
452,76,160115,2,0,P|458:125,1,50,0|8,0:0|0:0,0:0:0
472,224,160621,2,0,P|456:280|456:280|424:328,1,100,0|8,0:0|0:0,0:0:0
340,352,161295,2,0,P|272:336,2,50,0|0|8,0:0|0:0|0:0,0:0:0
364,256,161969,6,0,P|380:208|380:208|380:144,1,100,0|8,0:0|0:0,0:0:0
300,100,162643,2,0,P|284:148|284:148|284:212,1,100,0|8,0:0|0:0,0:0:0
272,296,163318,2,0,P|268:352,2,50,0|0|8,0:0|0:0|0:0,0:0:0
180,260,163992,2,0,P|144:303,2,50,0|0|8,0:0|0:0|0:0,0:0:0
132,172,164666,2,0,P|78:187,2,50,0|0|8,0:0|0:0|0:0,0:0:0
128,72,165340,2,0,P|74:53,2,50,0|0|8,0:0|0:0|0:0,0:0:0
228,72,166014,2,0,P|281:53,2,50,0|0|8,0:0|0:0|0:0,0:0:0
292,148,166688,2,0,P|345:163,2,50,0|0|8,0:0|0:0|0:0,0:0:0
256,240,167363,6,0,P|294:285,3,50,0|0|8|0,0:0|0:0|0:0|0:0,0:0:0
332,304,168037,2,0,P|391:314,3,50,0|0|8|0,0:0|0:0|0:0|0:0,0:0:0
432,300,168711,2,0,P|483:270,3,50,0|0|8|0,0:0|0:0|0:0|0:0,0:0:0
492,228,169385,2,0,P|512:171,3,50,0|0|8|0,0:0|0:0|0:0|0:0,0:0:0
256,192,170059,12,6,172419,0:2:0
272,144,172756,6,0,P|312:116|312:116|372:88,1,100,2|8,0:0|0:0,0:0:0
444,144,173430,2,0,P|456:192|456:192|444:244,1,100,0|8,0:0|0:0,0:0:0
358,289,174104,2,0,P|312:268|312:268|272:240,1,100,0|8,0:0|0:0,0:0:0
240,144,174778,2,0,P|200:116|200:116|153:94,1,100,0|8,0:0|0:0,0:0:0
68,148,175452,6,0,P|76:196|64:248,2,100,0|8|0,0:0|0:0|0:0,0:0:0
120,64,176464,1,8,0:0:0
220,48,176801,1,0,0:0:0
288,120,177138,2,0,P|296:164|276:220,1,100,8|0,0:0|0:0,0:0:0
196,272,177812,1,10,0:0:0
196,172,178149,6,0,P|271:215|278:237,1,100,4|8,0:0|0:0,0:0:0
308,316,178823,2,0,P|370:376|394:377,1,100,0|8,0:0|0:0,0:0:0
460,320,179497,2,0,P|504:360,2,50,0|0|8,0:0|0:0|0:0,0:0:0
404,236,180171,2,0,P|408:196|446:133,1,100,0|8,0:0|0:0,0:0:0
428,44,180846,6,0,P|396:68|325:86,1,100,0|8,0:0|0:0,0:0:0
240,100,181520,1,0,0:0:0
148,142,181857,1,8,0:0:0
148,242,182194,1,0,0:0:0
240,284,182531,1,8,0:0:0
339,297,182868,2,0,P|396:315|428:340,1,100,0|10,0:0|0:0,0:0:0
492,264,183542,6,0,P|500:216|500:216|496:164,1,100,4|8,0:0|0:0,0:0:0
404,128,184216,2,0,P|364:188|340:208,1,100,0|8,0:0|0:0,0:0:0
296,116,184891,1,0,0:0:0
228,192,185228,1,8,0:0:0
304,260,185565,2,0,P|299:286|267:351,1,100,0|8,0:0|0:0,0:0:0
168,348,186239,6,0,P|124:320|124:320|96:280,1,100,0|8,0:0|0:0,0:0:0
144,192,186913,2,0,P|248:192,1,100,0|8,0:0|0:0,0:0:0
332,148,187587,2,0,P|376:120|376:120|404:80,1,100,0|8,0:0|0:0,0:0:0
312,40,188261,1,0,0:0:0
200,40,188598,1,10,0:0:0
148,124,188935,6,0,P|120:164|72:188,2,100,4|8|0,0:0|0:0|0:0,0:0:0
220,56,189947,1,8,0:0:0
304,108,190284,2,0,P|336:148|336:148|352:200,1,100,0|8,0:0|0:0,0:0:0
252,192,190958,2,0,P|266:238|266:238|298:278,1,100,0|8,0:0|0:0,0:0:0
350,194,191632,6,0,P|336:148|336:148|304:108,1,100,0|8,0:0|0:0,0:0:0
208,108,192306,2,0,P|176:148|176:148|160:200,1,100,0|8,0:0|0:0,0:0:0
128,288,192980,1,0,0:0:0
204,352,193317,1,8,0:0:0
304,352,193655,2,0,P|347:306|358:262,1,100,0|10,0:0|0:0,0:0:0
260,264,194329,6,0,P|212:256|212:256|184:200,1,100,4|8,0:0|0:0,0:0:0
248,128,195003,2,0,P|296:136|296:136|324:192,2,100,0|8|0,0:0|0:0|0:0,0:0:0
148,124,196014,1,8,0:0:0
60,76,196351,2,0,P|20:172,1,100,0|8,0:0|0:0,0:0:0
120,192,197025,6,0,P|124:295,1,100,0|8,0:0|0:0,0:0:0
220,264,197699,2,0,P|287:337,1,100,0|8,0:0|0:0,0:0:0
376,296,198374,2,0,P|423:281,2,50,0|0|8,0:0|0:0|0:0,0:0:0
352,200,199048,2,0,P|456:164,1,100,0|10,0:0|0:0,0:0:0
448,68,199722,6,0,P|353:35,1,100,4|8,0:0|0:0,0:0:0
292,116,200396,2,0,P|192:116,1,100
112,56,201070,2,0,P|96:145|103:155,1,100,0|8,0:0|0:0,0:0:0
180,208,201744,2,0,P|195:118|188:108,1,100,0|8,0:0|0:0,0:0:0
96,146,202419,6,0,P|48:176|48:176|16:224,1,100,0|8,0:0|0:0,0:0:0
64,312,203093,1,0,0:0:0
176,336,203430,1,0,0:0:0
256,256,203767,2,0,P|256:144,1,100,0|8,0:0|0:0,0:0:0
184,84,204441,2,0,P|140:48,2,50,0|0|8,0:0|0:0|0:0,0:0:0
268,32,205115,6,0,P|364:104,1,100
288,168,205789,2,4,P|329:208|434:125,2,200
224,92,207475,1,0,0:0:0
168,172,207812,6,0,P|160:220|160:276,1,100,0|8,0:0|0:0,0:0:0
252,228,208486,2,0,P|252:279|260:327,1,100,0|8,0:0|0:0,0:0:0
360,348,209160,6,0,P|404:312,3,50,2|0|2|0,0:0|0:0|0:0|0:0,0:0:0
424,272,209834,2,0,P|444:216,3,50,2|2|2|2,0:0|0:0|0:0|0:0,0:0:0
432,176,210508,6,0,P|404:136|384:72,1,100,0|8,0:0|0:0,0:0:0
292,56,211183,2,4,P|301:161|239:147|248:262,2,200
256,192,213205,12,4,215902,0:0:0
