osu file format v14

[General]
AudioFilename: Feint - Vagrant (Feat.Veela).mp3
AudioLeadIn: 0
PreviewTime: 67345
Countdown: 0
SampleSet: Soft
StackLeniency: 0.7
Mode: 0
LetterboxInBreaks: 0
WidescreenStoryboard: 1

[Editor]
DistanceSpacing: 1
BeatDivisor: 4
GridSize: 4
TimelineZoom: 2.799999

[Metadata]
Title:Vagrant (feat.Veela)
TitleUnicode:Vagrant (feat.Veela)
Artist:Feint
ArtistUnicode:Feint
Creator:playerdark
Version:Hard
Source:
Tags:Dnb Drum and Bass
BeatmapID:886821
BeatmapSetID:405284

[Difficulty]
HPDrainRate:7
CircleSize:3.7
OverallDifficulty:8.5
ApproachRate:8
SliderMultiplier:1.8
SliderTickRate:1

[Events]
//Background and Video events
0,0,"playerdark.jpg",0,0
//Break Periods
2,45602,54252
//Storyboard Layer 0 (Background)
//Storyboard Layer 1 (Fail)
//Storyboard Layer 2 (Pass)
//Storyboard Layer 3 (Foreground)
//Storyboard Sound Samples

[TimingPoints]
23460,342.857142857143,4,2,0,100,1,0
23460,-133.333333333333,4,2,0,100,0,0
56374,-111.111111111111,4,2,0,100,0,0
61860,-111.111111111111,4,2,0,100,0,0
63231,-111.111111111111,4,2,0,100,0,0
64602,-111.111111111111,4,2,0,100,0,0
65288,-111.111111111111,4,2,0,100,0,0
65974,-111.111111111111,4,2,0,100,0,0
67345,-100,4,2,0,100,0,1
78145,-133.333333333333,4,2,0,100,0,0
78317,-100,4,2,0,100,0,1
86545,-100,4,2,0,100,0,1
87919,-100,4,2,0,100,0,1
89288,-100,4,2,0,100,0,1
100088,-100,4,2,0,100,0,0
100260,-100,4,2,0,100,0,1
108488,-100,4,2,0,100,0,1
111231,-100,4,2,0,100,0,0

[Colours]
Combo1 : 218,164,37
Combo2 : 0,128,0
Combo3 : 226,113,29

[HitObjects]
108,152,23460,6,0,P|168:148|256:140,1,135.000005149842,0|0,2:0|2:0,2:0:0:0:
280,252,24145,1,8,2:0:0:0:
280,252,24488,2,0,P|348:216|360:164,1,135.000005149842,0|0,2:0|2:0,2:0:0:0:
248,136,25517,5,8,2:0:0:0:
248,136,26202,2,0,L|248:272,1,135.000005149842,0|0,2:0|2:0,2:0:0:0:
340,112,26888,2,0,B|344:156|284:184|268:256,1,135.000005149842,8|0,2:0|2:0,2:0:0:0:
276,228,27574,1,0,2:0:0:0:
352,108,28260,5,8,2:0:0:0:
352,108,28945,2,0,B|264:108|264:108|204:132|204:132|204:132,1,135.000005149842,0|0,2:0|2:0,2:0:0:0:
220,125,29631,1,8,2:0:0:0:
160,308,29974,1,0,2:0:0:0:
160,308,30317,2,0,B|256:308|256:308|320:284|320:284|432:284,1,270.000010299683,0|8,2:0|2:0,2:0:0:0:
416,280,31688,6,0,L|276:280,1,135.000005149842,0|0,2:0|2:0,2:0:0:0:
216,216,32374,6,0,L|356:216,1,135.000005149842,8|0,2:0|2:0,2:0:0:0:
348,216,33060,5,0,2:0:0:0:
256,120,33745,1,8,2:0:0:0:
188,120,34431,2,0,P|256:96|324:144,1,135.000005149842,0|0,2:0|2:0,2:0:0:0:
120,248,35117,1,8,2:0:0:0:
292,136,35460,2,0,P|316:200|296:272,1,135.000005149842,0|0,2:0|2:0,2:0:0:0:
124,184,36145,1,0,2:0:0:0:
220,248,36488,5,8,2:0:0:0:
220,248,37174,2,0,L|220:96,1,135.000005149842,0|0,2:0|2:0,2:0:0:0:
328,72,37860,1,8,2:0:0:0:
220,192,38202,2,0,L|308:192|360:192,1,135.000005149842,0|0,2:0|2:0,2:0:0:0:
392,188,38888,5,0,2:0:0:0:
392,188,39231,2,0,B|344:188|344:188|308:216|308:216|264:216,1,135.000005149842,8|0,2:0|2:0,2:0:0:0:
256,196,39917,5,0,2:0:0:0:
184,288,40260,1,0,2:0:0:0:
320,284,40602,1,8,2:0:0:0:
256,196,40945,1,0,2:0:0:0:
320,284,41288,2,0,L|176:284,1,135.000005149842,0|0,2:0|2:0,2:0:0:0:
256,196,41974,5,8,2:0:0:0:
128,124,42317,5,0,2:0:0:0:
128,124,42660,2,0,L|128:260,1,135.000005149842,0|0,2:0|2:0,2:0:0:0:
216,332,43345,2,0,L|216:184,1,135.000005149842,8|0,2:0|2:0,2:0:0:0:
256,196,44031,5,0,2:0:0:0:
256,196,44202,1,0,2:0:0:0:
368,268,44717,1,8,2:0:0:0:
368,268,44888,6,0,B|292:268|272:288|160:264,1,202.500007724762,0|4,2:0|2:0,2:0:0:0:
124,188,55002,6,0,L|212:188,1,67.5000025749208,0|0,3:0|3:0,2:0:0:0:
292,192,55345,1,0,2:0:0:0:
292,192,55517,1,0,3:0:0:0:
384,296,55860,6,0,P|320:308|312:304,1,67.5000025749208,0|0,2:0|2:0,2:0:0:0:
228,268,56202,1,0,3:0:0:0:
228,268,56374,1,0,3:0:0:0:
223,151,56545,2,0,P|255:179|291:191,1,80.9999975280763,0|0,2:0|2:0,2:0:0:0:
392,208,56888,1,0,2:0:0:0:
292,316,57060,2,0,P|248:324|208:320,1,80.9999975280763,0|0,2:0|2:0,2:0:0:0:
124,252,57402,1,0,2:0:0:0:
120,120,57574,5,0,2:0:0:0:
120,120,57745,2,0,P|172:80|196:80,1,80.9999975280763,0|0,2:0|2:0,2:0:0:0:
296,72,58088,1,0,2:0:0:0:
296,72,58260,2,0,P|360:88|376:108,1,80.9999975280763,0|0,2:0|2:0,2:0:0:0:
408,196,58602,1,0,2:0:0:0:
404,200,58774,2,0,P|356:252|324:260,1,80.9999975280763,0|0,2:0|2:0,2:0:0:0:
248,276,59117,1,0,2:0:0:0:
140,272,59288,6,0,P|108:232|100:188,1,80.9999975280763,0|0,2:0|2:0,2:0:0:0:
112,100,59631,1,0,2:0:0:0:
112,100,59802,2,0,B|136:100|136:100|168:120|168:120|220:120,1,80.9999975280763,0|0,2:0|2:0,2:0:0:0:
260,128,60145,1,0,2:0:0:0:
400,100,60317,2,0,B|376:100|376:100|344:120|344:120|292:120,1,80.9999975280763,0|0,2:0|2:0,2:0:0:0:
260,156,60660,1,0,2:0:0:0:
104,216,60831,5,0,2:0:0:0:
104,216,61002,1,0,2:0:0:0:
104,216,61174,2,0,P|152:252|188:252,1,80.9999975280763,0|0,2:0|2:0,2:0:0:0:
308,240,61517,2,0,L|360:240|408:240,1,80.9999975280763,0|0,2:0|2:0,2:0:0:0:
360,128,61860,5,0,3:0:0:0:
360,128,62031,1,0,3:0:0:0:
252,112,62202,2,0,L|252:200,1,80.9999975280763,0|0,3:0|3:0,3:0:0:0:
144,128,62545,1,0,3:0:0:0:
144,128,62717,1,0,3:0:0:0:
252,112,62888,2,0,L|252:204,1,80.9999975280763,0|0,3:0|3:0,3:0:0:0:
256,288,63231,5,0,3:0:0:0:
256,288,63402,1,0,3:0:0:0:
140,284,63574,2,0,L|140:192,1,80.9999975280763,0|0,3:0|3:0,3:0:0:0:
192,112,63917,1,0,3:0:0:0:
192,112,64088,1,0,3:0:0:0:
288,144,64260,1,0,3:0:0:0:
288,144,64431,1,0,3:0:0:0:
360,224,64602,5,0,3:0:0:0:
348,232,64688,1,0,3:0:0:0:
328,248,64774,2,0,L|276:280,6,40.4999987640381,0|0|0|0|0|0|0,3:0|3:0|3:0|3:0|3:0|3:0|3:0,3:0:0:0:
256,280,65374,2,0,L|208:288,2,40.4999987640381,0|0|0,3:0|3:0|3:0,3:0:0:0:
188,292,65631,2,0,L|136:284,4,40.4999987640381,0|0|0|0|0,3:0|3:0|3:0|3:0|3:0,3:0:0:0:
88,208,66145,5,0,2:0:0:0:
88,208,66317,1,8,2:0:0:0:
184,176,66488,2,0,L|272:176,1,80.9999975280763,0|0,2:0|2:0,2:0:0:0:
372,176,66831,1,0,2:0:0:0:
272,180,67002,2,0,L|168:180,1,80.9999975280763,8|0,2:0|2:0,2:0:0:0:
108,272,67345,6,0,P|156:304|196:312,1,90,0|0,2:0|2:0,2:0:0:0:
280,316,67688,1,8,2:0:0:0:
404,320,67860,2,0,L|404:228,1,90,0|0,2:0|2:0,2:0:0:0:
404,128,68202,1,0,2:0:0:0:
288,120,68374,2,0,B|240:120|240:120|212:144|212:144|176:144,1,90,8|0,2:0|2:0,2:0:0:0:
124,208,68717,1,0,2:0:0:0:
216,276,68888,2,0,B|264:276|264:276|292:252|292:252|328:252,1,90,0|8,2:0|2:0,2:0:0:0:
356,176,69231,5,0,2:0:0:0:
356,176,69402,1,0,2:0:0:0:
256,176,69574,2,0,L|156:176,1,90,0|8,2:0|2:0,2:0:0:0:
60,180,69917,1,0,2:0:0:0:
112,288,70088,2,0,P|160:264|184:232,1,90,0|0,2:0|2:0,2:0:0:0:
240,128,70431,1,8,2:0:0:0:
240,128,70602,1,0,2:0:0:0:
336,116,70774,6,0,L|336:212,1,90,0|0,2:0|2:0,2:0:0:0:
188,208,71117,2,0,L|188:104,1,90,8|0,2:0|2:0,2:0:0:0:
72,128,71460,2,0,P|108:192|200:244,1,180,0|8,2:0|2:0,2:0:0:0:
268,152,71974,1,0,2:0:0:0:
344,236,72145,2,0,P|308:172|216:120,1,180,0|8,2:0|2:0,2:0:0:0:
128,104,72660,1,0,2:0:0:0:
56,204,72831,6,0,B|88:204|88:204|112:240|112:240|148:240,1,90,0|0,2:0|2:0,2:0:0:0:
244,240,73174,1,8,2:0:0:0:
344,236,73345,2,0,L|448:236,1,90,0|0,2:0|2:0,2:0:0:0:
432,324,73688,2,0,L|336:324,1,90,0|8,2:0|2:0,2:0:0:0:
216,320,74031,2,0,P|176:288|164:252,1,90,0|0,2:0|2:0,2:0:0:0:
156,144,74374,1,0,2:0:0:0:
156,144,74545,6,0,P|220:144|264:136,1,90,8|0,2:0|2:0,2:0:0:0:
420,132,74888,1,0,2:0:0:0:
420,132,75060,2,0,P|392:184|344:192,1,90,0|8,2:0|2:0,2:0:0:0:
256,204,75402,1,0,2:0:0:0:
116,216,75574,2,0,P|140:268|176:284,1,90,0|8,2:0|2:0,2:0:0:0:
200,196,75917,2,0,P|192:148|156:124,1,90,0|0,2:0|2:0,2:0:0:0:
120,216,76260,2,0,P|144:260|200:280,1,90,0|8,2:0|2:0,2:0:0:0:
288,284,76602,1,0,2:0:0:0:
292,280,76774,6,0,P|368:244|376:220,1,90,0|0,2:0|2:0,2:0:0:0:
296,148,77117,1,8,2:0:0:0:
209,242,77288,2,0,P|265:278|313:286,1,90,0|0,2:0|2:0,2:0:0:0:
264,188,77631,2,0,P|228:148|168:124,1,90,0|8,2:0|2:0,2:0:0:0:
103,87,77974,1,0,2:0:0:0:
103,87,78145,1,0,2:0:0:0:
103,87,78317,6,0,P|115:151|135:167,1,90,8|0,2:0|2:0,2:0:0:0:
240,92,78660,1,0,2:0:0:0:
132,166,78831,2,0,P|192:204|220:198,1,90,0|8,2:0|2:0,2:0:0:0:
284,136,79174,2,0,P|336:180|344:208,1,90,0|0,2:0|2:0,2:0:0:0:
368,288,79517,5,0,2:0:0:0:
368,288,79688,1,8,2:0:0:0:
256,296,79860,2,0,B|208:296|208:296|172:240,1,90,0|0,2:0|2:0,2:0:0:0:
256,192,80202,1,0,2:0:0:0:
252,112,80374,2,0,B|300:112|300:112|336:168,1,90,8|0,2:0|2:0,2:0:0:0:
396,224,80717,2,0,L|296:224,1,90,0|0,2:0|2:0,2:0:0:0:
208,224,81060,2,0,L|104:224,1,90,8|0,2:0|2:0,2:0:0:0:
176,344,81402,1,0,2:0:0:0:
296,344,81574,6,0,L|400:344,1,90,0|8,2:0|2:0,2:0:0:0:
384,256,81917,2,0,L|280:256,1,90,0|0,2:0|2:0,2:0:0:0:
172,256,82260,1,0,2:0:0:0:
176,260,82431,1,8,2:0:0:0:
168,164,82602,2,0,L|288:164,1,90,0|0,2:0|2:0,2:0:0:0:
412,160,82945,1,0,2:0:0:0:
412,160,83117,1,8,2:0:0:0:
404,272,83288,6,0,P|356:304|316:312,1,90,0|0,2:0|2:0,2:0:0:0:
232,316,83631,1,0,2:0:0:0:
108,320,83802,2,0,L|108:228,1,90,8|0,2:0|2:0,2:0:0:0:
108,128,84145,1,0,2:0:0:0:
224,120,84317,2,8,B|272:120|272:120|300:144|300:144|336:144,1,90,8|8,2:0|2:0,2:0:0:0:
388,208,84660,1,0,2:0:0:0:
296,276,84831,2,0,B|248:276|248:276|220:252|220:252|184:252,1,90,0|0,2:0|2:0,2:0:0:0:
156,176,85174,5,8,2:0:0:0:
156,176,85345,1,0,2:0:0:0:
256,176,85517,2,0,L|356:176,1,90,0|0,2:0|2:0,2:0:0:0:
452,180,85860,1,8,2:0:0:0:
400,288,86031,2,0,P|352:264|328:232,1,90,0|0,2:0|2:0,2:0:0:0:
284,152,86374,1,0,2:0:0:0:
284,152,86545,1,0,2:0:0:0:
176,116,86717,6,0,L|176:208,1,90,0|0,3:0|3:0,3:0:0:0:
284,152,87060,1,0,3:0:0:0:
384,92,87231,2,0,L|388:192,1,90,0|0,3:0|3:0,3:0:0:0:
284,152,87574,1,0,3:0:0:0:
284,152,87745,1,0,3:0:0:0:
160,224,87917,6,0,B|224:224|224:224|260:256|260:256|328:256,1,180,0|0,2:0|2:0,2:0:0:0:
256,156,88431,1,0,2:0:0:0:
352,224,88602,6,0,B|288:224|288:224|252:256|252:256|184:256,1,180,0|0,2:0|2:0,2:0:0:0:
168,232,89117,1,0,2:0:0:0:
168,236,89288,2,0,L|64:236,1,90,0|0,2:0|2:0,2:0:0:0:
80,324,89631,2,0,L|176:324,1,90,8|0,2:0|2:0,2:0:0:0:
296,320,89974,2,0,P|336:288|348:252,1,90,0|0,2:0|2:0,2:0:0:0:
356,144,90317,1,8,2:0:0:0:
356,144,90488,6,0,P|292:144|248:136,1,90,0|0,2:0|2:0,2:0:0:0:
92,132,90831,1,0,2:0:0:0:
92,132,91002,2,0,P|120:184|168:192,1,90,8|0,2:0|2:0,2:0:0:0:
256,204,91345,1,0,2:0:0:0:
396,216,91517,2,0,P|372:268|336:284,1,90,0|8,2:0|2:0,2:0:0:0:
312,196,91860,2,0,P|320:148|356:124,1,90,0|0,2:0|2:0,2:0:0:0:
392,216,92202,2,0,P|368:260|312:280,1,90,0|8,2:0|2:0,2:0:0:0:
224,284,92545,1,0,2:0:0:0:
220,280,92717,6,0,P|144:244|136:220,1,90,0|0,2:0|2:0,2:0:0:0:
216,148,93060,1,8,2:0:0:0:
303,242,93231,2,0,P|247:278|199:286,1,90,0|0,2:0|2:0,2:0:0:0:
240,180,93574,2,0,P|276:140|336:116,1,90,0|8,2:0|2:0,2:0:0:0:
300,244,93917,2,0,P|260:300|220:316,1,90,0|0,2:0|2:0,2:0:0:0:
132,308,94260,1,0,3:0:0:0:
128,304,94431,6,0,P|92:264|84:224,1,90,0|0,3:0|2:0,2:0:0:0:
80,124,94774,1,0,2:0:0:0:
156,196,94945,1,0,2:0:0:0:
156,196,95117,2,0,L|252:196,1,90,8|0,2:0|2:0,2:0:0:0:
344,276,95460,1,0,2:0:0:0:
244,340,95631,2,0,L|140:340,1,90,0|8,2:0|2:0,2:0:0:0:
56,268,95974,1,0,2:0:0:0:
176,140,96145,6,0,L|176:240,1,90,0|0,2:0|2:0,2:0:0:0:
180,332,96488,1,8,2:0:0:0:
180,332,96660,1,0,2:0:0:0:
300,336,96831,2,0,L|300:240,1,90,0|0,2:0|2:0,2:0:0:0:
300,144,97174,1,8,2:0:0:0:
196,192,97345,6,0,P|188:152|140:112,1,90,0|0,2:0|2:0,2:0:0:0:
116,216,97688,2,0,P|140:268|176:284,1,90,0|8,2:0|2:0,2:0:0:0:
200,196,98031,2,0,P|192:148|156:124,1,90,0|0,2:0|2:0,2:0:0:0:
120,216,98374,2,0,P|144:260|200:280,1,90,0|8,2:0|2:0,2:0:0:0:
288,284,98716,1,0,2:0:0:0:
292,280,98888,6,0,P|368:244|376:220,1,90,0|0,2:0|2:0,2:0:0:0:
296,148,99231,1,8,2:0:0:0:
209,242,99402,2,0,P|265:278|313:286,1,90,0|0,2:0|2:0,2:0:0:0:
272,180,99745,2,0,P|236:140|176:116,1,90,0|8,2:0|2:0,2:0:0:0:
208,240,100088,2,0,P|260:296|296:304,1,90,0|0,2:0|2:0,2:0:0:0:
103,87,100431,6,0,P|115:151|135:167,1,90,0|8,2:0|2:0,2:0:0:0:
240,92,100774,1,0,2:0:0:0:
132,166,100945,2,0,P|192:204|220:198,1,90,0|0,2:0|2:0,2:0:0:0:
284,136,101288,2,0,P|336:180|344:208,1,90,8|0,2:0|2:0,2:0:0:0:
368,288,101631,5,0,2:0:0:0:
368,288,101802,1,0,2:0:0:0:
256,296,101974,2,0,B|208:296|208:296|172:240,1,90,8|0,2:0|2:0,2:0:0:0:
256,192,102316,1,0,2:0:0:0:
252,112,102488,2,0,B|300:112|300:112|336:168,1,90,0|8,2:0|2:0,2:0:0:0:
396,224,102831,2,0,L|296:224,1,90,0|0,2:0|2:0,2:0:0:0:
208,224,103174,2,0,L|104:224,1,90,0|8,2:0|2:0,2:0:0:0:
176,344,103516,1,0,2:0:0:0:
296,344,103688,6,0,L|400:344,1,90,0|0,2:0|2:0,2:0:0:0:
384,256,104031,2,0,L|280:256,1,90,8|0,2:0|2:0,2:0:0:0:
172,256,104374,1,0,2:0:0:0:
176,260,104545,1,0,2:0:0:0:
168,164,104717,2,0,L|288:164,1,90,8|0,2:0|2:0,2:0:0:0:
400,164,105060,1,0,2:0:0:0:
400,164,105231,1,0,2:0:0:0:
320,112,105402,2,0,P|264:96|228:104,1,90,8|0,2:0|2:0,2:0:0:0:
112,112,105745,6,0,L|112:216,1,90,0|0,2:0|2:0,2:0:0:0:
112,300,106088,1,8,2:0:0:0:
112,300,106260,1,0,2:0:0:0:
192,240,106431,2,0,P|208:160|232:132,1,90,0|0,2:0|2:0,2:0:0:0:
300,240,106774,2,0,P|288:320|260:348,1,90,8|0,2:0|2:0,2:0:0:0:
196,240,107117,2,0,P|208:160|244:128,1,90,0|0,2:0|2:0,2:0:0:0:
300,240,107460,2,0,P|292:312|264:344,1,90,8|0,2:0|2:0,2:0:0:0:
320,124,107802,1,0,2:0:0:0:
384,236,107974,5,0,2:0:0:0:
372,136,108145,2,0,P|332:88|304:72,1,90,8|0,2:0|2:0,2:0:0:0:
196,56,108488,5,0,3:0:0:0:
196,56,108660,1,0,3:0:0:0:
84,52,108831,2,0,L|84:168,1,90,0|0,3:0|3:0,3:0:0:0:
196,152,109174,5,0,3:0:0:0:
196,152,109345,1,0,3:0:0:0:
312,152,109517,2,0,L|312:256,1,90,0|0,3:0|3:0,3:0:0:0:
200,248,109860,1,0,3:0:0:0:
200,248,110031,2,0,L|200:304,2,45,0|0|0,3:0|3:0|3:0,3:0:0:0:
196,152,110374,2,0,L|196:92,6,45,0|0|0|0|0|0|0,3:0|3:0|3:0|3:0|3:0|3:0|3:0,3:0:0:0:
320,192,111060,1,0,3:0:0:0:
192,208,111231,5,4,2:0:0:0:
