osu file format v14

[General]
AudioFilename: Vagrant (feat Veela).mp3
AudioLeadIn: 0
PreviewTime: 89074
Countdown: 0
SampleSet: Soft
StackLeniency: 0.7
Mode: 0
LetterboxInBreaks: 0
WidescreenStoryboard: 0

[Editor]
Bookmarks: 23331,45274,54874,111103,133046
DistanceSpacing: 1.2
BeatDivisor: 4
GridSize: 4
TimelineZoom: 1

[Metadata]
Title:Vagrant (feat. Veela)
TitleUnicode:Vagrant (feat. Veela)
Artist:Feint
ArtistUnicode:Feint
Creator:appleeaterx
Version:Insane
Source:
Tags:liquicity alchemy dnb drum and bass cut short version
BeatmapID:781370
BeatmapSetID:354792

[Difficulty]
HPDrainRate:7
CircleSize:4
OverallDifficulty:8.5
ApproachRate:9
SliderMultiplier:1.6
SliderTickRate:1

[Events]
//Background and Video events
0,0,"background.jpg",0,0
//Break Periods
2,45474,54274
2,111303,132446
//Storyboard Layer 0 (Background)
//Storyboard Layer 1 (Fail)
//Storyboard Layer 2 (Pass)
//Storyboard Layer 3 (Foreground)
//Storyboard Sound Samples

[TimingPoints]
1389,342.857142857143,4,2,1,50,1,0
23331,-153.846153846154,4,2,1,50,0,0
28303,-153.846153846154,4,2,2,50,0,0
28474,-153.846153846154,4,2,1,50,0,0
28731,-153.846153846154,4,2,1,20,0,0
28817,-153.846153846154,4,2,1,50,0,0
33789,-153.846153846154,4,2,2,50,0,0
33960,-153.846153846154,4,2,1,50,0,0
44246,-153.846153846154,4,2,2,40,0,0
44331,-153.846153846154,4,2,1,50,0,0
56160,-153.846153846154,4,2,1,20,0,0
56246,-153.846153846154,4,2,3,50,0,0
61731,-133.333333333333,4,2,3,65,0,0
62417,-133.333333333333,4,2,3,67,0,0
63103,-133.333333333333,4,2,3,69,0,0
63789,-133.333333333333,4,2,3,71,0,0
64474,-133.333333333333,4,2,3,73,0,0
65160,-133.333333333333,4,2,3,75,0,0
65846,-133.333333333333,4,2,3,60,0,0
66189,-133.333333333333,4,2,1,60,0,0
67217,-100,4,2,4,75,0,1
78446,-100,4,2,4,40,0,1
78531,-100,4,2,4,75,0,1
86417,-100,4,2,3,75,0,1
87789,-100,4,2,4,75,0,1
88303,-100,4,2,3,75,0,1
88817,-100,4,2,4,75,0,1
88989,-100,4,2,4,75,0,0
89160,-100,4,2,4,75,0,1
89417,-100,4,2,4,40,0,1
89503,-100,4,2,4,75,0,1
96274,-100,4,2,4,40,0,1
96360,-100,4,2,4,75,0,1
101760,-100,4,2,4,40,0,1
101846,-100,4,2,4,75,0,1
108360,-100,4,2,3,75,0,1
109731,-100,4,2,4,75,0,1
110246,-100,4,2,3,75,0,1
110760,-100,4,2,4,75,0,1
111103,-100,4,2,4,60,0,0
133046,-153.846153846154,4,2,1,50,0,0
138017,-153.846153846154,4,2,2,50,0,0
138189,-153.846153846154,4,2,1,50,0,0
138446,-153.846153846154,4,2,1,20,0,0
138531,-153.846153846154,4,2,1,50,0,0
141189,-153.846153846154,4,2,1,20,0,0
141274,-153.846153846154,4,2,1,50,0,0
143503,-153.846153846154,4,2,2,50,0,0
143674,-153.846153846154,4,2,1,50,0,0
148989,-153.846153846154,4,2,2,50,0,0
149160,-153.846153846154,4,2,1,50,0,0
154474,-153.846153846154,4,2,2,50,0,0
154989,-153.846153846154,4,2,1,50,0,0

[Colours]
Combo1 : 222,227,155
Combo2 : 97,179,205
Combo3 : 192,192,192
Combo4 : 205,97,61

[HitObjects]
120,200,23331,6,0,L|112:96,1,103.999995239258,6|0,0:0|0:0,0:0:0:0:
248,264,24017,2,0,L|256:160,1,103.999995239258,10|0,0:0|0:0,0:0:0:0:
336,200,24531,1,0,0:0:0:0:
204,100,24703,2,0,P|236:108|312:88,1,103.999995239258,2|0,3:2|0:0,0:0:0:0:
468,24,25389,2,0,P|436:72|436:188,1,155.999992858887,8|0,0:0|0:0,0:0:0:0:
407,268,26074,6,0,P|443:272|503:240,1,103.999995239258,2|0,3:2|0:0,0:0:0:0:
336,112,26760,2,0,P|292:84|241:85,1,103.999995239258,8|2,0:0|0:0,0:0:0:0:
180,256,27446,1,0,0:0:0:0:
264,188,27789,1,0,0:0:0:0:
144,124,28131,2,0,L|152:180,1,51.999997619629,8|0,0:0|0:0,0:0:0:0:
116,320,28474,2,0,P|152:340|212:340,1,77.9999964294435
248,300,28817,6,0,L|360:308,1,103.999995239258,2|0,3:2|0:0,0:0:0:0:
440,156,29503,2,0,L|328:148,1,103.999995239258,10|0,0:0|0:0,0:0:0:0:
68,80,30189,2,0,P|132:96|204:40,1,155.999992858887,2|0,3:2|0:0,0:0:0:0:
232,140,30874,2,0,L|220:248,1,103.999995239258,8|0,0:0|0:0,0:0:0:0:
144,192,31389,1,0,0:0:0:0:
312,236,31560,6,0,L|316:340,2,103.999995239258,2|0|10,3:2|0:0|0:0,0:0:0:0:
388,108,32589,1,2,0:0:0:0:
496,220,32931,2,0,P|468:232|392:216,1,103.999995239258,0|0,3:0|0:0,0:0:0:0:
292,108,33617,2,0,L|220:112,1,51.999997619629,8|0,0:0|0:0,0:0:0:0:
388,108,33960,1,0,0:0:0:0:
308,240,34131,1,8,0:3:0:0:
176,176,34303,6,0,P|188:152|200:76,1,103.999995239258,6|0,0:0|0:0,0:0:0:0:
56,212,34989,2,0,P|60:263|80:311,1,103.999995239258,10|2,0:0|0:0,0:0:0:0:
168,292,35503,1,0,0:0:0:0:
264,328,35674,2,0,L|256:212,1,103.999995239258,2|0,3:2|0:0,0:0:0:0:
360,52,36360,2,0,P|368:96|340:164,1,103.999995239258,8|0,0:0|0:0,0:0:0:0:
268,140,36874,1,0,0:0:0:0:
364,232,37046,6,0,P|412:232|468:224,2,103.999995239258,2|0|10,3:2|0:0|0:0,0:0:0:0:
208,296,38074,2,0,P|168:288|132:288,1,51.999997619629,2|0,0:0|0:0,0:0:0:0:
8,352,38417,1,0,3:0:0:0:
88,376,38589,1,0,3:0:0:0:
72,296,38760,2,0,L|68:240,1,51.999997619629
80,136,39103,1,8,0:0:0:0:
8,180,39274,1,0,3:0:0:0:
156,176,39446,2,0,L|160:232,1,51.999997619629,0|8,0:0|0:3,0:0:0:0:
224,120,39789,6,0,P|276:112|332:144,1,103.999995239258,2|0,3:2|0:0,0:0:0:0:
436,320,40474,2,0,P|384:328|328:296,1,103.999995239258,10|2,0:0|0:0,0:0:0:0:
196,256,40989,1,0,0:0:0:0:
276,260,41160,2,0,L|284:376,1,103.999995239258,2|0,3:2|0:0,0:0:0:0:
116,252,41846,2,0,L|124:136,1,103.999995239258,8|0,0:0|0:0,0:0:0:0:
308,68,42531,6,0,P|352:44|420:56,1,103.999995239258,2|0,3:2|0:0,0:0:0:0:
476,144,43046,1,0,0:0:0:0:
476,144,43217,2,0,P|432:168|364:156,1,103.999995239258,10|2,0:0|0:0,0:0:0:0:
292,156,43731,1,0,0:0:0:0:
396,264,43903,2,0,P|356:252|324:248,1,51.999997619629,0|0,3:0|3:0,0:0:0:0:
204,332,44246,2,0,P|220:292|224:224,1,103.999995239258,0|8,0:0|0:0,0:0:0:0:
160,108,44760,2,0,L|152:164,2,51.999997619629,0|0|8,3:0|0:0|0:3,0:0:0:0:
116,252,45274,5,4,0:0:0:0:
152,260,54874,5,0,3:0:0:0:
152,260,55046,1,0,3:0:0:0:
212,116,55217,1,8,0:0:0:0:
268,208,55389,1,0,3:0:0:0:
128,164,55560,2,0,L|120:96,1,51.999997619629,0|0,0:0|3:0,0:0:0:0:
296,40,55903,2,0,P|312:92|308:124,1,77.9999964294435,8|0,0:0|0:0,0:0:0:0:
308,124,56246,6,0,L|428:128,1,103.999995239258,4|8,0:0|0:0,0:0:0:0:
456,48,56760,1,0,0:0:0:0:
372,260,56931,2,0,L|364:204,1,51.999997619629,0|0,0:0|3:0,0:0:0:0:
488,148,57274,2,0,L|480:204,1,51.999997619629,8|0,0:0|0:0,0:0:0:0:
432,352,57617,5,0,3:0:0:0:
268,264,57789,1,0,0:0:0:0:
270,283,57874,1,0,0:0:0:0:
272,303,57960,1,8,0:0:0:0:
160,236,58131,1,0,0:0:0:0:
169,217,58216,1,8,0:0:0:0:
175,197,58302,1,0,0:0:0:0:
175,176,58388,1,0,0:0:0:0:
172,156,58473,1,8,0:0:0:0:
32,176,58646,2,0,P|64:188|92:184,1,51.999997619629,8|0,0:0|0:0,0:0:0:0:
208,64,58989,6,0,P|252:48|320:64,1,103.999995239258,0|8,3:0|0:0,0:0:0:0:
408,120,59503,1,0,0:0:0:0:
406,99,59588,1,8,0:0:0:0:
404,78,59674,1,0,0:0:0:0:
403,57,59760,1,0,0:0:0:0:
401,37,59845,1,8,0:0:0:0:
352,192,60017,2,0,P|332:168|324:136,1,51.999997619629,8|0,0:0|0:0,0:0:0:0:
492,104,60360,6,0,L|480:228,1,103.999995239258,0|8,0:0|0:0,0:0:0:0:
404,276,60874,1,0,0:0:0:0:
296,268,61046,2,0,P|248:260|220:260,1,51.999997619629,8|0,0:0|3:0,0:0:0:0:
88,336,61389,2,0,P|113:333|139:327,1,51.999997619629,8|0,0:0|0:0,0:0:0:0:
300,112,61731,5,6,0:0:0:0:
352,192,61903,1,8,0:0:0:0:
408,112,62074,1,8,0:0:0:0:
248,188,62246,1,8,0:0:0:0:
248,188,62331,1,0,0:0:0:0:
248,188,62417,5,2,0:0:0:0:
156,140,62589,1,8,0:0:0:0:
108,232,62760,1,8,0:0:0:0:
216,44,62931,1,8,0:0:0:0:
216,44,63017,1,0,0:0:0:0:
216,44,63103,5,2,0:0:0:0:
300,112,63274,1,8,0:0:0:0:
200,292,63446,1,8,0:0:0:0:
108,232,63617,1,8,0:0:0:0:
312,260,63789,5,2,0:0:0:0:
312,260,63960,1,8,0:0:0:0:
156,140,64131,1,8,0:0:0:0:
156,140,64303,1,8,0:0:0:0:
356,20,64474,5,2,0:0:0:0:
352,45,64559,1,8,0:0:0:0:
347,70,64645,1,8,0:0:0:0:
342,96,64731,1,8,0:0:0:0:
340,120,64816,1,8,0:0:0:0:
340,147,64902,1,8,0:0:0:0:
346,172,64988,1,8,0:0:0:0:
359,194,65073,1,8,0:0:0:0:
379,210,65159,5,2,0:0:0:0:
404,217,65245,1,8,0:0:0:0:
429,217,65331,1,8,0:0:0:0:
454,208,65416,1,8,0:0:0:0:
474,193,65502,1,8,0:0:0:0:
488,171,65588,1,8,0:0:0:0:
494,146,65673,1,8,0:0:0:0:
493,121,65759,1,8,0:0:0:0:
484,96,65846,6,0,L|492:12,1,60.0000022888184,4|0,0:3|3:0,0:0:0:0:
252,128,66189,2,0,L|248:196,1,60.0000022888184,8|8,0:0|0:3,0:0:0:0:
388,368,66531,6,0,L|396:284,1,60.0000022888184,4|8,0:3|0:3,0:0:0:0:
416,136,66874,1,8,3:2:0:0:
500,272,67046,1,8,0:3:0:0:
288,324,67217,6,0,L|184:316,1,80,4|0,0:0|0:0,0:0:0:0:
16,356,67560,2,0,P|12:304|32:260,1,80
208,224,67903,1,0,0:0:0:0:
116,312,68074,1,0,3:0:0:0:
96,152,68246,2,0,L|108:56,1,80,8|0,0:0|0:0,0:0:0:0:
336,88,68589,6,0,L|316:244,1,120,2|0,0:0|0:0,0:0:0:0:
344,288,68931,2,0,P|296:288|260:264,1,80,8|0,0:0|0:0,0:0:0:0:
200,48,69274,2,0,P|204:108|192:144,1,80,0|0,0:0|3:0,0:0:0:0:
116,312,69617,1,8,0:0:0:0:
208,224,69789,1,0,0:0:0:0:
28,232,69960,6,0,P|0:176|36:64,1,160,2|8,0:0|0:0,0:0:0:0:
120,52,70474,1,0,0:0:0:0:
272,128,70646,2,0,P|220:140|180:132,1,80,0|0,0:0|3:0,0:0:0:0:
324,24,70989,2,0,L|424:32,1,80,8|0,0:0|0:0,0:0:0:0:
352,228,71331,5,2,0:0:0:0:
352,228,71503,1,0,3:0:0:0:
464,152,71674,1,8,0:0:0:0:
464,152,71846,1,0,0:0:0:0:
360,104,72017,1,0,0:0:0:0:
476,292,72189,1,0,3:0:0:0:
479,272,72274,1,0,3:0:0:0:
482,252,72360,1,8,0:0:0:0:
380,328,72531,1,0,0:0:0:0:
252,248,72703,6,0,P|180:228|104:276,1,160,2|8,0:0|0:0,0:0:0:0:
192,336,73217,1,0,0:0:0:0:
12,248,73389,2,0,P|16:308|32:340,1,80,0|0,0:0|3:0,0:0:0:0:
136,192,73731,2,0,P|132:132|116:100,1,80,8|0,0:0|0:0,0:0:0:0:
240,44,74074,6,0,P|288:72|412:32,1,160,2|8,0:0|0:0,0:0:0:0:
224,168,74589,1,0,0:0:0:0:
224,168,74760,2,0,P|276:168|320:148,1,80,0|0,0:0|3:0,0:0:0:0:
296,272,75102,2,0,P|344:288|388:280,1,80,8|0,0:0|0:0,0:0:0:0:
184,264,75446,6,0,B|104:236|104:296|12:252,1,160,2|8,0:0|0:0,0:0:0:0:
148,356,75960,1,0,0:0:0:0:
72,168,76131,2,0,L|68:68,1,80,0|0,0:0|3:0,0:0:0:0:
248,0,76474,2,0,L|252:88,1,80,8|0,0:0|0:0,0:0:0:0:
184,264,76817,5,2,0:0:0:0:
184,264,76989,1,0,3:0:0:0:
256,368,77160,1,8,0:0:0:0:
256,368,77331,1,0,0:0:0:0:
296,188,77503,1,0,0:0:0:0:
404,292,77674,1,0,3:0:0:0:
384,293,77759,1,0,3:0:0:0:
364,294,77845,1,8,0:0:0:0:
424,172,78017,1,0,3:0:0:0:
332,76,78189,6,0,P|268:84|196:36,1,120,2|0,0:0|0:0,0:0:0:0:
148,32,78531,2,0,P|104:28|56:48,1,80,8|0,0:0|0:0,0:0:0:0:
36,212,78874,1,0,0:0:0:0:
124,136,79046,1,0,0:0:0:0:
20,320,79217,2,0,P|68:320|108:296,1,80,8|0,0:0|0:0,0:0:0:0:
220,156,79560,6,0,L|204:328,1,160,2|8,0:0|0:0,0:0:0:0:
324,224,80074,1,0,0:0:0:0:
324,224,80246,2,0,L|328:316,1,80,0|0,0:0|3:0,0:0:0:0:
448,180,80589,2,0,L|440:272,1,80,8|0,0:0|0:0,0:0:0:0:
280,80,80931,6,0,P|228:60|136:120,1,160,2|8,0:0|0:0,0:0:0:0:
112,268,81446,1,0,0:0:0:0:
48,128,81617,1,0,0:0:0:0:
200,192,81789,1,0,3:0:0:0:
32,328,81960,2,0,P|16:280|24:236,1,80,8|0,0:0|0:0,0:0:0:0:
296,160,82303,6,0,L|280:260,1,80,2|0,0:0|3:0,0:0:0:0:
172,360,82646,2,0,L|164:272,1,80,8|0,0:0|0:0,0:0:0:0:
376,260,82989,1,0,0:0:0:0:
193,152,83160,1,0,3:0:0:0:
196,171,83245,1,0,3:0:0:0:
199,191,83331,1,8,0:0:0:0:
280,72,83503,1,0,0:0:0:0:
136,264,83674,6,0,P|76:280|0:228,1,160,2|8,0:0|0:0,0:0:0:0:
88,168,84189,1,0,0:0:0:0:
264,252,84360,2,0,P|256:308|240:344,1,80
188,128,84703,2,0,L|184:36,1,80,8|0,0:0|0:0,0:0:0:0:
304,156,85046,6,0,B|356:152|356:152|408:172|408:172|484:164,1,160,2|8,0:0|0:0,0:0:0:0:
384,72,85560,1,0,0:0:0:0:
352,284,85731,2,0,P|344:323|352:362,1,80,0|0,0:0|3:0,0:0:0:0:
160,296,86074,2,0,P|167:256|159:217,1,80,8|0,0:0|0:0,0:0:0:0:
28,48,86417,5,2,0:0:0:0:
64,148,86589,1,8,0:0:0:0:
176,24,86760,1,8,0:0:0:0:
160,128,86931,1,8,0:0:0:0:
316,68,87103,1,8,0:0:0:0:
248,180,87274,1,8,0:0:0:0:
424,168,87446,2,0,L|332:172,1,80,8|8,0:0|0:0,0:0:0:0:
188,304,87789,5,2,0:0:0:0:
352,284,87960,1,0,3:0:0:0:
332,281,88045,1,0,3:0:0:0:
312,278,88131,1,8,0:0:0:0:
72,168,88303,5,8,0:0:0:0:
84,198,88388,1,8,0:0:0:0:
93,231,88474,1,8,0:0:0:0:
97,264,88560,1,8,0:0:0:0:
97,297,88645,1,8,0:0:0:0:
93,330,88731,1,8,0:0:0:0:
84,362,88817,5,8,0:0:0:0:
0,224,88989,1,0,3:0:0:0:
188,108,89160,6,0,L|172:236,1,120,4|0,0:0|0:0,0:0:0:0:
188,304,89503,2,0,P|244:312|288:280,1,80,8|0,0:0|0:0,0:0:0:0:
400,184,89846,1,0,0:0:0:0:
296,136,90017,1,0,3:0:0:0:
364,304,90189,2,0,L|452:296,1,80,8|0,0:0|0:0,0:0:0:0:
248,208,90531,6,0,P|172:216|104:152,1,160,2|8,0:0|0:0,0:0:0:0:
240,16,91046,1,0,0:0:0:0:
240,16,91217,2,0,L|224:96,1,80,0|0,0:0|3:0,0:0:0:0:
352,244,91560,2,0,L|368:164,1,80,8|0,0:0|0:0,0:0:0:0:
120,72,91903,6,0,P|132:140|136:232,1,160,2|0,0:0|0:0,0:0:0:0:
72,344,92417,1,0,0:0:0:0:
176,240,92589,1,0,0:0:0:0:
36,200,92760,1,0,3:0:0:0:
284,336,92931,2,0,L|280:228,1,80,8|0,0:0|0:0,0:0:0:0:
212,56,93274,6,0,L|216:140,1,80,2|0,0:0|3:0,0:0:0:0:
392,152,93617,2,0,L|312:156,1,80,8|0,0:0|0:0,0:0:0:0:
80,264,93960,2,0,L|172:260,1,80,0|0,0:0|3:0,0:0:0:0:
188,232,94217,1,0,3:0:0:0:
188,232,94303,1,8,0:0:0:0:
132,364,94474,1,0,0:0:0:0:
132,156,94646,6,0,P|200:140|280:196,1,160,2|8,0:0|0:0,0:0:0:0:
236,304,95160,1,0,0:0:0:0:
412,272,95331,2,0,P|360:276|316:260,1,80,0|0,0:0|3:0,0:0:0:0:
392,92,95674,2,0,L|380:180,1,80,8|0,0:0|0:0,0:0:0:0:
256,312,96017,6,0,L|252:172,1,120,2|0,0:0|0:0,0:0:0:0:
144,160,96360,2,0,L|148:252,1,80,8|0,0:0|0:0,0:0:0:0:
136,360,96703,1,0,0:0:0:0:
44,296,96874,1,0,3:0:0:0:
224,96,97046,2,0,P|240:144|240:192,1,80,8|0,0:0|0:0,0:0:0:0:
348,280,97389,6,0,P|448:264|500:316,1,160,2|8,0:0|0:0,0:0:0:0:
408,356,97903,1,0,0:0:0:0:
344,180,98074,2,0,P|320:144|316:96,1,80,0|0,0:0|3:0,0:0:0:0:
248,280,98417,2,0,P|236:320|204:348,1,80,8|0,0:0|0:0,0:0:0:0:
120,156,98760,6,0,L|204:164,1,80,2|0,0:0|3:0,0:0:0:0:
96,264,99103,2,0,L|12:256,1,80,8|0,0:0|0:0,0:0:0:0:
144,52,99446,1,0,0:0:0:0:
232,164,99617,1,0,3:0:0:0:
227,183,99702,1,0,3:0:0:0:
223,203,99788,1,8,0:0:0:0:
240,68,99960,1,0,3:0:0:0:
324,224,100131,6,0,P|384:244|476:200,1,160,2|8,0:0|0:0,0:0:0:0:
386,148,100646,1,0,0:0:0:0:
320,324,100817,2,0,P|264:320|224:320,1,80,0|0,0:0|3:0,0:0:0:0:
64,256,101160,2,0,P|116:260|160:256,1,80,8|0,0:0|0:0,0:0:0:0:
240,68,101503,6,0,P|224:124|232:212,1,120,2|0,0:0|0:0,0:0:0:0:
296,228,101846,2,0,L|388:236,1,80,8|0,0:0|0:0,0:0:0:0:
472,160,102189,1,0,0:0:0:0:
424,312,102360,1,0,3:0:0:0:
356,128,102531,2,0,L|368:28,1,80,8|0,0:0|0:0,0:0:0:0:
232,160,102874,6,0,P|144:144|80:188,1,160,2|8,0:0|0:0,0:0:0:0:
56,316,103389,2,0,P|108:320|148:300,1,80
228,256,103731,1,0,3:0:0:0:
364,352,103903,2,0,L|264:344,1,80,8|0,0:0|0:0,0:0:0:0:
152,163,104246,6,0,L|248:159,1,80,2|0,0:0|3:0,0:0:0:0:
400,236,104589,2,0,L|308:232,1,80,8|0,0:0|0:0,0:0:0:0:
232,60,104931,2,0,L|316:64,1,80,0|0,0:0|3:0,0:0:0:0:
388,100,105189,1,0,3:0:0:0:
388,100,105274,2,0,P|396:68|384:16,1,80,8|0,0:0|0:0,0:0:0:0:
311,155,105617,6,0,L|147:163,1,160,2|8,0:0|0:0,0:0:0:0:
64,92,106131,1,0,0:0:0:0:
164,208,106303,1,0,0:0:0:0:
12,232,106474,1,0,3:0:0:0:
184,40,106646,2,0,P|176:88|164:124,1,80,8|0,0:0|0:0,0:0:0:0:
96,296,106989,6,0,B|160:264|192:336|268:284,1,160,2|8,0:0|0:0,0:0:0:0:
128,376,107503,1,0,0:0:0:0:
320,228,107674,2,0,P|264:204|216:212,1,80,0|0,0:0|3:0,0:0:0:0:
336,348,108017,2,0,P|375:343|410:324,1,80,8|0,0:0|0:0,0:0:0:0:
392,128,108360,5,2,0:0:0:0:
420,244,108531,1,8,0:0:0:0:
332,52,108703,1,8,0:0:0:0:
488,124,108874,1,8,0:0:0:0:
240,200,109046,2,8,P|188:212|140:204,1,80
68,80,109389,2,0,L|156:92,1,80,8|8,0:0|0:0,0:0:0:0:
240,200,109731,5,2,0:0:0:0:
156,320,109903,1,0,3:0:0:0:
136,321,109988,1,0,3:0:0:0:
116,322,110074,1,8,0:0:0:0:
304,304,110246,5,8,0:0:0:0:
335,295,110331,1,8,0:0:0:0:
366,283,110417,1,8,0:0:0:0:
396,267,110503,1,8,0:0:0:0:
421,248,110588,1,8,0:0:0:0:
426,215,110674,1,8,0:0:0:0:
431,182,110760,5,8,0:0:0:0:
328,108,110931,1,0,3:0:0:0:
448,344,111103,5,4,0:0:0:0:
104,280,133046,6,0,P|152:292|212:268,1,103.999995239258,4|0,0:0|0:0,0:0:0:0:
388,140,133731,2,0,P|340:152|280:128,1,103.999995239258,10|0,0:0|0:0,0:0:0:0:
344,64,134246,1,0,0:0:0:0:
204,132,134417,2,0,L|212:24,2,103.999995239258,2|0|8,3:2|0:0|0:0,0:0:0:0:
128,192,135274,1,0,0:0:0:0:
48,160,135446,2,0,P|12:164|-12:160,1,51.999997619629
72,268,135789,6,0,L|188:280,1,103.999995239258,2|0,3:2|0:0,0:0:0:0:
324,128,136474,2,0,L|208:140,1,103.999995239258,10|2,0:0|0:0,0:0:0:0:
244,48,136989,1,0,0:0:0:0:
380,76,137160,2,0,P|372:124|380:180,1,103.999995239258,0|0,3:0|0:0,0:0:0:0:
480,280,137846,2,0,L|488:216,1,51.999997619629,8|0,0:0|0:0,0:0:0:0:
376,260,138189,2,0,L|384:360,1,77.9999964294435
312,364,138531,6,0,P|264:364|212:324,1,103.999995239258,2|0,3:2|0:0,0:0:0:0:
88,164,139217,2,0,P|108:204|96:272,1,103.999995239258,8|0,0:0|0:0,0:0:0:0:
24,224,139731,1,0,0:0:0:0:
172,152,139903,2,0,P|236:156|288:128,1,103.999995239258,2|0,3:2|0:0,0:0:0:0:
384,52,140589,2,0,P|352:48|324:36,1,51.999997619629,8|0,0:0|0:0,0:0:0:0:
480,16,140931,2,0,L|464:112,1,77.9999964294435
396,136,141274,6,0,L|400:248,2,103.999995239258,2|0|10,3:2|0:0|0:0,0:0:0:0:
264,72,142303,1,2,0:0:0:0:
192,188,142646,2,0,P|152:196|80:164,1,103.999995239258,0|0,3:0|0:0,0:0:0:0:
32,328,143331,2,0,P|64:316|96:312,1,51.999997619629,8|0,0:0|0:0,0:0:0:0:
236,312,143674,1,0,0:0:0:0:
156,352,143845,1,8,0:3:0:0:
320,336,144017,6,0,L|312:216,1,103.999995239258,6|0,0:0|0:0,0:0:0:0:
432,72,144703,2,0,L|425:175,1,103.999995239258,10|0,0:0|0:0,0:0:0:0:
320,112,145217,1,0,0:0:0:0:
320,112,145389,2,0,L|328:4,2,103.999995239258,2|0|8,3:2|0:0|0:0,0:0:0:0:
244,164,146246,1,0,0:0:0:0:
304,236,146417,2,0,P|308:276|304:296,1,51.999997619629
124,288,146760,6,0,P|160:264|236:272,1,103.999995239258,2|0,0:2|0:0,0:0:0:0:
416,352,147446,2,0,P|364:354|320:327,1,103.999995239258,8|0,0:0|0:0,0:0:0:0:
448,268,147960,1,0,0:0:0:0:
388,192,148131,2,0,L|392:116,1,51.999997619629,0|0,3:0|3:0,0:0:0:0:
476,52,148474,2,0,L|472:108,1,51.999997619629
296,160,148817,2,0,L|300:100,1,51.999997619629,8|0,0:0|0:0,0:0:0:0:
376,52,149160,5,0,0:0:0:0:
212,124,149331,1,8,0:3:0:0:
312,248,149503,6,0,P|268:268|208:256,1,103.999995239258,2|0,3:2|0:0,0:0:0:0:
52,184,150189,2,0,L|44:296,2,103.999995239258,10|0|2,0:0|0:0|3:2,0:0:0:0:
168,96,151217,2,0,P|180:60|180:28,1,51.999997619629
256,108,151560,2,0,L|260:216,1,103.999995239258,8|0,0:0|0:0,0:0:0:0:
152,344,152246,6,0,P|104:352|52:324,1,103.999995239258,2|0,3:2|0:0,0:0:0:0:
76,256,152760,1,0,0:0:0:0:
76,256,152931,2,0,L|64:152,1,103.999995239258,8|0,0:0|3:0,0:0:0:0:
176,92,153617,2,0,L|168:20,1,51.999997619629,0|0,3:0|3:0,0:0:0:0:
292,156,154303,5,8,0:0:0:0:
340,244,154474,2,0,L|216:232,1,103.999995239258,0|8,0:0|0:3,0:0:0:0:
432,196,154989,5,4,0:0:0:0:
