osu file format v14

[General]
AudioFilename: Vagrant (feat Veela).mp3
AudioLeadIn: 0
PreviewTime: 89074
Countdown: 0
SampleSet: Soft
StackLeniency: 0.7
Mode: 0
LetterboxInBreaks: 0
WidescreenStoryboard: 0

[Editor]
Bookmarks: 23331,45274,54874,111103,133046
DistanceSpacing: 1.4
BeatDivisor: 4
GridSize: 4
TimelineZoom: 1

[Metadata]
Title:Vagrant (feat. Veela)
TitleUnicode:Vagrant (feat. Veela)
Artist:Feint
ArtistUnicode:Feint
Creator:appleeaterx
Version:Hard
Source:
Tags:liquicity alchemy dnb drum and bass cut short version
BeatmapID:785583
BeatmapSetID:354792

[Difficulty]
HPDrainRate:6
CircleSize:4
OverallDifficulty:6.5
ApproachRate:7
SliderMultiplier:1.3
SliderTickRate:1

[Events]
//Background and Video events
0,0,"background.jpg",0,0
//Break Periods
2,45474,53974
2,111303,132146
//Storyboard Layer 0 (Background)
//Storyboard Layer 1 (Fail)
//Storyboard Layer 2 (Pass)
//Storyboard Layer 3 (Foreground)
//Storyboard Sound Samples

[TimingPoints]
1389,342.857142857143,4,2,1,50,1,0
23331,-125,4,2,1,50,0,0
28303,-125,4,2,2,50,0,0
28474,-125,4,2,1,50,0,0
28731,-125,4,2,1,20,0,0
28817,-125,4,2,1,50,0,0
33789,-125,4,2,2,50,0,0
33960,-125,4,2,1,50,0,0
44246,-125,4,2,2,40,0,0
44331,-125,4,2,1,50,0,0
56160,-125,4,2,1,20,0,0
56246,-125,4,2,3,50,0,0
61731,-125,4,2,3,65,0,0
61903,-100,4,2,3,65,0,0
62417,-100,4,2,3,67,0,0
63103,-100,4,2,3,69,0,0
63789,-100,4,2,3,71,0,0
64474,-100,4,2,3,73,0,0
65160,-100,4,2,3,75,0,0
65846,-100,4,2,3,60,0,0
66189,-100,4,2,1,60,0,0
67217,-100,4,2,4,75,0,1
78446,-100,4,2,4,40,0,1
78531,-100,4,2,4,75,0,1
86417,-100,4,2,3,75,0,1
87789,-100,4,2,4,75,0,1
88303,-100,4,2,3,75,0,1
88817,-100,4,2,4,75,0,1
88989,-100,4,2,4,75,0,0
89160,-100,4,2,4,75,0,1
89417,-100,4,2,4,40,0,1
89503,-100,4,2,4,75,0,1
96274,-100,4,2,4,40,0,1
96360,-100,4,2,4,75,0,1
101760,-100,4,2,4,40,0,1
101846,-100,4,2,4,75,0,1
108360,-100,4,2,3,75,0,1
109731,-100,4,2,4,75,0,1
110246,-100,4,2,3,75,0,1
110760,-100,4,2,4,75,0,1
111103,-100,4,2,4,60,0,0
133046,-125,4,2,1,50,0,0
138017,-125,4,2,2,50,0,0
138189,-125,4,2,1,50,0,0
138446,-125,4,2,1,20,0,0
138531,-125,4,2,1,50,0,0
141189,-125,4,2,1,20,0,0
141274,-125,4,2,1,50,0,0
143503,-125,4,2,2,50,0,0
143674,-125,4,2,1,50,0,0
148989,-125,4,2,2,50,0,0
149160,-125,4,2,1,50,0,0
154474,-125,4,2,2,50,0,0
154989,-125,4,2,1,50,0,0

[Colours]
Combo1 : 222,227,155
Combo2 : 97,179,205
Combo3 : 192,192,192
Combo4 : 205,97,61

[HitObjects]
20,132,23331,6,0,P|80:148|136:120,1,104,6|0,0:0|0:0,0:0:0:0:
220,28,24017,2,0,L|224:144,1,104,10|0,0:0|0:0,0:0:0:0:
332,228,24703,2,0,P|392:224|440:260,1,104,2|0,3:2|0:0,0:0:0:0:
352,372,25389,2,0,L|224:364,1,104,8|0,0:0|0:0,0:0:0:0:
176,360,25903,1,0,0:0:0:0:
116,316,26074,6,0,P|96:268|124:204,1,104,2|0,3:2|0:0,0:0:0:0:
251,183,26760,1,8,0:0:0:0:
184,56,27103,2,0,P|144:72|72:44,1,104,2|0,0:0|0:0,0:0:0:0:
0,176,27789,1,0,0:0:0:0:
132,236,28131,2,0,L|124:296,1,52,8|0,0:0|0:0,0:0:0:0:
184,332,28474,2,0,P|232:340|280:324,1,78
272,328,28817,6,0,L|400:324,2,104,2|0|10,3:2|0:0|0:0,0:0:0:0:
184,212,29846,1,0,0:0:0:0:
328,184,30189,2,0,P|384:192|436:164,1,104,2|0,3:2|0:0,0:0:0:0:
360,44,30874,2,0,P|304:36|252:64,1,104,8|0,0:0|0:0,0:0:0:0:
196,88,31389,1,0,0:0:0:0:
124,100,31560,6,0,L|16:96,2,104,2|0|10,3:2|0:0|0:0,0:0:0:0:
184,232,32589,2,0,L|308:228,1,104,2|0,0:0|3:0,0:0:0:0:
428,268,33274,1,0,0:0:0:0:
476,132,33617,2,0,P|480:96|476:68,2,52,8|0|0,0:0|0:0|0:0,0:0:0:0:
408,104,34131,1,8,0:3:0:0:
364,160,34303,6,0,P|316:160|272:120,1,104,6|0,0:0|0:0,0:0:0:0:
144,64,34989,2,0,P|160:116|140:176,1,104,10|2,0:0|0:0,0:0:0:0:
112,304,35674,2,0,L|0:300,2,104,2|0|8,3:2|0:0|0:0,0:0:0:0:
248,360,36703,1,0,0:0:0:0:
388,316,37046,6,0,P|440:320|484:296,1,104,2|0,3:2|0:0,0:0:0:0:
408,172,37731,1,10,0:0:0:0:
272,228,38074,2,0,P|228:232|172:196,1,104,2|0,0:0|3:0,0:0:0:0:
200,132,38589,1,0,3:0:0:0:
132,108,38760,2,0,P|96:116|64:112,1,52,0|0,0:0|0:0,0:0:0:0:
20,76,39103,2,0,L|24:20,1,52,8|0,0:0|3:0,0:0:0:0:
60,144,39446,2,0,L|52:204,1,52,0|8,0:0|0:3,0:0:0:0:
104,312,39789,6,0,P|148:328|212:308,1,104,2|0,3:2|0:0,0:0:0:0:
300,208,40474,2,0,P|344:192|408:212,1,104,10|2,0:0|0:0,0:0:0:0:
436,348,41160,2,0,L|320:340,1,104,2|0,3:2|0:0,0:0:0:0:
200,276,41846,2,0,L|88:280,1,104,8|0,0:0|0:0,0:0:0:0:
32,316,42360,1,0,0:0:0:0:
32,316,42531,6,0,P|56:280|44:204,1,104,2|0,3:2|0:0,0:0:0:0:
100,164,43046,2,0,P|132:168|160:164,2,52,0|10|0,0:0|0:0|0:0,0:0:0:0:
32,136,43560,2,0,L|28:80,1,52,2|0,0:0|0:0,0:0:0:0:
84,40,43903,1,0,3:0:0:0:
152,64,44074,2,0,P|196:72|252:56,1,104,0|0,3:0|0:0,0:0:0:0:
296,116,44589,1,8,0:0:0:0:
348,64,44760,2,0,L|464:72,1,104,0|8,3:0|0:3,0:0:0:0:
360,164,45274,5,4,0:0:0:0:
92,192,54874,6,0,L|88:124,1,52,0|0,3:0|3:0,0:0:0:0:
144,92,55217,1,8,0:0:0:0:
96,40,55389,1,0,3:0:0:0:
180,200,55731,1,0,3:0:0:0:
232,248,55903,2,0,P|272:256|304:248,1,52,8|0,0:0|0:0,0:0:0:0:
344,212,56246,6,0,L|336:96,1,104,4|8,0:0|0:0,0:0:0:0:
388,56,56760,1,0,0:0:0:0:
448,96,56931,2,0,P|440:128|440:156,1,52,0|0,0:0|3:0,0:0:0:0:
484,204,57274,2,0,P|488:248|484:272,1,52,8|0,0:0|0:0,0:0:0:0:
412,304,57617,6,0,L|300:296,1,104,0|8,3:0|0:0,0:0:0:0:
244,328,58131,2,0,L|252:372,2,26,0|8|0,0:0|0:0|0:0,0:0:0:0:
184,288,58474,1,8,0:0:0:0:
112,308,58646,2,0,P|76:312|48:304,1,52,8|0,0:0|0:0,0:0:0:0:
12,236,58989,6,0,P|32:192|12:124,1,104,0|8,3:0|0:0,0:0:0:0:
0,68,59503,2,0,P|28:88|108:80,1,104,0|8,0:0|0:0,0:0:0:0:
152,40,60017,1,8,0:0:0:0:
296,32,60360,6,0,L|288:136,1,104,0|8,0:0|0:0,0:0:0:0:
236,188,60874,1,0,0:0:0:0:
288,240,61046,2,0,P|328:240|352:232,1,52,8|0,0:0|3:0,0:0:0:0:
404,204,61389,2,0,L|492:208,1,78,8|0,0:0|0:0,0:0:0:0:
492,200,61731,5,6,0:0:0:0:
440,124,61903,1,8,0:0:0:0:
352,140,62074,2,0,P|304:144|264:136,1,65,8|8,0:0|0:0,0:0:0:0:
168,56,62417,6,0,P|216:52|256:60,1,65,2|8,0:0|0:0,0:0:0:0:
204,140,62760,1,8,0:0:0:0:
132,192,62931,1,8,0:0:0:0:
192,288,63103,6,0,L|188:360,1,65,2|8,0:0|0:0,0:0:0:0:
276,380,63446,1,8,0:0:0:0:
356,336,63617,1,8,0:0:0:0:
332,240,63789,6,0,P|368:248|404:244,1,65,2|8,0:0|0:0,0:0:0:0:
448,172,64131,2,0,P|468:144|476:108,1,65,8|8,0:0|0:0,0:0:0:0:
380,48,64474,6,0,P|372:88|376:104,3,32.5,2|8|8|8,0:0|0:0|0:0|0:0,0:0:0:0:
300,92,64817,2,0,P|316:129|328:140,3,32.5,8|8|8|8,0:0|0:0|0:0|0:0,0:0:0:0:
216,80,65160,2,0,L|176:76,3,32.5,2|8|8|8,0:0|0:0|0:0|0:0,0:0:0:0:
120,140,65503,2,0,L|160:144,3,32.5,8|8|8|8,0:0|0:0|0:0|0:0,0:0:0:0:
48,168,65846,6,0,P|44:132|56:96,1,65,4|0,0:3|3:0,0:0:0:0:
96,248,66189,2,0,P|60:260|28:256,1,65,8|8,0:0|0:3,0:0:0:0:
180,208,66531,2,0,L|260:216,1,65,4|8,0:3|0:3,0:0:0:0:
304,284,66874,1,8,3:2:0:0:
256,360,67046,1,8,0:3:0:0:
380,336,67217,6,0,P|432:352|508:296,1,130,4|0,0:0|0:0,0:0:0:0:
468,232,67731,1,0,0:0:0:0:
488,144,67903,2,0,P|480:100|488:60,1,65,0|0,0:0|3:0,0:0:0:0:
396,176,68246,2,0,P|360:180|324:168,1,65,8|0,0:0|0:0,0:0:0:0:
272,104,68589,6,0,L|280:240,1,130,2|8,0:0|0:0,0:0:0:0:
192,216,69103,1,0,0:0:0:0:
216,304,69274,2,0,P|168:304|132:276,1,65,0|0,0:0|3:0,0:0:0:0:
72,228,69617,2,0,P|96:196|100:160,1,65,8|0,0:0|0:0,0:0:0:0:
32,108,69960,6,0,P|92:124|164:84,1,130,2|8,0:0|0:0,0:0:0:0:
216,36,70474,1,0,0:0:0:0:
284,96,70646,2,0,P|328:104|368:88,1,65,0|0,0:0|3:0,0:0:0:0:
436,60,70989,2,0,L|432:136,1,65,8|0,0:0|0:0,0:0:0:0:
368,188,71331,1,2,0:0:0:0:
368,188,71503,1,0,3:0:0:0:
404,272,71674,6,0,P|452:276|484:264,1,65,8|0,0:0|0:0,0:0:0:0:
368,188,72017,2,0,P|320:184|288:196,1,65,0|0,0:0|3:0,0:0:0:0:
276,210,72274,1,0,3:0:0:0:
248,232,72360,2,0,L|172:224,1,65,8|0,0:0|0:0,0:0:0:0:
104,272,72703,6,0,P|92:224|124:152,1,130,2|8,0:0|0:0,0:0:0:0:
212,128,73217,1,0,0:0:0:0:
140,72,73389,2,0,P|96:76|48:64,2,65,0|0|8,0:0|3:0|0:0,0:0:0:0:
220,24,73903,1,0,0:0:0:0:
288,84,74074,6,0,L|308:216,1,130,2|8,0:0|0:0,0:0:0:0:
392,248,74589,1,0,0:0:0:0:
316,296,74760,2,0,L|304:372,1,65,0|0,0:0|3:0,0:0:0:0:
224,316,75103,2,0,L|216:240,1,65,8|0,0:0|0:0,0:0:0:0:
144,152,75446,6,0,P|84:140|24:180,1,130,2|8,0:0|0:0,0:0:0:0:
100,228,75960,1,0,0:0:0:0:
48,304,76131,2,0,P|44:348|52:372,1,65,0|0,0:0|3:0,0:0:0:0:
136,336,76474,2,0,L|220:340,1,65,8|0,0:0|0:0,0:0:0:0:
292,348,76817,5,2,0:0:0:0:
292,348,76989,1,0,3:0:0:0:
352,280,77160,2,0,P|340:236|344:200,1,65,8|0,0:0|0:0,0:0:0:0:
440,116,77503,2,0,L|428:184,1,65,0|0,0:0|3:0,0:0:0:0:
445,214,77760,1,0,3:0:0:0:
468,244,77846,2,0,L|456:312,1,65,8|0,0:0|3:0,0:0:0:0:
352,280,78189,6,0,B|308:272|308:272|272:284|272:284|224:276,1,130,2|8,0:0|0:0,0:0:0:0:
264,192,78703,1,0,0:0:0:0:
156,240,78874,2,0,P|148:192|156:164,1,65,0|0,0:0|0:0,0:0:0:0:
216,56,79217,2,0,P|224:104|216:132,1,65,8|0,0:0|0:0,0:0:0:0:
308,100,79560,6,0,P|352:120|440:100,1,130,2|8,0:0|0:0,0:0:0:0:
500,48,80074,1,0,0:0:0:0:
430,106,80246,2,0,L|438:190,1,65,0|0,0:0|3:0,0:0:0:0:
364,228,80589,2,0,P|304:224|276:228,1,65,8|0,0:0|0:0,0:0:0:0:
228,280,80931,6,0,P|172:304|88:280,1,130,2|8,0:0|0:0,0:0:0:0:
48,220,81446,1,0,0:0:0:0:
132,184,81617,2,0,L|128:108,1,65,0|0,0:0|3:0,0:0:0:0:
208,56,81960,2,0,L|212:136,1,65,8|0,0:0|0:0,0:0:0:0:
292,164,82303,6,0,P|344:176|384:164,1,65,2|0,0:0|3:0,0:0:0:0:
428,116,82646,2,0,P|472:116|496:120,1,65,8|0,0:0|0:0,0:0:0:0:
496,232,82989,2,0,P|444:244|404:232,1,65,0|0,0:0|3:0,0:0:0:0:
396,262,83246,1,0,3:0:0:0:
368,276,83332,2,0,P|324:276|300:280,1,65,8|0,0:0|0:0,0:0:0:0:
216,340,83674,6,0,P|184:320|80:344,1,130,2|8,0:0|0:0,0:0:0:0:
12,292,84189,1,0,0:0:0:0:
72,224,84360,2,0,P|80:180|72:152,1,65,0|0,0:0|0:0,0:0:0:0:
44,76,84703,2,0,P|92:76|128:60,1,65,8|0,0:0|0:0,0:0:0:0:
184,20,85046,6,0,L|320:32,2,130,2|8|0,0:0|0:0|0:0,0:0:0:0:
132,96,85903,1,0,3:0:0:0:
204,148,86074,2,0,L|284:144,1,65,8|0,0:0|0:0,0:0:0:0:
356,120,86417,5,2,0:0:0:0:
356,120,86589,1,8,0:0:0:0:
416,188,86760,2,0,P|408:232|412:260,1,65,8|8,0:0|0:0,0:0:0:0:
332,340,87103,5,8,0:0:0:0:
332,340,87274,1,8,0:0:0:0:
260,284,87446,2,0,P|224:272|168:272,1,65,8|8,0:0|0:0,0:0:0:0:
108,292,87789,6,0,P|64:296|28:284,1,65,2|0,0:0|3:0,0:0:0:0:
9,269,88046,1,0,3:0:0:0:
4,228,88131,2,0,L|16:148,1,65,8|8,0:0|0:0,0:0:0:0:
88,108,88474,2,0,L|84:64,2,32.5,8|8|8,0:0|0:0|0:0,0:0:0:0:
168,156,88817,1,8,0:0:0:0:
248,116,88989,1,0,3:0:0:0:
364,192,89160,6,0,P|316:220|236:196,1,130,4|8,0:0|0:0,0:0:0:0:
192,276,89674,1,0,0:0:0:0:
272,324,89846,2,0,P|320:320|360:324,1,65,0|0,0:0|3:0,0:0:0:0:
424,344,90189,2,0,P|472:344|496:336,1,65,8|0,0:0|0:0,0:0:0:0:
448,240,90531,6,0,L|456:100,1,130,2|8,0:0|0:0,0:0:0:0:
364,120,91046,1,0,0:0:0:0:
364,120,91217,2,0,L|360:48,1,65,0|0,0:0|3:0,0:0:0:0:
268,92,91560,2,0,P|224:84|164:80,1,97.5,8|0,0:0|0:0,0:0:0:0:
164,84,91903,6,0,P|108:96|40:64,1,130,2|0,0:0|0:0,0:0:0:0:
16,156,92417,1,0,0:0:0:0:
92,208,92589,2,0,P|104:256|100:288,1,65,0|0,0:0|3:0,0:0:0:0:
168,336,92931,2,0,P|212:348|256:332,1,65,8|0,0:0|0:0,0:0:0:0:
328,272,93274,6,0,L|320:340,1,65,2|0,0:0|3:0,0:0:0:0:
232,256,93617,2,0,L|240:188,1,65,8|0,0:0|0:0,0:0:0:0:
312,136,93960,2,0,P|356:140|392:124,1,65,0|0,0:0|3:0,0:0:0:0:
408,116,94217,1,0,3:0:0:0:
436,92,94303,2,0,L|432:24,1,65,8|0,0:0|0:0,0:0:0:0:
308,44,94646,6,0,P|272:56|184:20,1,130,2|8,0:0|0:0,0:0:0:0:
100,40,95160,1,0,0:0:0:0:
88,124,95331,2,0,P|54:115|25:76,1,65,0|0,0:0|3:0,0:0:0:0:
172,116,95674,2,0,L|176:200,1,65,8|0,0:0|0:0,0:0:0:0:
120,252,96017,6,0,P|152:268|244:232,1,130,2|8,0:0|0:0,0:0:0:0:
308,184,96531,2,0,P|296:148|296:112,1,65,0|0,0:0|0:0,0:0:0:0:
384,136,96874,1,0,3:0:0:0:
356,48,97046,2,0,P|391:42|428:54,1,65,8|0,0:0|0:0,0:0:0:0:
472,168,97389,6,0,P|460:228|480:304,1,130,2|8,0:0|0:0,0:0:0:0:
412,360,97903,1,0,0:0:0:0:
328,324,98074,2,0,P|288:312|240:308,1,65,0|0,0:0|3:0,0:0:0:0:
172,312,98417,2,0,P|192:268|192:236,1,65,8|0,0:0|0:0,0:0:0:0:
104,180,98760,6,0,L|108:248,1,65,2|0,0:0|3:0,0:0:0:0:
196,168,99103,2,0,L|192:100,1,65,8|0,0:0|0:0,0:0:0:0:
288,60,99446,2,0,P|296:104|288:140,1,65,0|0,0:0|3:0,0:0:0:0:
288,156,99703,1,0,3:0:0:0:
280,188,99789,2,0,L|344:192,1,65,8|0,0:0|3:0,0:0:0:0:
412,136,100131,6,0,P|392:180|416:264,1,130,2|8,0:0|0:0,0:0:0:0:
352,328,100646,1,0,0:0:0:0:
264,304,100817,2,0,P|224:296|200:272,1,65,0|0,0:0|3:0,0:0:0:0:
128,232,101160,2,0,L|132:156,1,65,8|0,0:0|0:0,0:0:0:0:
204,108,101503,6,0,P|148:120|76:88,2,130,2|8|0,0:0|0:0|0:0,0:0:0:0:
276,52,102360,1,0,3:0:0:0:
320,132,102531,2,0,P|316:184|324:236,1,97.5,8|0,0:0|0:0,0:0:0:0:
328,236,102874,6,0,P|272:224|200:256,1,130,2|8,0:0|0:0,0:0:0:0:
148,320,103389,1,0,0:0:0:0:
80,260,103560,2,0,L|8:264,1,65,0|0,0:0|3:0,0:0:0:0:
60,168,103903,2,0,L|132:164,1,65,8|0,0:0|0:0,0:0:0:0:
188,44,104246,6,0,P|204:88|196:124,1,65,2|0,0:0|3:0,0:0:0:0:
212,196,104589,2,0,P|260:208|296:192,1,65,8|0,0:0|0:0,0:0:0:0:
336,140,104931,2,0,L|332:72,1,65,0|0,0:0|3:0,0:0:0:0:
360,48,105189,1,0,3:0:0:0:
360,48,105274,1,8,0:0:0:0:
444,84,105446,1,0,0:0:0:0:
412,168,105617,6,0,P|360:164|256:160,1,130,2|8,0:0|0:0,0:0:0:0:
196,196,106131,1,0,0:0:0:0:
136,128,106303,2,0,P|88:132|56:132,1,65,0|0,0:0|3:0,0:0:0:0:
16,220,106646,2,0,P|64:224|96:224,1,65,8|0,0:0|0:0,0:0:0:0:
196,196,106989,6,0,L|184:328,1,130,2|8,0:0|0:0,0:0:0:0:
260,380,107503,1,0,0:0:0:0:
308,304,107674,2,0,P|348:296|392:308,1,65,0|0,0:0|3:0,0:0:0:0:
448,352,108017,1,8,0:0:0:0:
500,280,108189,1,0,0:0:0:0:
428,228,108360,6,0,L|432:148,1,65,2|8,0:0|0:0,0:0:0:0:
372,92,108703,1,8,0:0:0:0:
444,36,108874,1,8,0:0:0:0:
308,24,109046,6,0,P|264:32|216:24,1,65,0|0,0:0|0:0,0:0:0:0:
152,20,109389,1,8,0:0:0:0:
84,80,109560,1,8,0:0:0:0:
168,160,109731,5,2,0:0:0:0:
96,216,109903,2,0,L|40:212,2,32.5,0|0|8,3:0|3:0|0:0,0:0:0:0:
156,284,110246,1,8,0:0:0:0:
156,284,110331,1,8,0:0:0:0:
156,284,110417,2,0,L|212:280,2,32.5,8|8|8,0:0|0:0|0:0,0:0:0:0:
84,340,110760,2,0,L|16:336,1,65,8|0,0:0|3:0,0:0:0:0:
96,216,111103,5,4,0:0:0:0:
424,316,133046,6,0,L|432:204,1,104,4|0,0:0|0:0,0:0:0:0:
324,116,133731,2,0,L|331:219,1,104,10|0,0:0|0:0,0:0:0:0:
244,336,134417,2,0,P|188:336|144:304,1,104,2|0,3:2|0:0,0:0:0:0:
172,240,134931,1,0,0:0:0:0:
100,244,135103,2,0,L|108:124,1,104,8|0,0:0|0:0,0:0:0:0:
212,40,135789,5,2,3:2:0:0:
312,144,136131,2,0,P|328:196|304:248,1,104,0|10,0:0|0:0,0:0:0:0:
180,304,136817,1,2,0:0:0:0:
316,360,137160,2,0,P|360:364|416:328,1,104,0|0,3:0|0:0,0:0:0:0:
472,204,137846,2,0,P|464:164|468:140,1,52,8|0,0:0|0:0,0:0:0:0:
420,96,138189,2,0,L|328:88,1,78,0|0,0:0|0:0,0:0:0:0:
336,96,138531,6,0,L|224:100,1,104,2|0,3:2|0:0,0:0:0:0:
144,216,139217,2,0,L|256:220,1,104,8|0,0:0|0:0,0:0:0:0:
304,356,139903,2,0,P|264:368|188:348,1,104,2|0,3:2|0:0,0:0:0:0:
68,308,140589,2,0,L|56:200,1,104,8|0,0:0|0:0,0:0:0:0:
116,160,141103,1,0,0:0:0:0:
104,88,141274,6,0,P|60:68|-4:84,2,104,2|0|10,3:2|0:0|0:0,0:0:0:0:
184,208,142303,2,0,P|228:228|292:212,1,104,2|0,0:0|3:0,0:0:0:0:
376,108,142989,1,0,0:0:0:0:
488,200,143331,2,0,P|484:228|480:260,1,52,8|0,0:0|0:0,0:0:0:0:
408,260,143674,2,0,P|412:296|412:312,1,52,0|8,0:0|0:3,0:0:0:0:
344,344,144017,6,0,P|296:356|244:336,1,104,6|0,0:0|0:0,0:0:0:0:
156,220,144703,2,0,P|204:232|256:212,1,104,10|0,0:0|0:0,0:0:0:0:
368,120,145389,2,0,L|376:4,1,104,2|0,3:2|0:0,0:0:0:0:
256,100,146074,2,0,L|248:216,1,104,8|0,0:0|0:0,0:0:0:0:
304,252,146589,1,0,0:0:0:0:
252,300,146760,6,0,P|216:288|144:320,1,104,2|0,0:2|0:0,0:0:0:0:
64,192,147446,2,0,P|100:204|172:172,1,104,8|0,0:0|0:0,0:0:0:0:
268,84,148131,1,0,3:0:0:0:
268,84,148303,1,0,3:0:0:0:
318,136,148474,2,0,P|358:144|378:140,1,52
412,84,148817,2,0,L|408:24,1,52,8|0,0:0|0:0,0:0:0:0:
484,116,149160,2,0,L|488:176,1,52,0|8,0:0|0:3,0:0:0:0:
444,228,149503,5,2,3:2:0:0:
348,336,149846,1,0,0:0:0:0:
228,252,150189,2,0,P|176:260|116:232,1,104,10|0,0:0|0:0,0:0:0:0:
88,104,150874,2,0,P|140:96|200:124,1,104,2|0,3:2|0:0,0:0:0:0:
312,188,151560,1,8,0:0:0:0:
364,52,151903,1,0,0:0:0:0:
484,136,152246,6,0,L|472:264,1,104,2|0,3:2|0:0,0:0:0:0:
424,292,152760,1,0,0:0:0:0:
424,292,152931,2,0,P|368:280|316:316,1,104,8|0,0:0|3:0,0:0:0:0:
192,348,153617,2,0,P|160:352|124:352,1,52,0|0,3:0|3:0,0:0:0:0:
156,136,154302,1,8,0:0:0:0:
124,200,154474,2,0,P|84:196|32:160,1,104,0|8,0:0|0:3,0:0:0:0:
120,68,154989,5,4,0:0:0:0:
