osu file format v14

[General]
AudioFilename: Vagrant (feat Veela).mp3
AudioLeadIn: 0
PreviewTime: 89074
Countdown: 0
SampleSet: Soft
StackLeniency: 0.7
Mode: 0
LetterboxInBreaks: 0
WidescreenStoryboard: 0

[Editor]
Bookmarks: 23331,45274,54874,111103,133046
DistanceSpacing: 1
BeatDivisor: 4
GridSize: 4
TimelineZoom: 1

[Metadata]
Title:Vagrant (feat. Veela)
TitleUnicode:Vagrant (feat. Veela)
Artist:Feint
ArtistUnicode:Feint
Creator:appleeaterx
Version:Easy
Source:
Tags:liquicity alchemy dnb drum and bass cut short version
BeatmapID:785582
BeatmapSetID:354792

[Difficulty]
HPDrainRate:3
CircleSize:3
OverallDifficulty:3
ApproachRate:3.5
SliderMultiplier:0.9
SliderTickRate:1

[Events]
//Background and Video events
0,0,"background.jpg",0,0
//Break Periods
2,45474,53494
2,111303,131666
//Storyboard Layer 0 (Background)
//Storyboard Layer 1 (Fail)
//Storyboard Layer 2 (Pass)
//Storyboard Layer 3 (Foreground)
//Storyboard Sound Samples

[TimingPoints]
1389,342.857142857143,4,2,1,50,1,0
28303,-100,4,2,2,50,0,0
28474,-100,4,2,1,50,0,0
28731,-100,4,2,1,20,0,0
28817,-100,4,2,1,50,0,0
33789,-100,4,2,2,50,0,0
33960,-100,4,2,1,50,0,0
44246,-100,4,2,2,40,0,0
44331,-100,4,2,1,50,0,0
56160,-100,4,2,1,20,0,0
56246,-100,4,2,3,50,0,0
61731,-100,4,2,3,65,0,0
62417,-100,4,2,3,67,0,0
63103,-100,4,2,3,69,0,0
63789,-100,4,2,3,71,0,0
64474,-100,4,2,3,73,0,0
65160,-100,4,2,3,75,0,0
65846,-100,4,2,3,60,0,0
66189,-100,4,2,1,60,0,0
67217,-100,4,2,4,75,0,1
78446,-100,4,2,4,40,0,1
78531,-100,4,2,4,75,0,1
86417,-100,4,2,3,75,0,1
87789,-100,4,2,4,75,0,1
88303,-100,4,2,3,75,0,1
88817,-100,4,2,4,75,0,1
88989,-100,4,2,4,75,0,0
89160,-100,4,2,4,75,0,1
89417,-100,4,2,4,40,0,1
89503,-100,4,2,4,75,0,1
96274,-100,4,2,4,40,0,1
96360,-100,4,2,4,75,0,1
101760,-100,4,2,4,40,0,1
101846,-100,4,2,4,75,0,1
108360,-100,4,2,3,75,0,1
109731,-100,4,2,4,75,0,1
110246,-100,4,2,3,75,0,1
110760,-100,4,2,4,75,0,1
111103,-100,4,2,4,60,0,0
133046,-100,4,2,1,50,0,0
138017,-100,4,2,2,50,0,0
138189,-100,4,2,1,50,0,0
138446,-100,4,2,1,20,0,0
138531,-100,4,2,1,50,0,0
141189,-100,4,2,1,20,0,0
141274,-100,4,2,1,50,0,0
143503,-100,4,2,2,50,0,0
143674,-100,4,2,1,50,0,0
148989,-100,4,2,2,50,0,0
149160,-100,4,2,1,50,0,0
154474,-100,4,2,2,50,0,0
154989,-100,4,2,1,50,0,0

[Colours]
Combo1 : 222,227,155
Combo2 : 97,179,205
Combo3 : 192,192,192
Combo4 : 205,97,61

[HitObjects]
48,44,23331,6,0,L|44:140,1,90,6|0,0:0|0:0,0:0:0:0:
100,204,24017,2,0,P|144:212|204:192,1,90,10|0,0:0|0:0,0:0:0:0:
208,112,24703,2,0,P|296:64|364:112,1,180,2|8,3:2|0:0,0:0:0:0:
424,268,26074,6,0,L|428:372,2,90,2|0|8,3:2|0:0|0:0,0:0:0:0:
464,188,27103,2,0,L|280:176,1,180,2|0,0:0|0:0,0:0:0:0:
220,112,28131,2,0,L|116:116,1,90,8|0,0:0|0:0,0:0:0:0:
72,184,28817,6,0,P|64:232|76:280,2,90,2|0|10,3:2|0:0|0:0,0:0:0:0:
152,228,29846,1,0,0:0:0:0:
152,320,30189,2,0,P|200:340|300:268,1,180,2|8,3:2|0:0,0:0:0:0:
200,124,31560,6,0,P|164:128|108:112,1,90,2|0,3:2|0:0,0:0:0:0:
164,40,32246,1,10,0:0:0:0:
252,52,32589,2,0,L|436:48,1,180,2|0,0:0|0:0,0:0:0:0:
468,128,33617,2,0,P|456:176|476:228,1,90,8|0,0:0|0:0,0:0:0:0:
488,300,34303,5,6,0:0:0:0:
412,348,34646,2,0,P|372:356|324:344,1,90,0|10,0:0|0:0,0:0:0:0:
248,296,35331,1,2,0:0:0:0:
168,332,35674,2,0,L|60:336,2,90,2|0|8,3:2|0:0|0:0,0:0:0:0:
328,248,37046,6,0,L|428:252,1,90,2|0,3:2|0:0,0:0:0:0:
484,192,37731,1,10,0:0:0:0:
412,140,38074,2,0,P|324:156|248:92,1,180,2|0,0:0|0:0,0:0:0:0:
184,48,39103,1,8,0:0:0:0:
108,96,39446,1,0,0:0:0:0:
172,160,39789,6,0,P|180:208|176:264,1,90,2|0,3:2|0:0,0:0:0:0:
128,324,40474,2,0,P|168:336|228:324,1,90,10|2,0:0|0:0,0:0:0:0:
272,260,41160,2,0,L|468:252,1,180,2|8,3:2|0:0,0:0:0:0:
496,176,42189,1,0,0:0:0:0:
424,124,42531,6,0,P|372:136|288:92,2,135,2|0|2,3:2|0:0|0:0,0:0:0:0:
372,48,43903,1,0,3:0:0:0:
288,208,44589,2,0,P|276:256|280:296,1,90,8|0,0:0|0:0,0:0:0:0:
360,260,45274,5,4,0:0:0:0:
168,288,54874,6,0,P|128:296|72:276,1,90,0|8,3:0|0:0,0:0:0:0:
40,200,55560,2,0,L|48:96,1,90,0|8,0:0|0:0,0:0:0:0:
124,60,56246,6,0,P|208:88|284:28,1,180,4|0,0:0|0:0,0:0:0:0:
368,52,57274,1,8,0:0:0:0:
424,120,57617,2,0,L|432:212,1,90,0|8,3:0|0:0,0:0:0:0:
408,296,58303,1,0,0:0:0:0:
324,268,58646,1,8,0:0:0:0:
268,336,58989,6,0,P|216:348|168:336,1,90,0|8,3:0|0:0,0:0:0:0:
100,300,59674,2,0,L|112:200,1,90,0|8,0:0|0:0,0:0:0:0:
168,144,60360,2,0,L|160:48,2,90,0|8|8,0:0|0:0|0:0,0:0:0:0:
244,192,61389,1,8,0:0:0:0:
312,136,61731,6,0,P|368:128|412:140,1,90,6|8,0:0|0:0,0:0:0:0:
460,204,62417,2,0,L|452:304,1,90,2|8,0:0|0:0,0:0:0:0:
372,336,63103,2,0,P|324:344|276:324,1,90,8|8,0:0|0:0,0:0:0:0:
211,277,63789,1,8,0:0:0:0:
244,192,64131,1,8,0:0:0:0:
256,192,64474,12,2,65846,0:0:0:0:
216,328,67217,6,0,P|176:336|112:312,2,90,4|0|0,0:0|0:0|0:0,0:0:0:0:
292,276,68246,1,8,0:0:0:0:
380,292,68589,2,0,L|376:188,1,90,2|8,0:0|0:0,0:0:0:0:
420,124,69274,1,0,0:0:0:0:
344,72,69617,1,8,0:0:0:0:
296,148,69960,6,0,P|256:156|200:136,1,90,2|8,0:0|0:0,0:0:0:0:
132,96,70646,2,0,L|36:100,1,90,0|8,0:0|0:0,0:0:0:0:
12,184,71331,2,0,P|8:240|20:284,2,90,2|8|0,0:0|0:0|0:0,0:0:0:0:
96,220,72360,1,8,0:0:0:0:
172,268,72703,6,0,L|272:264,1,90,2|8,0:0|0:0,0:0:0:0:
324,200,73389,2,0,P|336:152|324:100,1,90,0|8,0:0|0:0,0:0:0:0:
252,64,74074,1,2,0:0:0:0:
332,20,74417,2,0,L|432:28,1,90,8|0,0:0|0:0,0:0:0:0:
488,88,75103,1,8,0:0:0:0:
436,160,75446,6,0,P|424:224|436:260,1,90,2|8,0:0|0:0,0:0:0:0:
392,328,76131,2,0,P|440:336|484:320,2,90,0|8|2,0:0|0:0|0:0,0:0:0:0:
312,288,77160,1,8,0:0:0:0:
236,336,77503,2,0,L|140:340,1,90,0|8,0:0|0:0,0:0:0:0:
64,300,78189,6,0,P|48:256|64:200,1,90,2|8,0:0|0:0,0:0:0:0:
144,208,78874,1,0,0:0:0:0:
216,152,79217,1,8,0:0:0:0:
304,168,79560,2,0,L|404:172,2,90,2|8|0,0:0|0:0|0:0,0:0:0:0:
276,80,80589,1,8,0:0:0:0:
188,68,80931,6,0,L|80:72,1,90,2|8,0:0|0:0,0:0:0:0:
60,152,81617,1,0,0:0:0:0:
120,216,81960,1,8,0:0:0:0:
92,300,82303,2,0,P|48:308|-4:292,2,90,2|8|0,0:0|0:0|0:0,0:0:0:0:
180,280,83331,1,8,0:0:0:0:
244,344,83674,6,0,L|348:340,1,90,2|8,0:0|0:0,0:0:0:0:
408,288,84360,2,0,P|416:256|400:188,1,90,0|8,0:0|0:0,0:0:0:0:
344,136,85046,1,2,0:0:0:0:
252,136,85389,2,0,L|248:27,2,90,8|0|8,0:0|0:0|0:0,0:0:0:0:
196,204,86417,6,0,P|152:212|104:200,1,90,2|8,0:0|0:0,0:0:0:0:
64,124,87103,2,0,L|76:28,1,90,8|8,0:0|0:0,0:0:0:0:
164,52,87789,2,0,B|256:48|256:48|336:80|336:80|448:76,1,270,2|8,0:0|0:0,0:0:0:0:
464,160,89160,6,0,P|456:204|464:256,1,90,4|8,0:0|0:0,0:0:0:0:
476,336,89846,2,0,P|436:348|380:336,1,90,0|8,0:0|0:0,0:0:0:0:
312,296,90531,1,2,0:0:0:0:
272,216,90874,2,0,L|284:120,1,90,8|0,0:0|0:0,0:0:0:0:
196,96,91560,1,8,0:0:0:0:
136,164,91903,6,0,P|92:176|16:136,2,135,2|0|8,0:0|0:0|0:0,0:0:0:0:
180,244,93274,2,0,L|184:344,1,90,2|8,0:0|0:0,0:0:0:0:
272,348,93960,2,0,P|324:356|368:336,1,90,0|8,0:0|0:0,0:0:0:0:
440,304,94646,5,2,0:0:0:0:
416,216,94989,2,0,L|420:112,2,90,8|0|8,0:0|0:0|0:0,0:0:0:0:
332,248,96017,2,0,P|284:256|236:232,1,90,2|8,0:0|0:0,0:0:0:0:
192,168,96703,1,0,0:0:0:0:
256,108,97046,1,8,0:0:0:0:
336,152,97389,6,0,P|392:168|464:132,2,135,2|0|8,0:0|0:0|0:0,0:0:0:0:
256,108,98760,1,2,0:0:0:0:
196,40,99103,2,0,P|148:32|100:48,1,90,8|0,0:0|0:0,0:0:0:0:
124,132,99789,1,8,0:0:0:0:
40,168,100131,6,0,L|44:268,1,90,2|8,0:0|0:0,0:0:0:0:
116,316,100817,2,0,P|164:320|216:300,1,90,0|8,0:0|0:0,0:0:0:0:
252,232,101503,2,0,L|248:128,2,90,2|8|0,0:0|0:0|0:0,0:0:0:0:
320,288,102531,1,8,0:0:0:0:
392,236,102874,6,0,P|452:252|516:224,2,135,2|0|8,0:0|0:0|0:0,0:0:0:0:
344,160,104246,1,2,0:0:0:0:
408,96,104589,1,8,0:0:0:0:
332,48,104931,2,0,L|224:44,1,90,0|8,0:0|0:0,0:0:0:0:
156,76,105617,1,2,0:0:0:0:
64,76,105960,1,8,0:0:0:0:
52,164,106303,6,0,B|120:192|160:136|236:168,1,180,0|2,0:0|0:0,0:0:0:0:
184,244,107331,1,8,0:0:0:0:
264,288,107674,2,0,P|308:296|364:276,1,90,0|8,0:0|0:0,0:0:0:0:
396,204,108360,6,0,L|400:108,1,90,2|8,0:0|0:0,0:0:0:0:
332,52,109046,1,0,0:0:0:0:
252,96,109389,1,8,0:0:0:0:
168,60,109731,2,0,P|124:72|68:60,2,90,2|8|8,0:0|0:0|0:0,0:0:0:0:
244,8,110760,1,8,0:0:0:0:
252,96,111103,5,4,0:0:0:0:
352,304,133046,6,0,P|408:312|452:288,1,90,4|0,0:0|0:0,0:0:0:0:
476,220,133731,2,0,L|484:116,1,90,10|0,0:0|0:0,0:0:0:0:
412,76,134417,2,0,P|328:96|252:40,1,180,2|8,3:2|0:0,0:0:0:0:
80,88,135789,6,0,P|68:144|76:176,2,90,2|0|10,3:2|0:0|0:0,0:0:0:0:
160,132,136817,2,0,L|172:324,1,180,2|0,0:0|0:0,0:0:0:0:
256,344,137846,2,0,P|304:352|348:336,1,90,8|0,0:0|0:0,0:0:0:0:
408,276,138531,6,0,L|504:288,2,90,2|0|8,3:2|0:0|0:0,0:0:0:0:
352,204,139560,1,0,0:0:0:0:
268,232,139903,2,0,B|212:204|136:260|84:224,1,180,2|8,3:2|0:0,0:0:0:0:
132,148,140931,1,0,0:0:0:0:
56,100,141274,6,0,P|44:52|52:12,2,90,2|0|10,3:2|0:0|0:0,0:0:0:0:
136,56,142303,2,0,L|324:64,1,180,2|0,0:0|0:0,0:0:0:0:
384,120,143331,1,8,0:0:0:0:
320,184,143674,1,0,0:0:0:0:
392,236,144017,6,0,P|400:280|396:328,1,90,6|0,0:0|0:0,0:0:0:0:
308,336,144703,2,0,P|252:328|208:336,1,90,10|0,0:0|0:0,0:0:0:0:
136,364,145389,2,0,L|128:168,1,180,2|8,3:2|0:0,0:0:0:0:
188,116,146417,1,0,0:0:0:0:
272,152,146760,6,0,L|276:248,2,90,2|0|8,0:2|0:0|0:0,0:0:0:0:
328,84,147789,2,0,P|368:72|424:84,1,90,0|0,0:0|3:0,0:0:0:0:
476,148,148474,1,0,0:0:0:0:
428,224,148817,2,0,L|424:324,1,90,8|0,0:0|0:0,0:0:0:0:
344,352,149503,6,0,P|304:360|252:336,1,90,2|0,3:2|0:0,0:0:0:0:
224,260,150189,2,0,P|232:212|220:164,1,90,10|0,0:0|0:0,0:0:0:0:
148,120,150874,2,0,P|64:140|-4:64,1,180,2|8,3:2|0:0,0:0:0:0:
88,52,151903,1,0,0:0:0:0:
176,36,152246,6,0,L|312:44,2,135,2|0|0,3:2|0:0|3:0,0:0:0:0:
148,120,153617,1,0,3:0:0:0:
256,264,154303,2,0,P|268:320|260:360,1,90,8|0,0:0|0:0,0:0:0:0:
180,316,154989,5,4,0:0:0:0:
