osu file format v14

[General]
AudioFilename: Feint - Vagrant (Feat. Veela).mp3
AudioLeadIn: 0
PreviewTime: 89288
Countdown: 0
SampleSet: Soft
StackLeniency: 0.7
Mode: 0
LetterboxInBreaks: 0
WidescreenStoryboard: 0

[Editor]
Bookmarks: 23355,45297,64497
DistanceSpacing: 1.3
BeatDivisor: 4
GridSize: 4
TimelineZoom: 1.7

[Metadata]
Title:Vagrant (feat. Veela)
TitleUnicode:Vagrant (feat. Veela)
Artist:Feint
ArtistUnicode:Feint
Creator:Aia
Version:Noz's Insane
Source:
Tags:dnb drum and bass liquicity alchemy cut version nozhomi
BeatmapID:801054
BeatmapSetID:354537

[Difficulty]
HPDrainRate:6.7
CircleSize:4
OverallDifficulty:7.7
ApproachRate:9
SliderMultiplier:1.6
SliderTickRate:1

[Events]
//Background and Video events
0,0,"BG.jpg",0,0
//Break Periods
2,45602,54402
//Storyboard Layer 0 (Background)
//Storyboard Layer 1 (Fail)
//Storyboard Layer 2 (Pass)
//Storyboard Layer 3 (Foreground)
//Storyboard Sound Samples

[TimingPoints]
23460,342.857142857143,4,2,0,60,1,0
23460,-133.333333333333,4,2,0,60,0,0
56374,-100,4,2,0,40,0,0
61860,-100,4,2,0,50,0,0
63231,-100,4,3,0,60,0,0
64602,-100,4,2,0,70,0,0
67345,-83.3333333333333,4,2,0,80,0,1
78145,-83.3333333333333,4,2,0,80,0,0
78317,-83.3333333333333,4,2,0,80,0,1
89117,-83.3333333333333,4,2,0,80,0,0
89288,-83.3333333333333,4,2,0,80,0,1
100088,-83.3333333333333,4,2,0,80,0,0
100260,-83.3333333333333,4,2,0,80,0,1
111231,-100,4,2,0,60,0,0

[Colours]
Combo1 : 220,193,114
Combo2 : 0,0,160
Combo3 : 128,128,128
Combo4 : 128,64,0

[HitObjects]
128,104,23460,6,0,P|103:157|127:210,1,120.000004577637,2|0,0:0|0:0,0:0:0:0:
224,316,24145,1,8,0:0:0:0:
408,224,24488,2,0,B|268:216,1,120.000004577637,0|2,0:0|0:0,0:0:0:0:
288,217,25517,1,8,0:0:0:0:
40,68,26202,6,0,B|159:74,1,120.000004577637,2|0,0:0|0:0,0:0:0:0:
280,152,26888,1,8,0:0:0:0:
176,328,27231,2,0,P|136:280|136:208,1,120.000004577637,0|2,0:0|0:0,0:0:0:0:
184,92,27917,1,0,0:0:0:0:
360,204,28260,2,0,B|407:226|407:226|474:214,1,120.000004577637,8|0,0:0|0:0,0:0:0:0:
428,76,28945,5,2,0:0:0:0:
360,204,29288,1,0,0:0:0:0:
284,84,29631,1,8,0:0:0:0:
428,76,29974,1,0,0:0:0:0:
283,267,30317,2,0,P|218:175|283:84,1,240.000009155274,2|8,0:0|0:0,0:0:0:0:
464,312,31517,1,0,0:0:0:0:
464,312,31688,6,0,L|332:328,1,120.000004577637,2|0,0:0|0:0,0:0:0:0:
214,253,32374,1,8,0:0:0:0:
292,380,32717,1,0,0:0:0:0:
104,287,33060,2,0,P|154:256|213:252,1,120.000004577637,2|0,0:0|0:0,0:0:0:0:
352,292,33745,1,8,0:0:0:0:
211,312,34088,2,0,L|214:253,1,60.0000022888184
224,180,34431,6,0,B|272:196|272:196|352:188,2,120.000004577637,2|0|8,0:0|0:0|0:0,0:0:0:0:
112,88,35460,1,0,0:0:0:0:
304,20,35802,1,2,0:0:0:0:
224,180,36145,2,0,B|189:239,1,60.0000022888184
157,294,36488,1,8,0:0:0:0:
112,228,37174,6,0,B|172:124,1,120.000004577637,2|0,0:0|0:0,0:0:0:0:
296,52,37860,1,8,0:0:0:0:
444,192,38202,2,0,P|390:214|336:192,1,120.000004577637,0|2,0:0|0:0,0:0:0:0:
272,156,38717,1,2,0:0:0:0:
332,116,38888,1,0,0:0:0:0:
352,308,39231,2,0,L|358:367,2,60.0000022888184,8|2|0,0:0|0:0|0:0,0:0:0:0:
344,236,39745,1,8,3:0:0:0:
272,156,39917,6,0,L|257:275,1,120.000004577637,2|0,0:0|0:0,0:0:0:0:
226,100,40602,2,0,P|282:84|332:116,1,120.000004577637,8|0,0:0|0:0,0:0:0:0:
200,292,41288,2,0,B|165:241|195:181|195:181|163:168|132:135|141:80,1,240.000009155274,2|8,0:0|0:0,0:0:0:0:
276,32,42317,1,0,0:0:0:0:
472,128,42660,6,0,B|424:152|424:152|296:136,1,180.000006866455,2|0,0:0|0:0,0:0:0:0:
207,116,43345,2,0,P|197:143|196:173,1,60.0000022888184,8|0,0:0|0:0,0:0:0:0:
216,268,43688,2,0,P|215:297|204:325,1,60.0000022888184
112,352,44031,5,0,0:0:0:0:
112,352,44202,2,0,L|88:164,1,180.000006866455,2|8,0:0|0:0,0:0:0:0:
84,84,44888,2,0,B|80:56|80:56|128:80|176:76,1,120.000004577637,2|8,0:0|3:0,0:0:0:0:
264,64,45402,5,4,0:0:0:0:
199,245,55002,6,0,P|174:192|198:139,1,120.000004577637,2|8,0:0|0:0,0:0:0:0:
313,138,55517,2,0,P|337:191|313:245,1,120.000004577637,2|2,0:0|0:0,0:0:0:0:
256,316,56031,1,8,0:0:0:0:
199,245,56202,1,0,0:0:0:0:
313,245,56374,6,0,L|472:256,1,160,2|2,3:0|0:0,0:0:0:0:
428,176,56888,1,0,0:0:0:0:
332,168,57060,2,0,L|252:160,1,80,0|2,0:0|0:0,0:0:0:0:
136,188,57402,1,2,0:0:0:0:
312,321,57745,6,0,P|322:283|313:245,1,80,2|0,0:0|0:0,0:0:0:0:
284,152,58088,2,0,P|273:113|283:75,1,80,2|0,0:0|0:0,0:0:0:0:
356,12,58431,1,2,0:0:0:0:
428,120,58602,1,2,0:0:0:0:
428,120,58774,2,0,L|349:114,1,80,2|0,0:0|0:0,0:0:0:0:
212,88,59117,6,0,B|180:76|180:76|208:224,1,160,2|2,0:0|0:0,0:0:0:0:
220,296,59631,1,0,0:0:0:0:
292,236,59802,2,0,L|364:196,1,80
384,292,60145,2,0,L|314:330,1,80,2|0,0:0|0:0,0:0:0:0:
188,360,60488,6,0,P|147:295|188:231,1,160,2|2,0:0|0:0,0:0:0:0:
396,136,61174,2,0,L|220:108,1,160,2|2,0:0|0:0,0:0:0:0:
141,253,61860,6,0,P|155:290|192:304,1,80,4|0,3:0|0:0,0:0:0:0:
320,304,62202,2,0,P|356:290|370:253,1,80,4|0,3:0|0:0,0:0:0:0:
370,130,62545,2,0,P|356:93|320:80,1,80,4|0,3:0|0:0,0:0:0:0:
192,79,62888,2,0,P|155:93|142:130,1,80,4|0,3:0|0:0,0:0:0:0:
232,280,63231,5,4,3:0:0:0:
343,217,63402,1,4,3:0:0:0:
281,105,63574,1,4,3:0:0:0:
169,168,63745,1,4,3:0:0:0:
320,304,63917,1,4,3:0:0:0:
370,130,64088,1,4,3:0:0:0:
192,79,64260,1,4,3:0:0:0:
141,253,64431,1,4,3:0:0:0:
48,104,64602,6,0,L|96:92,3,40,0|0|0|0,1:0|1:0|1:0|1:0,1:0:0:0:
116,84,64945,5,0,1:0:0:0:
148,76,65031,1,0,1:0:0:0:
180,68,65117,1,0,1:0:0:0:
212,60,65202,1,0,1:0:0:0:
244,48,65288,2,0,L|228:88,3,40,0|0|0|0,1:0|1:0|1:0|1:0,1:0:0:0:
220,116,65631,5,0,1:0:0:0:
224,148,65717,1,0,1:0:0:0:
244,172,65802,1,0,1:0:0:0:
272,184,65888,1,0,1:0:0:0:
304,180,65974,5,2,0:0:0:0:
416,88,66145,1,0,0:0:0:0:
280,36,66317,1,0,1:0:0:0:
304,180,66488,1,0,0:0:0:0:
416,272,66660,1,2,0:0:0:0:
280,324,66831,1,0,0:0:0:0:
304,180,67002,1,0,1:0:0:0:
308,184,67088,1,0,1:0:0:0:
312,188,67174,1,0,1:0:0:0:
316,192,67260,1,0,1:0:0:0:
320,196,67345,6,0,B|348:152|348:152|204:184,1,191.999994140625,4|0,0:0|1:0,0:0:0:0:
100,216,67860,1,0,0:0:0:0:
124,104,68031,1,0,0:0:0:0:
211,182,68202,1,2,0:0:0:0:
43,267,68374,2,0,P|24:224|34:178,1,95.9999970703126,0|0,1:0|0:0,0:0:0:0:
136,28,68717,5,0,3:0:0:0:
224,104,68888,1,0,0:0:0:0:
328,28,69060,2,0,B|376:19|376:19|364:65,1,95.9999970703126,0|0,1:0|0:0,0:0:0:0:
247,219,69402,2,0,B|198:227|198:227|210:181,1,95.9999970703126,0|2,0:0|0:0,0:0:0:0:
252,32,69745,1,0,1:0:0:0:
392,164,69917,1,0,0:0:0:0:
272,312,70088,6,0,B|252:336|212:356|212:356|328:340,1,191.999994140625,0|0,3:0|1:0,0:0:0:0:
440,312,70602,1,0,0:0:0:0:
340,222,70774,1,0,0:0:0:0:
488,184,70945,1,2,0:0:0:0:
360,52,71117,1,0,1:0:0:0:
256,100,71288,1,0,0:0:0:0:
152,52,71460,6,0,L|128:148,1,95.9999970703126,0|2,0:0|0:0,0:0:0:0:
256,232,71802,2,0,L|279:325,1,95.9999970703126,0|0,1:0|0:0,0:0:0:0:
128,312,72145,1,0,0:0:0:0:
263,239,72317,1,0,3:0:0:0:
263,239,72402,1,0,3:0:0:0:
263,239,72488,1,0,1:0:0:0:
384,312,72660,1,2,0:0:0:0:
342,135,72831,6,0,B|256:93|256:93|170:135,1,191.999994140625,0|0,3:0|1:0,0:0:0:0:
72,196,73345,1,0,0:0:0:0:
172,252,73517,1,0,0:0:0:0:
169,135,73688,1,2,0:0:0:0:
8,248,73860,2,0,P|56:277|104:272,1,95.9999970703126,0|0,1:0|0:0,0:0:0:0:
244,192,74202,5,0,3:0:0:0:
272,80,74373,1,0,0:0:0:0:
136,20,74545,1,0,1:0:0:0:
169,135,74716,1,0,0:0:0:0:
272,80,74888,1,0,0:0:0:0:
374,135,75059,1,2,0:0:0:0:
258,286,75231,2,0,L|244:192,1,95.9999970703126,0|0,1:0|0:0,0:0:0:0:
304,28,75574,6,0,B|333:217,1,191.999994140625,0|0,3:0|1:0,0:0:0:0:
412,300,76088,1,0,0:0:0:0:
499,223,76260,2,0,P|463:193|417:182,1,95.9999970703126,0|2,0:0|0:0,0:0:0:0:
308,220,76602,1,0,1:0:0:0:
328,108,76774,1,0,0:0:0:0:
417,182,76945,5,0,0:0:0:0:
412,300,77117,1,2,0:0:0:0:
308,220,77288,1,0,1:0:0:0:
303,338,77460,1,0,0:0:0:0:
208,276,77631,1,0,0:0:0:0:
180,144,77802,1,0,3:0:0:0:
180,144,77888,1,0,3:0:0:0:
180,144,77974,1,0,1:0:0:0:
308,220,78145,1,2,0:0:0:0:
456,96,78317,6,0,B|392:116|392:116|265:70,1,191.999994140625,0|0,3:0|1:0,0:0:0:0:
168,28,78831,1,0,0:0:0:0:
180,144,79002,2,0,L|289:184,1,95.9999970703126,0|2,0:0|0:0,0:0:0:0:
380,216,79345,1,0,1:0:0:0:
292,292,79517,1,0,0:0:0:0:
270,177,79688,5,0,3:0:0:0:
184,100,79860,1,0,0:0:0:0:
132,264,80031,1,0,1:0:0:0:
244,292,80202,1,0,0:0:0:0:
274,181,80374,1,0,0:0:0:0:
274,181,80545,1,2,0:0:0:0:
388,312,80717,1,0,1:0:0:0:
468,228,80888,1,0,0:0:0:0:
404,76,81060,6,0,B|380:44|380:44|364:208,1,191.999994140625,0|0,3:0|1:0,0:0:0:0:
292,284,81574,1,0,0:0:0:0:
196,220,81745,2,0,P|184:168|208:120,1,95.9999970703126,0|2,0:0|0:0,0:0:0:0:
352,160,82088,2,0,L|257:177,1,95.9999970703126,0|0,1:0|0:0,0:0:0:0:
197,300,82431,6,0,L|292:284,1,95.9999970703126,0|2,0:0|0:0,0:0:0:0:
404,264,82774,1,0,1:0:0:0:
368,372,82945,1,0,0:0:0:0:
291,284,83117,1,0,0:0:0:0:
480,252,83288,1,0,3:0:0:0:
480,252,83374,1,0,3:0:0:0:
480,252,83460,1,0,1:0:0:0:
416,156,83631,1,2,0:0:0:0:
268,68,83802,6,0,B|228:45|228:45|312:65|376:53,1,191.999994140625,0|0,3:0|1:0,0:0:0:0:
484,24,84317,1,0,0:0:0:0:
436,128,84488,2,0,P|386:143|336:144,1,95.9999970703126,0|2,0:0|0:0,0:0:0:0:
228,128,84831,1,0,1:0:0:0:
276,232,85002,1,0,0:0:0:0:
316,340,85174,5,0,3:0:0:0:
184,328,85345,1,0,0:0:0:0:
276,232,85517,1,0,1:0:0:0:
408,244,85688,1,0,0:0:0:0:
316,340,85860,1,0,0:0:0:0:
252,160,86031,1,2,0:0:0:0:
156,96,86202,1,0,1:0:0:0:
148,212,86374,1,0,0:0:0:0:
255,342,86545,5,0,3:0:0:0:
362,298,86716,1,0,3:0:0:0:
406,192,86888,1,0,3:0:0:0:
362,85,87059,1,0,3:0:0:0:
256,41,87230,1,0,3:0:0:0:
149,85,87402,1,0,3:0:0:0:
105,191,87573,1,0,3:0:0:0:
149,298,87745,1,0,3:0:0:0:
256,188,87917,5,0,3:0:0:0:
369,305,88088,1,0,3:0:0:0:
369,305,88174,1,0,3:0:0:0:
369,305,88260,1,0,1:0:0:0:
149,298,88431,5,0,3:0:0:0:
117,320,88517,1,0,3:0:0:0:
79,324,88602,1,0,3:0:0:0:
42,312,88688,1,0,3:0:0:0:
15,283,88774,1,0,3:0:0:0:
5,245,88860,1,0,3:0:0:0:
12,206,88945,2,0,P|58:205|91:239,1,95.9999970703126,0|2,1:0|0:0,0:0:0:0:
171,375,89288,6,0,P|149:285|203:210,1,191.999994140625,4|0,0:0|1:0,0:0:0:0:
312,168,89802,1,0,0:0:0:0:
292,284,89974,1,0,0:0:0:0:
204,210,90145,1,2,0:0:0:0:
232,56,90317,1,0,1:0:0:0:
348,48,90488,1,0,0:0:0:0:
312,168,90660,6,0,P|355:184|397:164,1,95.9999970703126,0|0,3:0|0:0,0:0:0:0:
232,56,91002,2,0,P|188:39|146:59,1,95.9999970703126,0|0,1:0|0:0,0:0:0:0:
96,164,91345,2,0,L|116:264,1,95.9999970703126,0|2,0:0|0:0,0:0:0:0:
192,344,91688,1,0,1:0:0:0:
292,284,91860,1,0,0:0:0:0:
392,344,92031,6,0,P|452:296|428:188,1,191.999994140625,0|0,3:0|1:0,0:0:0:0:
320,160,92546,2,0,L|208:185,1,95.9999970703126
116,208,92888,1,2,0:0:0:0:
44,40,93060,1,0,1:0:0:0:
140,100,93231,1,0,0:0:0:0:
115,208,93402,6,0,P|99:252|114:297,1,95.9999970703126,0|2,0:0|0:0,0:0:0:0:
212,360,93745,1,0,1:0:0:0:
296,280,93917,1,0,0:0:0:0:
224,192,94088,1,0,0:0:0:0:
384,116,94260,1,0,3:0:0:0:
384,116,94345,1,0,3:0:0:0:
384,116,94431,1,0,1:0:0:0:
392,288,94602,1,2,0:0:0:0:
224,192,94774,5,0,3:0:0:0:
224,192,95117,1,0,1:0:0:0:
160,288,95288,1,0,0:0:0:0:
96,192,95460,2,0,P|81:152|101:99,1,95.9999970703126,0|2,0:0|0:0,0:0:0:0:
216,244,95802,2,0,P|231:284|211:337,1,95.9999970703126,0|0,1:0|0:0,0:0:0:0:
108,372,96145,5,0,3:0:0:0:
56,268,96317,1,0,0:0:0:0:
164,140,96488,1,0,1:0:0:0:
216,244,96660,1,0,0:0:0:0:
268,344,96831,1,0,0:0:0:0:
372,292,97002,1,2,0:0:0:0:
216,244,97174,1,0,1:0:0:0:
372,292,97345,1,0,0:0:0:0:
184,164,97517,6,0,P|131:249|188:324,1,191.999994140625,0|0,3:0|1:0,0:0:0:0:
288,300,98031,2,0,P|333:288|377:305,2,95.9999970703126,0|0|2,0:0|0:0|0:0,0:0:0:0:
432,356,98545,2,0,P|450:319|431:257,1,95.9999970703126,0|0,1:0|0:0,0:0:0:0:
360,180,98888,2,0,L|240:196,1,95.9999970703126,0|2,0:0|0:0,0:0:0:0:
156,160,99231,1,0,1:0:0:0:
236,80,99402,1,0,0:0:0:0:
264,192,99574,5,0,0:0:0:0:
88,140,99745,1,0,3:0:0:0:
88,140,99831,1,0,3:0:0:0:
88,140,99917,1,0,1:0:0:0:
184,268,100088,1,2,0:0:0:0:
364,252,100260,6,0,B|404:224|404:224|264:192,1,191.999994140625,0|0,3:0|1:0,0:0:0:0:
184,268,100774,1,0,0:0:0:0:
136,164,100945,1,0,0:0:0:0:
52,244,101117,1,2,0:0:0:0:
20,76,101288,1,0,1:0:0:0:
136,164,101460,1,0,0:0:0:0:
252,80,101631,5,0,3:0:0:0:
344,152,101802,1,0,0:0:0:0:
368,40,101974,1,0,1:0:0:0:
452,120,102145,1,0,0:0:0:0:
384,216,102317,2,0,P|327:227|285:199,1,95.9999970703126,0|2,0:0|0:0,0:0:0:0:
236,60,102660,2,0,P|274:103|270:154,1,95.9999970703126,0|0,1:0|0:0,0:0:0:0:
92,236,103002,6,0,P|141:161|225:191,1,191.999994140625,0|0,3:0|1:0,0:0:0:0:
280,296,103517,1,0,0:0:0:0:
170,328,103688,2,0,L|166:232,1,95.9999970703126,0|2,0:0|0:0,0:0:0:0:
236,140,104031,2,0,L|240:236,1,95.9999970703126,0|0,1:0|0:0,0:0:0:0:
248,352,104374,6,0,P|296:372|360:352,2,95.9999970703126,0|2|0,0:0|0:0|1:0,0:0:0:0:
192,252,104888,1,0,0:0:0:0:
306,276,105060,1,0,0:0:0:0:
426,259,105231,1,0,3:0:0:0:
426,259,105317,1,0,3:0:0:0:
426,259,105403,1,0,1:0:0:0:
320,144,105574,1,2,0:0:0:0:
152,184,105745,6,0,P|83:144|153:107,1,191.999994140625,0|0,3:0|1:0,0:0:0:0:
244,176,106260,1,0,0:0:0:0:
128,264,106431,2,0,P|75:253|36:220,1,95.9999970703126,0|2,0:0|0:0,0:0:0:0:
204,252,106774,2,0,P|257:263|296:296,1,95.9999970703126,0|0,1:0|0:0,0:0:0:0:
376,364,107117,5,0,3:0:0:0:
396,252,107288,1,0,0:0:0:0:
431,144,107460,2,0,P|388:163|341:163,1,95.9999970703126,0|0,1:0|0:0,0:0:0:0:
188,84,107802,2,0,P|231:64|278:64,1,95.9999970703126,0|2,0:0|0:0,0:0:0:0:
431,144,108145,1,0,1:0:0:0:
300,224,108316,1,0,0:0:0:0:
120,156,108488,5,0,3:0:0:0:
128,164,108660,1,0,3:0:0:0:
256,336,108831,1,0,3:0:0:0:
264,328,109002,1,0,3:0:0:0:
384,164,109174,1,0,3:0:0:0:
392,156,109346,1,0,3:0:0:0:
256,40,109517,1,0,3:0:0:0:
256,52,109688,1,0,3:0:0:0:
256,224,109860,5,0,3:0:0:0:
104,296,110031,1,0,3:0:0:0:
104,296,110117,1,0,3:0:0:0:
104,296,110202,1,0,1:0:0:0:
187,148,110374,5,0,3:0:0:0:
215,130,110460,1,0,3:0:0:0:
247,121,110545,1,0,3:0:0:0:
280,125,110631,1,0,3:0:0:0:
310,138,110717,1,0,3:0:0:0:
335,158,110802,1,0,3:0:0:0:
350,187,110888,2,0,P|346:233|372:273,1,95.9999970703126,0|0,1:0|3:0,0:0:0:0:
468,144,111231,5,4,0:0:0:0:
