osu file format v14

[General]
AudioFilename: Feint - Vagrant (Feat. Veela).mp3
AudioLeadIn: 0
PreviewTime: 89288
Countdown: 0
SampleSet: Soft
StackLeniency: 0.7
Mode: 0
LetterboxInBreaks: 0
WidescreenStoryboard: 0

[Editor]
Bookmarks: 45360,64560
DistanceSpacing: 1
BeatDivisor: 4
GridSize: 4
TimelineZoom: 2.799999

[Metadata]
Title:Vagrant (feat. Veela)
TitleUnicode:Vagrant (feat. Veela)
Artist:Feint
ArtistUnicode:Feint
Creator:Aia
Version:Easy
Source:
Tags:dnb drum and bass liquicity alchemy cut version nozhomi
BeatmapID:783398
BeatmapSetID:354537

[Difficulty]
HPDrainRate:2
CircleSize:3
OverallDifficulty:2
ApproachRate:3.4
SliderMultiplier:0.8
SliderTickRate:1

[Events]
//Background and Video events
0,0,"BG.jpg",0,0
//Break Periods
2,45602,54983
//Storyboard Layer 0 (Background)
//Storyboard Layer 1 (Fail)
//Storyboard Layer 2 (Pass)
//Storyboard Layer 3 (Foreground)
//Storyboard Sound Samples

[TimingPoints]
23460,342.857142857143,4,2,0,50,1,0
56374,-100,4,2,0,60,0,0
67345,-100,4,2,0,65,0,1
78145,-100,4,2,0,65,0,0
78317,-100,4,2,0,65,0,1
89117,-100,4,2,0,65,0,0
89288,-100,4,2,0,65,0,1
100088,-100,4,2,0,65,0,0
100260,-100,4,2,0,65,0,1
111231,-100,4,2,0,50,0,0

[Colours]
Combo1 : 220,193,114
Combo2 : 0,0,160
Combo3 : 128,128,128
Combo4 : 128,64,0

[HitObjects]
248,272,23460,6,0,P|168:265|113:200,1,160,0|8,0:0|0:0,0:0:0:0:
108,128,24488,1,0,0:0:0:0:
168,76,24831,2,0,L|341:62,1,160,0|8,0:0|0:0,0:0:0:0:
444,172,26202,6,0,L|438:287,1,80
460,328,26888,1,8,0:0:0:0:
384,312,27231,2,0,B|317:288|317:288|233:316|142:268,1,240,0|8,0:0|0:0,0:0:0:0:
40,160,28945,6,0,L|48:324,1,160,0|8,0:0|0:0,0:0:0:0:
120,356,29974,1,0,0:0:0:0:
184,308,30317,2,0,B|252:291|252:291|356:296,1,160,0|8,0:0|0:0,0:0:0:0:
488,236,31688,6,0,B|510:152|500:66,1,160,0|8,0:0|0:0,0:0:0:0:
432,40,32717,1,0,0:0:0:0:
375,96,33060,2,0,P|300:107|209:77,1,160,0|8,0:0|0:0,0:0:0:0:
124,212,34431,6,0,L|113:124,2,80,0|0|8,0:0|0:0|0:0,0:0:0:0:
168,280,35460,1,0,0:0:0:0:
244,260,35802,2,0,P|325:247|409:249,1,160,0|8,0:0|0:0,0:0:0:0:
360,96,37174,6,0,P|285:98|200:86,1,160,0|8,0:0|0:0,0:0:0:0:
128,116,38202,2,0,P|114:199|157:271,1,160
224,288,39231,2,0,P|259:272|305:261,1,80,8|0,0:0|0:0,0:0:0:0:
336,192,39917,6,0,P|377:184|426:162,1,80
456,104,40602,1,8,0:0:0:0:
388,64,40945,1,0,0:0:0:0:
312,84,41288,2,0,P|241:126|219:210,1,160,0|8,0:0|0:0,0:0:0:0:
312,328,42660,6,0,B|366:331|366:331|412:315|470:305,1,160,0|8,0:0|0:0,0:0:0:0:
509,236,43688,1,0,0:0:0:0:
448,184,44031,2,0,L|426:18,1,160,0|8,0:0|0:0,0:0:0:0:
292,116,45402,5,4,0:0:0:0:
304,68,56374,6,0,P|324:148|337:247,1,160,2|2,0:0|0:0,0:0:0:0:
316,304,57402,1,2,0:0:0:0:
236,320,57745,2,0,P|196:315|143:322,1,80
76,332,58431,2,0,L|88:244,1,80,0|2,0:0|0:0,0:0:0:0:
148,200,59117,6,0,B|211:211|211:211|308:196,1,160,0|2,0:0|0:0,0:0:0:0:
368,146,60145,1,2,0:0:0:0:
336,72,60488,2,0,P|295:64|244:67,1,80,2|0,0:0|0:0,0:0:0:0:
184,100,61174,2,0,P|144:100|104:92,1,80,2|0,0:0|0:0,0:0:0:0:
256,192,61860,12,0,65974,0:0:0:0:
388,40,67345,6,0,B|389:124|389:124|413:191|413:191|408:308,1,240,2|8,0:0|0:0,0:0:0:0:
352,332,68717,2,0,P|312:338|263:324,1,80,2|8,0:0|0:0,0:0:0:0:
212,276,69402,2,0,L|208:192,1,80,2|8,0:0|0:0,0:0:0:0:
232,120,70088,6,0,B|280:120|312:104|312:104|384:124|469:115,1,240,0|8,0:0|0:0,0:0:0:0:
500,192,71460,1,0,0:0:0:0:
504,272,71802,1,10,0:0:0:0:
468,344,72145,2,0,P|426:348|376:336,1,80,0|8,0:0|0:0,0:0:0:0:
336,280,72831,6,0,P|225:254|84:288,1,240,0|8,0:0|0:0,0:0:0:0:
27,252,74202,2,0,P|23:292|39:328,2,80,2|8|2,0:0|0:0|0:0,0:0:0:0:
84,196,75231,1,8,0:0:0:0:
164,204,75574,6,0,B|218:146|187:70|187:70|231:94|291:86,1,240,0|8,0:0|0:0,0:0:0:0:
340,140,76945,2,0,P|348:180|340:236,1,80,2|8,0:0|0:0,0:0:0:0:
308,288,77631,2,0,P|325:325|368:360,1,80,2|8,0:0|0:0,0:0:0:0:
432,344,78317,6,0,B|437:262|437:262|459:187|459:187|457:75,1,240,0|8,0:0|0:0,0:0:0:0:
380,84,79688,2,0,P|340:80|280:89,1,80,2|8,0:0|0:0,0:0:0:0:
271,158,80374,2,0,P|231:161|191:157,1,80,2|8,0:0|0:0,0:0:0:0:
112,172,81060,6,0,P|74:107|101:25,1,160
172,56,82088,1,8,0:0:0:0:
240,100,82431,2,0,P|280:104|341:96,1,80,2|8,0:0|0:0,0:0:0:0:
388,60,83117,2,0,P|400:101|375:159,1,80,2|8,0:0|0:0,0:0:0:0:
340,200,83802,6,0,P|429:201|511:225,1,160
496,300,84831,1,8,0:0:0:0:
420,328,85174,2,0,L|324:316,1,80,2|8,0:0|0:0,0:0:0:0:
272,276,85860,2,0,L|184:293,1,80,2|8,0:0|0:0,0:0:0:0:
140,232,86545,6,0,P|68:156|209:111,1,240,0|8,0:0|0:0,0:0:0:0:
216,124,87917,2,0,B|261:187|347:187|347:187|334:240|374:278,1,240,0|8,0:0|0:0,0:0:0:0:
424,214,89288,6,0,P|443:248|442:298,2,80,0|12|0,0:0|0:0|0:0,0:0:0:0:
380,144,90317,1,8,0:0:0:0:
412,70,90660,2,0,L|328:62,1,80,2|8,0:0|0:0,0:0:0:0:
260,96,91345,2,0,L|180:103,1,80,2|8,0:0|0:0,0:0:0:0:
110,143,92031,6,0,P|89:213|126:291,1,160
200,316,93060,1,8,0:0:0:0:
268,272,93402,2,0,L|264:180,1,80,2|8,0:0|0:0,0:0:0:0:
344,204,94088,2,0,L|340:112,1,80,2|8,0:0|0:0,0:0:0:0:
388,60,94774,6,0,B|336:69|336:69|290:67|290:67|214:78,1,160
164,124,95802,1,8,0:0:0:0:
144,200,96145,2,0,P|150:242|165:300,1,80,2|8,0:0|0:0,0:0:0:0:
224,324,96831,2,0,P|266:324|316:312,1,80,2|8,0:0|0:0,0:0:0:0:
364,264,97517,6,0,L|372:92,1,160
408,32,98545,1,8,0:0:0:0:
328,32,98888,2,0,P|288:31|225:56,1,80,2|8,0:0|0:0,0:0:0:0:
196,104,99574,2,0,P|157:114|117:113,1,80,2|8,0:0|0:0,0:0:0:0:
49,71,100260,6,0,L|57:267,1,160
112,288,101288,1,8,0:0:0:0:
180,248,101631,2,0,L|272:240,1,80,2|8,0:0|0:0,0:0:0:0:
336,264,102317,1,2,0:0:0:0:
415,279,102660,1,8,0:0:0:0:
452,208,103002,6,0,L|369:57,1,160
296,80,104031,1,8,0:0:0:0:
236,132,104374,2,0,L|265:220,1,80,2|8,0:0|0:0,0:0:0:0:
244,288,105060,2,0,L|302:344,1,80,2|8,0:0|0:0,0:0:0:0:
380,356,105745,1,4,0:0:0:0:
472,228,106431,5,2,0:0:0:0:
256,192,106517,12,0,111231,0:0:0:0:
