osu file format v14

[General]
AudioFilename: Feint - Vagrant (Feat. Veela).mp3
AudioLeadIn: 0
PreviewTime: 89288
Countdown: 0
SampleSet: Soft
StackLeniency: 0.7
Mode: 0
LetterboxInBreaks: 0
WidescreenStoryboard: 0

[Editor]
Bookmarks: 45360,64560
DistanceSpacing: 1.2
BeatDivisor: 4
GridSize: 4
TimelineZoom: 2.799999

[Metadata]
Title:Vagrant (feat. Veela)
TitleUnicode:Vagrant (feat. Veela)
Artist:Feint
ArtistUnicode:Feint
Creator:Aia
Version:Normal
Source:
Tags:dnb drum and bass liquicity alchemy cut version nozhomi
BeatmapID:783400
BeatmapSetID:354537

[Difficulty]
HPDrainRate:4
CircleSize:3.4
OverallDifficulty:4.4
ApproachRate:5.5
SliderMultiplier:1
SliderTickRate:1

[Events]
//Background and Video events
0,0,"BG.jpg",0,0
//Break Periods
2,45602,55249
//Storyboard Layer 0 (Background)
//Storyboard Layer 1 (Fail)
//Storyboard Layer 2 (Pass)
//Storyboard Layer 3 (Foreground)
//Storyboard Sound Samples

[TimingPoints]
23460,342.857142857143,4,2,0,50,1,0
23460,-111.111111111111,4,2,0,50,0,0
56374,-111.111111111111,4,2,0,40,0,0
61860,-111.111111111111,4,2,0,50,0,0
63231,-111.111111111111,4,3,0,60,0,0
64602,-111.111111111111,4,2,0,70,0,0
67345,-100,4,2,0,80,0,1
78145,-100,4,2,0,80,0,0
78317,-100,4,2,0,80,0,1
89117,-100,4,2,0,80,0,0
89288,-100,4,2,0,80,0,1
100088,-100,4,2,0,80,0,0
100260,-100,4,2,0,80,0,1
111231,-100,4,2,0,50,0,0

[Colours]
Combo1 : 220,193,114
Combo2 : 0,0,160
Combo3 : 128,128,128
Combo4 : 128,64,0

[HitObjects]
440,88,23460,6,0,P|396:102|347:104,1,89.9999972534181,2|0,0:0|0:0,0:0:0:0:
248,76,24145,2,0,P|203:78|160:92,1,89.9999972534181,8|0,0:0|0:0,0:0:0:0:
84,168,24831,2,0,L|104:352,1,179.999994506836,2|8,0:0|0:0,0:0:0:0:
264,320,26031,1,0,0:0:0:0:
264,320,26202,6,0,P|306:297|338:249,1,89.9999972534181,2|0,0:0|0:0,0:0:0:0:
268,177,26888,1,8,0:0:0:0:
160,184,27231,2,0,P|155:91|179:-3,1,179.999994506836,0|0,0:0|0:0,0:0:0:0:
272,56,28260,1,8,0:0:0:0:
440,192,28945,6,0,P|427:235|420:292,1,89.9999972534181,2|0,0:0|0:0,0:0:0:0:
336,344,29631,2,0,P|332:297|318:255,1,89.9999972534181,8|0,0:0|0:0,0:0:0:0:
236,188,30317,2,0,P|151:177|48:184,1,179.999994506836,2|8,0:0|0:0,0:0:0:0:
72,344,31517,5,0,0:0:0:0:
72,344,31688,2,0,P|92:300|96:248,1,89.9999972534181,2|0,0:0|0:0,0:0:0:0:
76,152,32374,1,8,0:0:0:0:
152,72,32717,2,0,P|248:76|344:68,1,179.999994506836,0|0,0:0|0:0,0:0:0:0:
424,124,33745,2,0,P|415:170|416:224,1,89.9999972534181,8|0,0:0|0:0,0:0:0:0:
388,260,34260,1,0,0:0:0:0:
388,260,34431,6,0,P|345:253|284:262,1,89.9999972534181,2|0,0:0|0:0,0:0:0:0:
200,300,35117,2,0,P|200:257|196:196,1,89.9999972534181,8|0,0:0|0:0,0:0:0:0:
156,108,35802,2,0,P|200:108|260:96,1,89.9999972534181,2|0,0:0|0:0,0:0:0:0:
288,64,36317,1,0,0:0:0:0:
288,64,36488,1,8,0:0:0:0:
476,172,37174,6,0,L|468:267,1,89.9999972534181,2|0,0:0|0:0,0:0:0:0:
436,304,37688,2,0,P|409:305|380:299,1,44.999998626709,0|8,0:0|0:0,0:0:0:0:
296,252,38202,1,0,0:0:0:0:
200,304,38545,2,0,L|193:242,1,44.999998626709,2|2,0:0|0:0,0:0:0:0:
172,100,39231,1,8,0:0:0:0:
172,100,39402,2,0,L|273:93,1,89.9999972534181,2|8,0:0|3:0,0:0:0:0:
312,112,39917,6,0,P|325:155|322:209,1,89.9999972534181,2|0,0:0|0:0,0:0:0:0:
240,268,40602,2,0,P|227:225|230:171,1,89.9999972534181,8|0,0:0|0:0,0:0:0:0:
312,112,41288,2,0,B|260:124|260:124|125:130,1,179.999994506836,2|8,0:0|0:0,0:0:0:0:
76,220,42317,1,0,0:0:0:0:
168,280,42660,6,0,P|234:294|319:279,1,134.999995880127,2|0,0:0|0:0,0:0:0:0:
343,253,43345,1,8,0:0:0:0:
376,160,43688,1,0,0:0:0:0:
323,66,44031,5,0,0:0:0:0:
284,104,44202,2,0,L|128:112,1,134.999995880127,2|8,0:0|0:0,0:0:0:0:
108,144,44888,2,0,P|102:189|112:252,1,89.9999972534181,2|8,0:0|3:0,0:0:0:0:
144,272,45402,5,2,0:0:0:0:
398,132,56374,6,0,P|353:133|302:112,1,89.9999972534181,2|2,3:0|0:0,0:0:0:0:
261,98,56888,1,0,0:0:0:0:
264,152,57060,2,0,L|264:216,1,44.999998626709,0|2,0:0|0:0,0:0:0:0:
296,240,57402,1,2,0:0:0:0:
228,324,57745,6,0,P|182:326|128:310,1,89.9999972534181,2|2,0:0|0:0,0:0:0:0:
104,276,58260,1,0,0:0:0:0:
128,228,58431,2,0,L|130:164,1,44.999998626709,2|2,0:0|0:0,0:0:0:0:
96,140,58774,2,0,L|98:76,1,44.999998626709,2|0,0:0|0:0,0:0:0:0:
132,56,59117,6,0,P|178:50|224:56,1,89.9999972534181,2|2,0:0|0:0,0:0:0:0:
260,92,59631,1,0,0:0:0:0:
300,56,59802,2,0,P|346:50|392:56,1,89.9999972534181,0|2,0:0|0:0,0:0:0:0:
464,132,60488,6,0,L|456:240,1,89.9999972534181,2|2,0:0|0:0,0:0:0:0:
368,284,61174,2,0,L|354:194,1,89.9999972534181,2|2,0:0|0:0,0:0:0:0:
256,192,61860,12,2,65974,0:0:0:0:
96,124,67345,6,0,P|144:126|204:112,1,100,4|0,0:0|1:0,0:0:0:0:
248,84,67860,1,0,0:0:0:0:
271,138,68031,2,0,P|269:166|274:204,1,50,0|2,0:0|0:0,0:0:0:0:
288,245,68374,2,0,P|289:269|287:294,1,50,0|0,1:0|0:0,0:0:0:0:
240,332,68717,6,0,L|120:340,1,100,0|0,3:0|1:0,0:0:0:0:
56,254,69402,2,0,P|64:202|57:142,1,100,0|0,0:0|1:0,0:0:0:0:
11,45,70088,6,0,L|122:33,1,100,0|0,3:0|1:0,0:0:0:0:
156,73,70602,1,0,0:0:0:0:
212,52,70774,2,0,L|278:46,1,50,0|2,0:0|0:0,0:0:0:0:
316,20,71117,1,0,1:0:0:0:
348,136,71460,6,0,L|366:248,1,100,0|0,0:0|1:0,0:0:0:0:
280,320,72145,2,0,P|229:332|179:329,1,100,0|0,0:0|1:0,0:0:0:0:
124,224,72831,6,0,L|128:108,1,100,0|0,3:0|1:0,0:0:0:0:
156,72,73345,1,0,0:0:0:0:
204,32,73517,2,0,P|231:28|264:36,1,50,0|2,0:0|0:0,0:0:0:0:
292,80,73860,2,0,P|316:83|341:79,1,50,0|0,1:0|0:0,0:0:0:0:
396,56,74202,6,0,B|449:56|449:56|501:75,1,100,0|0,0:0|1:0,0:0:0:0:
416,164,74888,2,0,L|417:278,1,100,0|0,0:0|1:0,0:0:0:0:
312,324,75574,6,0,P|301:275|259:224,1,100,0|0,3:0|1:0,0:0:0:0:
224,200,76088,1,0,0:0:0:0:
164,212,76260,2,0,P|137:207|107:189,1,50,0|2,0:0|0:0,0:0:0:0:
81,149,76602,1,0,1:0:0:0:
192,104,76945,6,0,L|300:112,1,100,0|0,0:0|1:0,0:0:0:0:
396,52,77631,2,0,L|495:44,1,100,0|0,0:0|1:0,0:0:0:0:
448,156,78317,6,0,P|443:206|449:258,1,100,0|0,3:0|1:0,0:0:0:0:
484,304,78831,1,2,0:0:0:0:
456,356,79002,2,0,L|344:348,1,100,0|0,0:0|1:0,0:0:0:0:
244,308,79688,6,0,L|236:244,1,50,0|0,3:0|0:0,0:0:0:0:
271,208,80031,2,0,L|279:144,1,50,0|2,1:0|0:0,0:0:0:0:
261,100,80374,2,0,P|212:88|143:101,1,100,0|0,0:0|1:0,0:0:0:0:
84,184,81060,6,0,L|92:304,1,100,0|0,3:0|1:0,0:0:0:0:
128,332,81574,1,0,0:0:0:0:
184,316,81745,2,0,L|248:310,1,50,0|2,0:0|0:0,0:0:0:0:
290,331,82088,1,0,1:0:0:0:
320,216,82431,6,0,L|308:108,1,100,0|0,0:0|1:0,0:0:0:0:
188,116,83117,2,0,L|176:215,1,100,0|0,0:0|1:0,0:0:0:0:
240,320,83802,6,0,P|290:324|359:314,1,100,0|0,3:0|1:0,0:0:0:0:
392,288,84317,1,2,0:0:0:0:
372,232,84488,2,0,P|380:184|380:128,1,100,0|0,0:0|1:0,0:0:0:0:
312,32,85174,6,0,L|204:44,1,100,0|0,3:0|1:0,0:0:0:0:
156,24,85688,1,2,0:0:0:0:
108,60,85860,2,0,P|101:112|110:166,1,100,0|0,0:0|1:0,0:0:0:0:
200,232,86545,6,0,B|296:227|296:227|401:252|401:252|504:240,1,300,0|0,3:0|3:0,0:0:0:0:
448,352,87917,2,0,P|364:241|458:132,1,300,0|0,3:0|1:0,0:0:0:0:
376,40,89288,6,0,L|276:44,1,100,4|0,0:0|1:0,0:0:0:0:
233,86,89802,1,0,0:0:0:0:
190,43,89974,2,0,L|90:39,1,100,0|0,0:0|1:0,0:0:0:0:
56,156,90660,6,0,L|72:272,1,100,0|0,3:0|1:0,0:0:0:0:
60,316,91174,1,0,0:0:0:0:
116,340,91345,2,0,P|141:345|168:341,1,50,0|2,0:0|0:0,0:0:0:0:
212,304,91688,2,0,P|237:300|264:305,1,50,0|0,1:0|0:0,0:0:0:0:
316,328,92031,6,0,P|322:276|337:212,1,100,0|0,3:0|1:0,0:0:0:0:
348,172,92545,1,0,0:0:0:0:
305,129,92717,2,0,P|295:80|289:28,1,100,0|0,0:0|1:0,0:0:0:0:
196,108,93402,6,0,P|146:114|93:104,1,100,0|0,0:0|1:0,0:0:0:0:
56,64,93917,1,0,0:0:0:0:
8,96,94088,2,0,L|15:203,1,100,0|0,0:0|1:0,0:0:0:0:
88,292,94774,6,0,P|137:304|190:291,1,100,0|0,3:0|1:0,0:0:0:0:
227,251,95288,1,2,0:0:0:0:
269,208,95460,2,0,P|319:198|385:219,1,100,0|0,0:0|1:0,0:0:0:0:
448,296,96145,6,0,L|460:176,1,100,0|0,3:0|1:0,0:0:0:0:
372,111,96831,2,0,L|362:11,1,100,0|0,0:0|1:0,0:0:0:0:
272,88,97517,6,0,B|236:96|236:96|152:92,1,100,0|0,3:0|1:0,0:0:0:0:
124,60,98031,1,0,0:0:0:0:
76,96,98202,2,0,P|67:148|77:211,1,100,0|0,0:0|1:0,0:0:0:0:
160,280,98888,6,0,B|183:234|183:234|224:195,1,100,0|0,0:0|1:0,0:0:0:0:
308,280,99574,2,0,B|362:276|362:276|418:252,1,100,0|0,0:0|1:0,0:0:0:0:
432,140,100260,6,0,L|332:135,1,100,0|0,3:0|1:0,0:0:0:0:
280,104,100774,1,0,0:0:0:0:
224,128,100945,2,0,P|192:130|164:121,1,50,0|2,0:0|0:0,0:0:0:0:
127,88,101288,1,0,1:0:0:0:
84,200,101631,6,0,L|100:316,1,100,0|0,3:0|1:0,0:0:0:0:
140,340,102145,1,0,0:0:0:0:
192,312,102317,2,0,L|308:300,1,100,0|0,0:0|1:0,0:0:0:0:
388,232,103002,6,0,P|396:180|380:114,1,100,0|0,3:0|1:0,0:0:0:0:
344,92,103517,1,2,0:0:0:0:
288,112,103688,2,0,L|176:116,1,100,0|0,0:0|1:0,0:0:0:0:
80,172,104374,6,0,P|87:225|80:289,1,100,0|0,0:0|1:0,0:0:0:0:
172,352,105060,2,0,L|288:344,1,100,0|0,0:0|1:0,0:0:0:0:
376,288,105745,6,0,B|371:249|371:249|376:172,1,100,0|0,3:0|1:0,0:0:0:0:
412,140,106260,1,0,0:0:0:0:
380,88,106431,2,0,P|330:78|277:86,1,100,2|0,0:0|1:0,0:0:0:0:
180,148,107117,6,0,L|171:215,1,50,0|0,3:0|0:0,0:0:0:0:
204,248,107460,2,0,L|213:315,1,50,0|0,1:0|0:0,0:0:0:0:
176,348,107802,2,0,P|126:356|77:348,1,100,0|0,0:0|1:0,0:0:0:0:
25,239,108488,6,0,P|49:110|182:154,1,300,0|0,3:0|3:0,0:0:0:0:
268,228,109860,2,0,P|395:266|422:136,1,300,0|0,3:0|1:0,0:0:0:0:
320,72,111231,5,4,0:0:0:0:
