osu file format v14

[General]
AudioFilename: Feint - Vagrant (Feat. Veela).mp3
AudioLeadIn: 0
PreviewTime: 89288
Countdown: 0
SampleSet: Soft
StackLeniency: 0.7
Mode: 0
LetterboxInBreaks: 0
WidescreenStoryboard: 0

[Editor]
Bookmarks: 45360,54960,64560
DistanceSpacing: 1.4
BeatDivisor: 4
GridSize: 4
TimelineZoom: 2.799999

[Metadata]
Title:Vagrant (feat. Veela)
TitleUnicode:Vagrant (feat. Veela)
Artist:Feint
ArtistUnicode:Feint
Creator:Aia
Version:Hard
Source:
Tags:dnb drum and bass liquicity alchemy cut version nozhomi
BeatmapID:783399
BeatmapSetID:354537

[Difficulty]
HPDrainRate:6
CircleSize:3.8
OverallDifficulty:7
ApproachRate:8
SliderMultiplier:1.4
SliderTickRate:1

[Events]
//Background and Video events
0,0,"BG.jpg",0,0
//Break Periods
2,45602,54252
//Storyboard Layer 0 (Background)
//Storyboard Layer 1 (Fail)
//Storyboard Layer 2 (Pass)
//Storyboard Layer 3 (Foreground)
//Storyboard Sound Samples

[TimingPoints]
23460,342.857142857143,4,2,0,50,1,0
23460,-133.333333333333,4,2,0,50,0,0
56374,-111.111111111111,4,2,0,40,0,0
61860,-111.111111111111,4,2,0,50,0,0
63231,-111.111111111111,4,3,0,60,0,0
64602,-111.111111111111,4,2,0,70,0,0
67345,-100,4,2,0,80,0,1
78145,-100,4,2,0,80,0,0
78317,-100,4,2,0,80,0,1
89117,-100,4,2,0,80,0,0
89288,-100,4,2,0,80,0,1
100088,-100,4,2,0,80,0,0
100260,-100,4,2,0,80,0,1
111231,-100,4,2,0,50,0,0

[Colours]
Combo1 : 220,193,114
Combo2 : 0,0,160
Combo3 : 128,128,128
Combo4 : 128,64,0

[HitObjects]
151,265,23460,6,0,P|147:211|181:155,1,105.000004005432,2|0,0:0|0:0,0:0:0:0:
284,112,24145,1,8,0:0:0:0:
296,236,24488,1,0,0:0:0:0:
284,96,24831,2,0,B|344:41|427:90|427:90|437:60|469:29,1,210.000008010865,2|8,0:0|0:0,0:0:0:0:
376,281,26031,1,0,0:0:0:0:
376,281,26202,6,0,L|248:265,1,105.000004005432,2|0,0:0|0:0,0:0:0:0:
148,244,26888,1,8,0:0:0:0:
228,148,27231,1,0,0:0:0:0:
272,268,27574,2,0,B|204:279|204:279|141:274|141:274|56:283,1,210.000008010865,2|8,0:0|0:0,0:0:0:0:
28,228,28431,2,0,P|24:176|42:114,1,105.000004005432
208,76,28945,6,0,L|332:68,1,105.000004005432,2|0,0:0|0:0,0:0:0:0:
376,180,29631,2,0,L|252:172,1,105.000004005432,8|0,0:0|0:0,0:0:0:0:
348,272,30317,2,0,P|446:241|460:133,1,210.000008010865,2|8,0:0|0:0,0:0:0:0:
280,112,31517,1,0,0:0:0:0:
280,112,31688,6,0,L|296:238,1,105.000004005432,2|0,0:0|0:0,0:0:0:0:
364,320,32374,1,8,0:0:0:0:
420,208,32717,1,0,0:0:0:0:
416,84,33060,2,0,L|184:71,1,210.000008010865,2|8,0:0|0:0,0:0:0:0:
160,116,33917,1,0,0:0:0:0:
324,192,34260,1,0,0:0:0:0:
324,192,34431,6,0,L|448:200,1,105.000004005432,2|0,0:0|0:0,0:0:0:0:
364,308,35117,2,0,L|240:316,1,105.000004005432,8|0,0:0|0:0,0:0:0:0:
148,256,35802,2,0,P|130:207|145:158,1,105.000004005432,2|0,0:0|0:0,0:0:0:0:
200,128,36317,2,0,L|252:128,1,52.5000020027161,0|8,0:0|0:0,0:0:0:0:
492,48,37174,6,0,L|371:38,1,105.000004005432,2|0,0:0|0:0,0:0:0:0:
420,160,37860,1,8,0:0:0:0:
420,160,38202,2,0,P|423:203|404:265,1,105.000004005432
348,288,38717,1,0,0:0:0:0:
164,188,39231,1,8,0:0:0:0:
164,188,39402,2,0,P|149:240|169:308,1,105.000004005432,2|8,0:0|3:0,0:0:0:0:
212,324,39917,6,0,L|92:340,1,105.000004005432,2|0,0:0|0:0,0:0:0:0:
16,248,40602,1,8,0:0:0:0:
44,124,40945,1,0,0:0:0:0:
160,72,41288,2,0,B|236:70|236:70|301:88|301:88|385:79,1,210.000008010865,2|8,0:0|0:0,0:0:0:0:
480,24,42317,1,0,0:0:0:0:
472,148,42660,6,0,P|429:196|337:200,1,157.500006008148,2|0,0:0|0:0,0:0:0:0:
284,172,43345,2,0,L|236:220,1,52.5000020027161,8|0,0:0|0:0,0:0:0:0:
188,236,43688,2,0,L|130:228,1,52.5000020027161
80,256,44031,1,0,0:0:0:0:
80,256,44202,1,2,0:0:0:0:
168,88,44717,1,8,0:0:0:0:
168,88,44888,2,0,B|205:81|231:71|231:71|255:77|288:73,1,105.000004005432,2|8,0:0|3:0,0:0:0:0:
328,104,45402,5,2,0:0:0:0:
348,112,55002,5,2,0:0:0:0:
420,108,55174,1,0,0:0:0:0:
457,170,55345,1,0,0:0:0:0:
400,216,55517,2,0,L|272:220,1,105.000004005432,2|2,0:0|0:0,0:0:0:0:
218,202,56031,2,0,P|227:176|250:153,1,52.5000020027161,8|0,0:0|0:0,0:0:0:0:
295,219,56374,6,0,P|264:269|192:278,1,125.999996154785,2|2,3:0|0:0,0:0:0:0:
128,259,56888,1,0,0:0:0:0:
144,184,57060,2,0,L|161:102,1,62.9999980773926,0|2,0:0|0:0,0:0:0:0:
193,56,57402,2,0,P|169:35|138:29,1,62.9999980773926,2|0,0:0|0:0,0:0:0:0:
64,36,57745,5,2,0:0:0:0:
40,108,57917,1,0,0:0:0:0:
64,180,58088,2,0,P|69:215|52:265,1,62.9999980773926,2|0,0:0|0:0,0:0:0:0:
32,312,58431,2,0,L|108:312,1,62.9999980773926,2|2,0:0|0:0,0:0:0:0:
160,348,58774,2,0,L|223:348,1,62.9999980773926,2|0,0:0|0:0,0:0:0:0:
279,297,59117,6,0,P|297:238|272:157,1,125.999996154785,2|2,0:0|0:0,0:0:0:0:
244,112,59631,1,0,0:0:0:0:
200,48,59802,2,0,P|233:35|273:41,1,62.9999980773926,0|0,0:0|0:0,0:0:0:0:
244,112,60145,2,0,P|211:125|171:119,1,62.9999980773926,2|0,0:0|0:0,0:0:0:0:
124,76,60488,6,0,B|138:125|103:150|131:219,1,125.999996154785,2|2,0:0|0:0,0:0:0:0:
16,308,61174,2,0,B|2:259|37:234|15:183,1,125.999996154785,2|2,0:0|0:0,0:0:0:0:
132,280,61860,6,0,P|168:288|200:276,1,62.9999980773926,0|0,3:0|0:0,0:0:0:0:
264,252,62202,1,0,3:0:0:0:
328,208,62374,1,0,0:0:0:0:
340,132,62545,2,0,P|376:148|400:184,2,62.9999980773926,0|0|0,3:0|0:0|3:0,0:0:0:0:
264,124,63060,1,0,0:0:0:0:
192,104,63231,6,0,P|167:81|152:48,1,62.9999980773926,0|0,0:0|0:0,0:0:0:0:
264,124,63574,2,0,P|248:156|212:176,1,62.9999980773926,0|0,0:0|0:0,0:0:0:0:
156,204,63917,2,0,P|131:223|118:251,1,62.9999980773926,0|0,0:0|0:0,0:0:0:0:
112,328,64260,1,0,0:0:0:0:
180,300,64431,1,0,0:0:0:0:
252,328,64602,6,0,L|300:332,3,31.4999990386963,0|0|0|0,1:0|1:0|1:0|1:0,0:0:0:0:
312,304,64945,2,0,L|344:296,3,31.4999990386963,0|0|0|0,1:0|1:0|1:0|1:0,0:0:0:0:
356,260,65288,2,0,L|396:236,3,31.4999990386963,0|0|0|0,1:0|1:0|1:0|1:0,0:0:0:0:
368,208,65631,2,0,L|384:168,3,31.4999990386963,0|0|0|0,1:0|1:0|1:0|1:0,0:0:0:0:
416,168,65974,5,2,0:0:0:0:
448,236,66145,1,0,0:0:0:0:
492,176,66317,1,0,1:0:0:0:
461,106,66488,1,0,0:0:0:0:
404,55,66660,2,0,P|370:48|323:60,1,62.9999980773926,2|0,0:0|0:0,0:0:0:0:
279,93,67002,2,0,P|248:96|218:89,1,62.9999980773926,0|0,1:0|1:0,0:0:0:0:
148,40,67345,6,0,B|174:127|174:127|163:203,1,140,4|0,0:0|1:0,0:0:0:0:
152,260,67860,1,0,0:0:0:0:
84,212,68031,2,0,P|78:174|100:118,1,70,0|2,0:0|0:0,0:0:0:0:
166,175,68374,2,0,P|202:182|246:171,1,70,0|0,1:0|0:0,0:0:0:0:
300,124,68717,5,0,3:0:0:0:
308,208,68888,1,0,0:0:0:0:
380,160,69060,2,0,P|414:154|448:161,1,70,0|0,1:0|0:0,0:0:0:0:
500,228,69402,1,0,0:0:0:0:
432,280,69574,1,2,0:0:0:0:
380,160,69745,2,0,L|388:72,1,70,0|0,1:0|0:0,0:0:0:0:
328,32,70088,6,0,P|281:40|174:34,1,140,0|0,3:0|1:0,0:0:0:0:
128,96,70602,1,0,0:0:0:0:
172,168,70774,1,0,0:0:0:0:
88,172,70945,1,2,0:0:0:0:
232,124,71117,2,0,L|320:128,1,70,0|0,1:0|0:0,0:0:0:0:
382,206,71460,6,0,L|294:210,1,70,0|2,0:0|0:0,0:0:0:0:
252,268,71802,1,0,1:0:0:0:
252,268,71974,1,0,0:0:0:0:
309,328,72145,1,0,0:0:0:0:
392,340,72317,1,0,3:0:0:0:
392,340,72402,1,0,3:0:0:0:
392,340,72488,1,0,1:0:0:0:
364,260,72660,1,2,0:0:0:0:
428,204,72831,6,0,P|414:138|334:77,1,140,0|0,3:0|1:0,0:0:0:0:
280,96,73345,1,0,0:0:0:0:
196,84,73517,2,0,P|206:47|259:16,1,70,0|2,0:0|0:0,0:0:0:0:
280,96,73860,2,0,P|270:133|217:164,1,70,0|0,1:0|0:0,0:0:0:0:
164,160,74202,6,0,L|80:156,1,70,0|0,3:0|0:0,0:0:0:0:
64,236,74545,2,0,L|148:232,1,70,0|0,1:0|0:0,0:0:0:0:
216,256,74888,2,0,P|210:291|216:330,1,70,0|2,0:0|0:0,0:0:0:0:
292,292,75231,1,0,1:0:0:0:
292,292,75402,1,0,0:0:0:0:
372,320,75574,6,0,P|367:243|306:203,1,140,0|0,3:0|1:0,0:0:0:0:
292,292,76088,1,0,0:0:0:0:
398,213,76260,2,0,P|409:177|400:130,1,70,0|2,0:0|0:0,0:0:0:0:
380,64,76602,1,0,1:0:0:0:
316,120,76774,1,0,0:0:0:0:
316,120,76945,6,0,L|240:128,1,70,0|2,0:0|0:0,0:0:0:0:
109,63,77288,2,0,L|185:71,1,70,0|0,1:0|0:0,0:0:0:0:
136,144,77631,1,0,0:0:0:0:
72,200,77802,2,0,L|20:200,2,35,0|0|0,3:0|3:0|1:0,0:0:0:0:
144,228,78145,1,2,0:0:0:0:
144,228,78317,6,0,P|188:212|218:170,1,70,0|0,3:0|0:0,0:0:0:0:
288,196,78660,2,0,P|314:218|348:227,1,70,0|0,1:0|0:0,0:0:0:0:
428,208,79002,1,0,0:0:0:0:
412,124,79174,1,2,0:0:0:0:
392,44,79345,2,0,P|427:40|471:64,1,70,0|0,1:0|0:0,0:0:0:0:
412,124,79688,6,0,P|377:128|333:104,1,70,0|0,3:0|0:0,0:0:0:0:
268,88,80031,2,0,P|233:83|201:96,1,70,0|0,1:0|0:0,0:0:0:0:
120,124,80374,2,0,P|85:128|53:115,1,70,0|2,0:0|0:0,0:0:0:0:
120,124,80717,2,0,L|136:204,1,70,0|0,1:0|0:0,0:0:0:0:
208,232,81060,6,0,B|275:206|275:206|352:244,1,140,0|0,3:0|1:0,0:0:0:0:
336,236,81574,1,0,0:0:0:0:
404,284,81745,2,0,P|418:252|404:192,1,70,0|2,0:0|0:0,0:0:0:0:
364,152,82088,1,0,1:0:0:0:
448,140,82260,1,0,0:0:0:0:
396,72,82431,6,0,P|394:37|408:5,1,70,0|2,0:0|0:0,0:0:0:0:
476,56,82774,1,0,1:0:0:0:
448,140,82945,1,0,0:0:0:0:
364,152,83117,1,0,0:0:0:0:
316,84,83288,1,0,0:0:0:0:
316,84,83374,1,0,3:0:0:0:
316,84,83460,1,0,1:0:0:0:
248,35,83631,1,2,0:0:0:0:
200,104,83802,6,0,P|181:133|152:151,1,70,0|0,3:0|0:0,0:0:0:0:
68,136,84145,2,0,L|65:239,1,70,0|0,1:0|0:0,0:0:0:0:
64,292,84488,1,0,0:0:0:0:
140,256,84660,1,2,0:0:0:0:
204,308,84831,2,0,L|280:316,1,70,0|0,1:0|0:0,0:0:0:0:
341,224,85174,6,0,L|265:232,1,70,0|0,3:0|0:0,0:0:0:0:
204,180,85517,1,0,1:0:0:0:
212,96,85688,1,0,0:0:0:0:
148,40,85860,1,0,0:0:0:0:
128,120,86031,1,2,0:0:0:0:
128,120,86117,1,0,0:0:0:0:
128,120,86202,1,0,1:0:0:0:
288,145,86374,1,0,0:0:0:0:
352,92,86545,6,0,L|337:16,1,70,0|0,3:0|3:0,0:0:0:0:
288,145,86888,1,0,3:0:0:0:
368,176,87060,1,0,3:0:0:0:
304,228,87231,2,0,P|299:265|312:308,1,70,0|0,3:0|3:0,0:0:0:0:
380,340,87574,2,0,L|449:343,1,70,0|0,3:0|3:0,0:0:0:0:
508,280,87917,5,0,3:0:0:0:
456,216,88088,1,0,3:0:0:0:
456,216,88174,1,0,3:0:0:0:
456,216,88260,1,0,1:0:0:0:
504,144,88431,2,0,L|508:104,5,35,0|0|0|0|0|0,3:0|3:0|3:0|3:0|3:0|3:0,0:0:0:0:
492,72,88945,2,0,P|458:59|416:64,1,70,0|2,1:0|0:0,0:0:0:0:
348,96,89288,6,0,P|317:159|349:240,1,140,4|0,0:0|1:0,0:0:0:0:
416,168,89802,1,0,0:0:0:0:
252,124,89974,2,0,P|218:119|164:127,1,70,0|2,0:0|0:0,0:0:0:0:
144,196,90317,2,0,P|178:201|232:193,1,70,0|0,1:0|0:0,0:0:0:0:
296,212,90660,5,0,3:0:0:0:
292,296,90831,1,0,0:0:0:0:
356,352,91002,1,0,1:0:0:0:
372,268,91174,1,0,0:0:0:0:
292,296,91345,2,0,P|256:290|225:248,1,70,0|2,0:0|0:0,0:0:0:0:
148,268,91688,2,0,P|122:291|88:296,1,70,0|0,1:0|0:0,0:0:0:0:
28,236,92031,6,0,B|29:200|41:174|41:174|32:80,1,140,0|0,3:0|1:0,0:0:0:0:
33,98,92545,1,0,0:0:0:0:
92,160,92717,2,0,P|128:168|176:152,1,70,0|2,0:0|0:0,0:0:0:0:
295,113,93060,2,0,P|262:105|228:112,1,70,0|0,1:0|0:0,0:0:0:0:
236,196,93402,5,0,0:0:0:0:
300,248,93574,1,2,0:0:0:0:
380,232,93745,2,0,P|414:213|430:159,1,70,0|0,1:0|0:0,0:0:0:0:
432,104,94088,1,0,0:0:0:0:
376,40,94260,2,0,L|400:4,2,35,0|0|0,3:0|3:0|1:0,0:0:0:0:
344,120,94602,1,2,0:0:0:0:
292,184,94774,6,0,P|230:200|150:161,1,140,0|0,3:0|1:0,0:0:0:0:
120,100,95288,1,0,0:0:0:0:
183,44,95460,2,0,P|218:36|253:36,1,70,0|2,0:0|0:0,0:0:0:0:
120,100,95802,2,0,P|103:64|101:29,1,70,0|0,1:0|0:0,0:0:0:0:
202,120,96145,6,0,P|205:157|194:204,1,70,0|0,3:0|0:0,0:0:0:0:
144,320,96488,1,0,1:0:0:0:
144,320,96660,1,0,0:0:0:0:
64,248,96831,2,0,L|152:236,1,70,0|2,0:0|0:0,0:0:0:0:
212,272,97174,2,0,L|296:272,1,70,0|0,1:0|0:0,0:0:0:0:
424,208,97517,6,0,P|408:273|400:364,1,140,0|0,3:0|1:0,0:0:0:0:
400,345,98031,1,0,0:0:0:0:
352,240,98202,2,0,P|338:208|304:171,1,70,0|2,0:0|0:0,0:0:0:0:
244,136,98545,1,0,1:0:0:0:
320,96,98716,1,0,0:0:0:0:
241,217,98888,6,0,P|200:221|156:218,1,70,0|2,0:0|0:0,0:0:0:0:
38,166,99231,2,0,P|73:163|108:164,1,70,0|0,1:0|0:0,0:0:0:0:
171,219,99574,1,0,0:0:0:0:
116,284,99745,2,0,L|116:329,2,35,0|0|0,3:0|3:0|1:0,0:0:0:0:
36,264,100088,1,2,0:0:0:0:
184,136,100260,6,0,P|218:132|284:139,1,70,0|0,3:0|0:0,0:0:0:0:
332,164,100602,1,0,1:0:0:0:
320,80,100774,1,0,0:0:0:0:
253,133,100945,2,0,L|256:226,1,70,0|2,0:0|0:0,0:0:0:0:
246,286,101288,2,0,L|278:351,1,70,0|0,1:0|0:0,0:0:0:0:
360,360,101631,5,0,3:0:0:0:
428,312,101802,1,0,0:0:0:0:
352,276,101974,1,0,1:0:0:0:
420,228,102145,1,0,0:0:0:0:
344,192,102317,2,0,L|248:216,1,70,0|2,0:0|0:0,0:0:0:0:
420,228,102660,2,0,L|424:136,1,70,0|0,1:0|0:0,0:0:0:0:
360,104,103002,6,0,P|326:94|270:60,1,70,0|0,3:0|0:0,0:0:0:0:
240,16,103345,1,0,1:0:0:0:
216,96,103517,1,0,0:0:0:0:
244,176,103688,2,0,P|208:180|163:166,1,70,0|2,0:0|0:0,0:0:0:0:
60,248,104031,2,0,P|96:244|141:258,1,70,0|0,1:0|0:0,0:0:0:0:
216,364,104374,6,0,L|232:284,1,70,0|2,0:0|0:0,0:0:0:0:
296,244,104717,2,0,L|309:312,1,70,0|0,1:0|0:0,0:0:0:0:
368,372,105060,1,0,0:0:0:0:
428,312,105231,1,0,3:0:0:0:
428,312,105317,1,0,3:0:0:0:
428,312,105402,1,0,1:0:0:0:
405,230,105574,1,2,0:0:0:0:
444,156,105745,6,0,L|288:145,1,140,0|0,3:0|1:0,0:0:0:0:
228,108,106260,1,0,0:0:0:0:
160,160,106431,2,0,P|153:196|158:232,1,70,0|2,0:0|0:0,0:0:0:0:
304,146,106774,2,0,P|311:110|306:74,1,70,0|0,1:0|0:0,0:0:0:0:
240,24,107117,5,0,3:0:0:0:
240,24,107288,1,0,0:0:0:0:
164,56,107460,2,0,L|94:65,1,70,0|0,1:0|0:0,0:0:0:0:
33,186,107802,2,0,L|124:196,1,70,0|2,0:0|0:0,0:0:0:0:
176,232,108145,1,0,1:0:0:0:
252,196,108317,1,0,0:0:0:0:
328,230,108488,6,0,L|337:141,1,70
350,80,108831,1,0,0:0:0:0:
424,36,109002,1,0,3:0:0:0:
350,80,109174,2,0,P|315:82|271:76,1,70
148,35,109517,2,0,P|183:33|227:39,1,70
208,120,109860,5,0,3:0:0:0:
184,200,110031,1,0,3:0:0:0:
184,200,110117,1,0,3:0:0:0:
184,200,110202,1,0,1:0:0:0:
228,272,110374,2,0,L|224:320,5,35,0|0|0|0|0|0,3:0|3:0|3:0|3:0|3:0|3:0,0:0:0:0:
252,340,110888,2,0,P|286:345|320:340,1,70,0|0,1:0|3:0,0:0:0:0:
432,288,111231,5,4,0:0:0:0:
