osu file format v12

[General]
AudioFilename: Feint - Times Like These.mp3
AudioLeadIn: 2000
PreviewTime: 89371
Countdown: 0
SampleSet: Soft
StackLeniency: 0.7
Mode: 0
LetterboxInBreaks: 0
EpilepsyWarning: 1

[Editor]
Bookmarks: 301464,323789
DistanceSpacing: 0.5
BeatDivisor: 4
GridSize: 4

[Metadata]
Title:Times Like These (Fracture Design Remix)
TitleUnicode:Times Like These (Fracture Design Remix)
Artist:Feint
ArtistUnicode:Feint
Creator:Katty Pie
Version:Happy Times
Source:
Tags:Hellzero dnb drum and bass
BeatmapID:228607
BeatmapSetID:82635

[Difficulty]
HPDrainRate:7
CircleSize:4
OverallDifficulty:7
ApproachRate:9
SliderMultiplier:1.8
SliderTickRate:2

[Events]
//Background and Video events
0,0,"BG.jpg",0,0
//Break Periods
2,67231,77594
2,178859,189222
2,268161,278524
//Storyboard Layer 0 (Background)
//Storyboard Layer 1 (Fail)
//Storyboard Layer 2 (Pass)
//Storyboard Layer 3 (Foreground)
//Storyboard Sound Samples
//Background Colour Transformations
3,100,163,162,255

[TimingPoints]
55,348.837209302326,4,2,1,50,1,0
55,-133.333333333333,4,2,0,30,0,0
22380,-100,4,2,1,50,0,0
67031,-100,4,2,1,20,0,0
78194,-117.647058823529,4,2,0,35,0,0
83775,-100,4,2,0,35,0,0
86566,-100,4,2,2,35,0,0
89357,-80,4,2,0,60,0,1
89531,-80,4,2,0,60,0,0
122845,-80,4,2,0,60,0,1
123020,-80,4,2,0,60,0,0
189822,-80,4,2,0,20,0,0
191217,-80,4,2,0,25,0,0
192613,-80,4,2,0,30,0,0
200287,-80,4,2,0,10,0,0
200985,-133.333333333333,4,2,0,20,0,0
223223,-100,4,2,1,50,0,0
223310,-100,4,2,1,50,0,1
223485,-100,4,2,1,50,0,0
267961,-100,4,2,1,20,0,0
268049,-100,4,2,1,35,0,0
279124,-117.647058823529,4,2,0,35,0,0
284706,-100,4,2,0,35,0,0
287496,-100,4,2,2,35,0,0
290287,-80,4,2,0,60,0,1
290461,-80,4,2,0,60,0,0
323775,-80,4,2,0,60,0,1
323950,-80,4,2,0,60,0,0
379589,-133.333333333333,4,2,0,30,0,0
387961,-133.333333333333,4,2,0,20,0,0
390752,-133.333333333333,4,2,0,30,0,0
399124,-133.333333333333,4,2,0,20,0,0
401217,-100,4,2,3,30,0,0

[Colours]
Combo1 : 250,131,86
Combo2 : 254,235,169
Combo3 : 255,128,192
Combo4 : 81,244,232
Combo5 : 255,255,255
Combo6 : 112,112,112
Combo7 : 69,77,214
SliderBorder : 220,220,220
SliderTrackOverride : 255,255,255

[HitObjects]
36,232,55,54,0,P|92:344|220:332,1,270.000010299683,4|2,0:0|0:0,0:0:0:0:
256,192,1101,1,2,0:0:0:0:
292,52,1450,2,0,P|420:40|476:152,2,270.000010299683,2|2|4,0:0|0:0|0:0,0:0:0:0:
456,336,3543,1,2,0:0:0:0:
356,244,3892,1,2,0:0:0:0:
256,336,4241,1,2,0:0:0:0:
40,192,4938,1,2,0:0:0:0:
332,136,5636,6,0,B|260:136|332:28|432:28|500:192|268:192|332:360|436:360|512:248|412:248,2,405.000015449525,4|2|2,0:0|0:0|0:0,0:0:0:0:
180,136,8427,2,0,B|252:136|180:28|80:28|12:192|244:192|180:360|76:360|0:248|100:248,2,405.000015449525,2|2|2,0:0|0:0|0:0,0:0:0:0:
256,328,11217,86,0,P|384:316|428:184,1,270.000010299683,4|2,0:0|0:0,0:0:0:0:
348,92,12264,1,2,0:0:0:0:
256,192,12613,1,2,0:0:0:0:
256,192,13310,2,0,P|256:320|132:320,2,270.000010299683,2|4|2,0:0|0:0|0:0,0:0:0:0:
256,56,15055,1,2,0:0:0:0:
116,80,15403,2,0,P|52:192|116:304,1,270.000010299683,2|2,0:0|0:0,0:0:0:0:
256,328,16450,1,2,0:0:0:0:
256,192,16799,12,2,21682,0:0:0:0:
156,112,22380,54,0,L|120:224,1,90,4|0,0:0|0:0,0:0:0:0:
136,288,22729,1,2,0:0:0:0:
144,296,22816,1,0,0:0:0:0:
156,304,22903,1,2,0:0:0:0:
168,308,22991,1,0,0:0:0:0:
180,312,23078,2,0,L|284:312,1,90,8|0,0:0|0:0,0:0:0:0:
356,288,23427,1,2,0:0:0:0:
408,212,23601,1,0,0:0:0:0:
488,172,23775,6,0,P|436:124|336:156,1,180,0|2,0:0|0:0,0:0:0:0:
256,116,24299,1,0,0:0:0:0:
176,152,24473,1,8,0:0:0:0:
96,112,24648,1,0,0:0:0:0:
96,112,24822,2,0,P|56:184|104:264,1,180,2|4,0:0|0:0,0:0:0:0:
188,364,25345,5,0,0:0:0:0:
280,264,25520,1,2,0:0:0:0:
292,264,25607,1,0,0:0:0:0:
304,264,25694,1,2,0:0:0:0:
316,264,25781,1,0,0:0:0:0:
328,264,25868,1,8,0:0:0:0:
440,124,26217,70,0,P|424:64|396:36,1,90,2|0,0:0|0:0,0:0:0:0:
316,32,26566,2,0,P|332:92|360:120,1,90,0|0,0:0|0:0,0:0:0:0:
162,112,26915,2,0,P|180:92|196:32,1,90,2|0,0:0|0:0,0:0:0:0:
105,43,27264,2,0,P|88:64|72:124,1,90,8|0,0:0|0:0,0:0:0:0:
52,276,27613,1,2,0:0:0:0:
176,328,27787,1,0,0:0:0:0:
176,328,27961,6,0,P|268:364|344:320,1,180,4|2,0:0|0:0,0:0:0:0:
348,320,28398,1,0,0:0:0:0:
356,308,28485,1,2,0:0:0:0:
364,296,28572,1,0,0:0:0:0:
368,284,28659,1,8,0:0:0:0:
416,112,29008,6,0,L|328:56,1,90,2|0,0:0|0:0,0:0:0:0:
96,112,29357,2,0,L|184:56,1,90
256,96,29706,1,2,0:0:0:0:
256,288,29880,1,0,0:0:0:0:
256,192,30055,1,8,0:0:0:0:
384,320,30403,70,0,L|348:232,1,90,2|0,0:0|0:0,0:0:0:0:
128,320,30752,2,0,L|164:232,1,90,4|0,0:0|0:0,0:0:0:0:
256,192,31101,1,2,0:0:0:0:
256,180,31188,1,0,0:0:0:0:
256,168,31275,1,2,0:0:0:0:
256,156,31363,1,0,0:0:0:0:
256,144,31450,1,8,0:0:0:0:
112,36,31799,6,0,P|152:40|184:96,1,90,2|0,0:0|0:0,0:0:0:0:
400,36,32148,2,0,P|360:40|328:96,1,90
88,192,32496,6,0,L|168:152,1,90,2|0,0:0|0:0,0:0:0:0:
424,192,32845,2,0,L|344:152,1,90,8|0,0:0|0:0,0:0:0:0:
256,128,33194,1,2,0:0:0:0:
256,152,33281,1,0,0:0:0:0:
256,176,33368,1,0,0:0:0:0:
256,200,33456,1,0,0:0:0:0:
256,224,33543,70,0,L|256:320,1,90,4|0,0:0|0:0,0:0:0:0:
124,344,33892,1,2,0:0:0:0:
124,344,33979,1,0,0:0:0:0:
124,344,34066,1,2,0:0:0:0:
124,344,34153,1,0,0:0:0:0:
124,344,34241,2,0,P|60:308|48:264,1,90,8|0,0:0|0:0,0:0:0:0:
52,160,34589,1,2,0:0:0:0:
140,60,34764,1,0,0:0:0:0:
256,132,34938,5,0,0:0:0:0:
372,60,35113,1,0,0:0:0:0:
460,160,35287,1,2,0:0:0:0:
458,295,35461,2,0,P|452:308|388:344,1,90,0|8,0:0|0:0,0:0:0:0:
280,340,35810,2,0,P|288:252|214:219,1,180,2|0,0:0|0:0,0:0:0:0:
108,228,36334,5,4,0:0:0:0:
88,124,36508,1,0,0:0:0:0:
176,60,36682,1,2,0:0:0:0:
212,32,36770,1,0,0:0:0:0:
256,24,36857,1,2,0:0:0:0:
300,32,36944,1,0,0:0:0:0:
336,60,37031,1,8,0:0:0:0:
256,320,37380,70,0,L|256:224,1,90,2|0,0:0|0:0,0:0:0:0:
300,152,37729,1,2,0:0:0:0:
300,152,37816,1,0,0:0:0:0:
300,152,37903,2,0,P|256:140|214:151,1,90,0|2,0:0|0:0,0:0:0:0:
132,260,38252,1,0,0:0:0:0:
256,320,38427,1,8,0:0:0:0:
396,92,38775,6,0,B|372:52|372:52|324:52,1,90,2|0,0:0|0:0,0:0:0:0:
116,92,39124,2,0,B|140:52|140:52|188:52,1,90,4|0,0:0|0:0,0:0:0:0:
188,144,39473,1,2,0:0:0:0:
212,184,39560,1,0,0:0:0:0:
256,200,39648,1,2,0:0:0:0:
300,184,39735,1,0,0:0:0:0:
324,144,39822,1,8,0:0:0:0:
256,20,40171,6,0,L|256:220,1,180,2|0,0:0|0:0,0:0:0:0:
328,316,40694,1,2,0:0:0:0:
328,316,40781,1,0,0:0:0:0:
328,316,40868,1,2,0:0:0:0:
184,316,41043,1,0,0:0:0:0:
128,192,41217,1,8,0:0:0:0:
128,192,41566,70,0,P|132:116|228:128,1,180,2|4,0:0|0:0,0:0:0:0:
300,160,42089,1,0,0:0:0:0:
388,136,42264,1,2,0:0:0:0:
400,140,42351,1,0,0:0:0:0:
412,148,42438,1,2,0:0:0:0:
420,160,42525,1,0,0:0:0:0:
424,172,42613,6,0,P|436:212|423:257,1,90,8|0,0:0|0:0,0:0:0:0:
388,340,42961,2,0,P|344:308|332:256,1,90,2|0,0:0|0:0,0:0:0:0:
124,44,43310,2,0,P|168:76|180:128,1,90,2|0,0:0|0:0,0:0:0:0:
88,212,43659,2,0,P|76:172|88:126,1,90,2|0,0:0|0:0,0:0:0:0:
180,312,44008,5,8,0:0:0:0:
332,72,44182,1,0,0:0:0:0:
256,192,44357,1,2,0:0:0:0:
256,192,44531,1,0,0:0:0:0:
332,312,44706,70,0,P|376:320|424:308,1,90,4|0,0:0|0:0,0:0:0:0:
460,208,45055,1,2,0:0:0:0:
437,212,45142,1,0,0:0:0:0:
413,207,45229,1,2,0:0:0:0:
391,196,45316,1,0,0:0:0:0:
377,177,45403,2,0,P|348:144|308:124,1,90,8|0,0:0|0:0,0:0:0:0:
135,177,45752,2,0,P|164:144|204:124,1,90
256,248,46101,5,0,0:0:0:0:
256,248,46275,1,0,0:0:0:0:
200,320,46450,2,0,P|156:304|128:272,1,90,2|0,0:0|0:0,0:0:0:0:
32,180,46799,2,0,P|128:164|176:76,1,180,8|0,0:0|0:0,0:0:0:0:
256,64,47322,1,0,0:0:0:0:
220,192,47496,6,0,L|312:192,1,90,4|0,0:0|0:0,0:0:0:0:
384,112,47845,1,2,0:0:0:0:
412,148,47932,1,0,0:0:0:0:
416,192,48020,1,2,0:0:0:0:
412,236,48107,1,0,0:0:0:0:
384,272,48194,1,8,0:0:0:0:
128,272,48543,1,0,0:0:0:0:
164,188,48717,70,0,P|128:156|88:148,2,90,8|0|0,0:0|0:0|0:0,0:0:0:0:
305,114,49241,2,0,P|351:99|378:68,1,90,2|0,0:0|0:0,0:0:0:0:
298,273,49589,2,0,P|288:320|301:359,1,90,8|0,0:0|0:0,0:0:0:0:
256,192,49938,1,0,0:0:0:0:
256,192,50113,1,0,0:0:0:0:
204,120,50287,6,0,P|192:76|156:40,1,90,4|0,0:0|0:0,0:0:0:0:
116,120,50636,1,2,0:0:0:0:
94,128,50723,1,0,0:0:0:0:
75,144,50810,1,2,0:0:0:0:
62,164,50898,1,0,0:0:0:0:
59,188,50985,1,8,0:0:0:0:
256,308,51334,6,0,P|304:300|356:276,1,90
342,99,51682,2,0,P|304:84|256:76,1,90
116,192,52031,2,0,B|208:160|208:220|297:196,1,180,2|8,0:0|0:0,0:0:0:0:
440,300,52555,1,0,0:0:0:0:
312,312,52729,1,0,0:0:0:0:
364,196,52903,1,0,0:0:0:0:
132,268,53078,70,0,L|42:268,1,90,4|0,0:0|0:0,0:0:0:0:
16,124,53427,1,2,0:0:0:0:
36,116,53514,1,0,0:0:0:0:
56,112,53601,1,2,0:0:0:0:
80,112,53688,1,0,0:0:0:0:
104,116,53775,2,0,P|144:136|188:140,1,90,8|0,0:0|0:0,0:0:0:0:
376,128,54124,2,0,P|336:108|292:104,1,90
172,216,54473,6,0,P|136:240|88:248,1,90
340,216,54822,2,0,P|376:240|424:248,1,90,2|0,0:0|0:0,0:0:0:0:
260,80,55171,2,0,B|292:172|232:172|256:261,1,180,8|0,0:0|0:0,0:0:0:0:
256,348,55694,1,0,0:0:0:0:
132,308,55868,6,0,L|24:292,1,90,4|0,0:0|0:0,0:0:0:0:
101,139,56217,2,0,L|144:156,3,45,2|0|2|0,0:0|0:0|0:0|0:0,0:0:0:0:
184,172,56566,2,0,P|276:168|336:92,1,180,8|0,0:0|0:0,0:0:0:0:
408,156,57089,1,0,0:0:0:0:
304,260,57264,70,0,P|212:264|152:340,1,180,0|2,0:0|0:0,0:0:0:0:
68,316,57787,1,0,0:0:0:0:
88,228,57961,2,0,P|61:194|16:174,1,90,8|0,0:0|0:0,0:0:0:0:
76,104,58310,1,0,0:0:0:0:
208,124,58485,1,0,0:0:0:0:
356,124,58659,6,0,B|263:136|299:198|204:208,1,180,4|2,0:0|0:0,0:0:0:0:
164,196,59095,1,0,0:0:0:0:
136,160,59182,1,2,0:0:0:0:
128,116,59270,1,0,0:0:0:0:
144,72,59357,1,8,0:0:0:0:
56,332,59706,5,0,0:0:0:0:
56,332,59880,2,0,L|96:208,1,90,8|0,0:0|0:0,0:0:0:0:
108,160,60229,1,0,0:0:0:0:
256,56,60403,2,0,L|296:180,1,90,2|0,0:0|0:0,0:0:0:0:
256,348,60752,2,0,L|216:224,1,90,8|0,0:0|0:0,0:0:0:0:
344,207,61101,2,0,P|384:229|427:230,1,90,0|0,0:0|0:0,0:0:0:0:
168,177,61450,70,0,P|128:155|77:155,1,90,4|0,0:0|0:0,0:0:0:0:
106,240,61799,1,2,0:0:0:0:
96,261,61886,1,0,0:0:0:0:
94,286,61973,1,2,0:0:0:0:
99,309,62060,1,0,0:0:0:0:
113,328,62148,1,8,0:0:0:0:
362,288,62496,6,0,P|340:324|296:348,1,90
344,208,62845,2,0,P|366:172|410:148,1,90
280,268,63194,2,0,B|184:216|216:116,1,180,2|8,0:0|0:0,0:0:0:0:
384,96,63717,1,0,0:0:0:0:
292,56,63892,1,0,0:0:0:0:
472,44,64066,1,0,0:0:0:0:
420,192,64241,6,0,L|420:291,1,90,2|0,0:0|0:0,0:0:0:0:
256,348,64589,1,2,0:0:0:0:
248,328,64677,1,0,0:0:0:0:
244,308,64764,1,2,0:0:0:0:
244,284,64851,1,0,0:0:0:0:
248,260,64938,2,0,P|256:212|256:168,1,90,8|0,0:0|0:0,0:0:0:0:
256,80,65287,1,0,0:0:0:0:
152,268,65636,70,0,P|108:276|64:268,1,90,0|2,0:0|0:0,0:0:0:0:
360,116,65985,2,0,P|404:108|448:116,1,90,0|2,0:0|0:0,0:0:0:0:
200,144,66334,6,0,P|156:136|112:144,1,90,8|2,0:0|0:0,0:0:0:0:
312,240,66682,2,0,P|356:248|400:240,1,90,0|2,0:0|0:0,0:0:0:0:
256,192,67031,21,0,0:0:0:0:
348,56,78194,54,0,P|416:100|416:176,1,153.000002918243,4|2,0:0|0:2,0:0:0:0:
332,284,78892,1,0,0:0:0:0:
180,284,79241,1,2,0:0:0:0:
91,166,79589,6,0,P|96:100|164:56,1,153.000002918243,2|0,0:0|0:0,0:0:0:0:
256,56,80113,1,0,0:0:0:0:
256,56,80287,2,0,L|256:224,2,153.000002918243,2|2|4,0:0|0:0|0:0,0:0:0:0:
116,120,81334,5,2,0:0:0:0:
164,264,81682,1,2,0:0:0:0:
200,332,81857,1,0,0:0:0:0:
276,332,82031,1,2,0:0:0:0:
428,332,82380,69,2,0:0:0:0:
352,200,82729,1,2,0:0:0:0:
384,132,82903,1,0,0:0:0:0:
356,60,83078,1,2,0:0:0:0:
284,36,83252,2,0,P|224:40|200:72,1,76.5000014591217,0|2,0:0|0:0,0:0:0:0:
80,168,83601,1,0,0:0:0:0:
80,168,83775,6,0,P|140:164|168:128,1,90,4|0,0:0|0:0,0:0:0:0:
256,240,84124,2,0,L|256:176,4,45,2|0|2|0|2,0:0|0:0|0:0|0:0|0:0,0:0:0:0:
432,168,84648,2,0,P|372:164|344:128,2,90,0|2|0,0:0|0:0|0:0,0:0:0:0:
416,256,85171,6,0,P|364:292|352:328,1,90,2|0,0:0|0:0,0:0:0:0:
256,240,85520,2,0,L|256:336,1,90,2|0,0:0|0:0,0:0:0:0:
96,256,85868,2,0,P|148:292|160:328,2,90,2|0|2,0:0|0:0|0:0,0:0:0:0:
32,192,86392,1,0,0:0:0:0:
136,160,86566,53,2,0:0:0:0:
256,80,86915,1,2,0:0:0:0:
372,164,87264,1,2,0:0:0:0:
324,300,87613,1,2,0:0:0:0:
180,300,87961,85,2,0:0:0:0:
256,192,88136,1,2,0:0:0:0:
388,244,88310,1,2,0:0:0:0:
480,132,88485,1,2,0:0:0:0:
344,84,88659,1,2,0:0:0:0:
300,68,88746,1,2,0:0:0:0:
256,60,88834,1,2,0:0:0:0:
212,68,88921,1,2,0:0:0:0:
168,84,89008,1,10,0:0:0:0:
80,292,89357,22,0,P|96:236|140:208,1,112.5,4|0,0:0|0:0,0:0:0:0:
256,192,89706,1,8,0:0:0:0:
372,208,89880,2,0,P|416:236|432:292,1,112.5,2|0,0:0|0:0,0:0:0:0:
308,304,90229,2,0,P|256:324|205:305,2,112.5,2|8|0,0:0|0:0|0:0,0:0:0:0:
256,192,90752,5,2,0:0:0:0:
204,80,90927,2,0,P|256:60|306:78,2,112.5,0|8|2,0:0|0:0|0:0,0:0:0:0:
144,244,91450,2,0,P|124:192|142:141,1,112.5,0|2,0:0|0:0,0:0:0:0:
369,141,91799,2,0,P|388:192|348:248,1,112.5,8|0,0:0|0:0,0:0:0:0:
484,296,92148,6,0,P|521:172|481:92,1,225,4|8,0:0|0:0,0:0:0:0:
352,52,92671,2,0,L|236:52,1,112.5,2|0,0:0|0:0,0:0:0:0:
108,192,93020,1,2,0:0:0:0:
108,192,93194,2,0,L|240:192,1,112.5,8|0,0:0|0:0,0:0:0:0:
340,332,93543,70,0,L|224:332,2,112.5,2|0|8,0:0|0:0|0:0,0:0:0:0:
428,264,94066,1,2,0:0:0:0:
340,192,94241,1,0,0:0:0:0:
432,124,94415,1,2,0:0:0:0:
340,56,94589,1,8,0:0:0:0:
248,124,94764,1,2,0:0:0:0:
248,124,94851,1,0,0:0:0:0:
248,124,94938,6,0,P|140:120|148:240,1,225,4|10,0:0|0:0,0:0:0:0:
216,284,95461,1,2,0:0:0:0:
216,284,95636,2,0,B|256:324|256:324|311:324,1,112.5,2|0,0:0|0:0,0:0:0:0:
364,348,95898,1,0,0:0:0:0:
416,324,95985,2,0,B|471:324|471:324|511:284,1,112.5,8|0,0:0|0:0,0:0:0:0:
444,104,96334,6,0,B|376:104|344:60|344:60|312:104|246:103,1,225,4|10,0:0|0:0,0:0:0:0:
216,104,96770,1,0,0:0:0:0:
188,104,96857,1,2,0:0:0:0:
160,104,96944,1,0,0:0:0:0:
132,104,97031,2,0,P|72:140|72:216,1,112.5,2|0,0:0|0:0,0:0:0:0:
140,264,97380,2,0,P|200:228|200:152,1,112.5,8|0,0:0|0:0,0:0:0:0:
372,264,97729,70,0,P|312:228|301:190,1,112.5,4|0,0:0|0:0,0:0:0:0:
408,140,98078,2,0,L|452:100,4,56.25,10|0|2|0|2,0:0|0:0|0:0|0:0|0:0,0:0:0:0:
256,308,98601,1,0,0:0:0:0:
172,340,98775,1,8,0:0:0:0:
92,300,98950,1,0,0:0:0:0:
60,216,99124,5,4,0:0:0:0:
104,140,99299,1,0,0:0:0:0:
256,64,99473,1,10,0:0:0:0:
256,96,99560,1,0,0:0:0:0:
256,132,99648,1,2,0:0:0:0:
256,164,99735,1,0,0:0:0:0:
256,196,99822,2,0,P|288:248|333:267,1,112.5,2|0,0:0|0:0,0:0:0:0:
256,196,100171,2,0,P|224:248|178:267,1,112.5,10|0,0:0|0:0,0:0:0:0:
72,224,100520,6,0,P|16:144|96:52,1,225,4|8,0:0|0:0,0:0:0:0:
168,128,101043,1,0,0:0:0:0:
256,56,101217,1,2,0:0:0:0:
344,128,101392,1,0,0:0:0:0:
428,54,101566,1,10,0:0:0:0:
428,54,101653,1,0,0:0:0:0:
428,54,101741,1,2,0:0:0:0:
428,54,101828,1,0,0:0:0:0:
428,54,101915,70,0,P|496:144|440:224,1,225,2|8,0:0|0:0,0:0:0:0:
396,328,102438,2,0,P|340:284|344:208,1,112.5,0|2,0:0|0:0,0:0:0:0:
116,328,102787,2,0,P|172:284|168:208,1,112.5,0|8,0:0|0:0,0:0:0:0:
256,96,103136,1,0,0:0:0:0:
256,288,103310,6,0,L|256:164,1,112.5,4|0,0:0|0:0,0:0:0:0:
104,56,103659,2,0,L|200:120,1,112.5,8|0,0:0|0:0,0:0:0:0:
408,56,104008,2,0,L|312:120,1,112.5,2|0,0:0|0:0,0:0:0:0:
156,180,104357,1,10,0:0:0:0:
116,200,104444,1,0,0:0:0:0:
96,240,104531,1,2,0:0:0:0:
100,284,104618,1,0,0:0:0:0:
116,328,104706,6,0,B|136:320|136:320|160:328|160:328|184:320|184:320|208:328|208:328|232:320|232:320|256:328|256:328|280:320|280:320|304:328|304:328|336:320,1,225,2|8,0:0|0:0,0:0:0:0:
376,144,105229,1,0,0:0:0:0:
376,144,105403,2,0,B|328:104|328:104|328:32,1,112.5,0|2,0:0|0:0,0:0:0:0:
136,144,105752,2,0,B|184:104|184:104|184:32,1,112.5,8|2,0:0|0:0,0:0:0:0:
256,100,106101,70,0,L|256:216,1,112.5,4|0,0:0|0:0,0:0:0:0:
200,300,106450,1,10,0:0:0:0:
224,324,106537,1,0,0:0:0:0:
256,336,106624,1,2,0:0:0:0:
288,324,106711,1,0,0:0:0:0:
312,300,106799,1,2,0:0:0:0:
412,248,106973,1,0,0:0:0:0:
412,248,107148,2,0,P|420:192|456:148,1,112.5,8|0,0:0|0:0,0:0:0:0:
432,56,107496,6,0,P|384:83|357:132,1,112.5,2|0,0:0|0:0,0:0:0:0:
332,236,107845,2,0,P|280:212|257:159,1,112.5,8|2,0:0|0:0,0:0:0:0:
80,56,108194,1,0,0:0:0:0:
80,56,108368,2,0,P|128:83|155:132,1,112.5,2|8,0:0|0:0,0:0:0:0:
192,264,108717,1,0,0:0:0:0:
56,260,108892,6,0,P|83:211|82:155,1,112.5,6|0,0:0|0:0,0:0:0:0:
160,100,109241,1,10,0:0:0:0:
180,88,109328,1,0,0:0:0:0:
200,76,109415,1,2,0:0:0:0:
220,64,109502,1,0,0:0:0:0:
240,52,109589,1,2,0:0:0:0:
340,100,109764,1,0,0:0:0:0:
408,192,109938,2,0,P|352:212|316:260,1,112.5,8|0,0:0|0:0,0:0:0:0:
220,344,110287,70,0,P|128:304|96:184,1,225,2|8,0:0|0:0,0:0:0:0:
140,88,110810,2,0,L|176:136,4,56.25,0|0|0|0|0,0:0|0:0|0:0|0:0|0:0,0:0:0:0:
180,228,111334,1,8,0:0:0:0:
256,276,111508,1,0,0:0:0:0:
332,228,111682,6,0,B|388:228|388:204|456:204,1,112.5,4|0,0:0|0:0,0:0:0:0:
440,92,112031,2,0,B|386:92|386:68|330:68,1,112.5,8|0,0:0|0:0,0:0:0:0:
188,212,112380,1,2,0:0:0:0:
332,148,112555,1,0,0:0:0:0:
100,216,112729,2,0,P|136:136|256:152,1,225,8|2,0:0|0:0,0:0:0:0:
368,228,113252,5,0,0:0:0:0:
256,304,113427,1,8,0:0:0:0:
332,148,113601,1,0,0:0:0:0:
206,240,113775,2,0,P|152:240|100:216,1,112.5,2|0,0:0|0:0,0:0:0:0:
168,156,114124,1,8,0:0:0:0:
68,292,114299,1,0,0:0:0:0:
244,172,114473,70,0,P|288:140|320:92,1,112.5,6|0,0:0|0:0,0:0:0:0:
404,56,114822,1,8,0:0:0:0:
476,112,114996,1,0,0:0:0:0:
448,196,115171,1,2,0:0:0:0:
344,292,115345,5,2,0:0:0:0:
396,136,115520,1,8,0:0:0:0:
428,280,115694,1,2,0:0:0:0:
244,172,115868,6,0,B|216:124|160:104|160:104|88:120|28:76,1,225,2|8,0:0|0:0,0:0:0:0:
112,24,116392,1,0,0:0:0:0:
152,192,116566,1,2,0:0:0:0:
256,72,116741,1,0,0:0:0:0:
72,180,116915,2,0,P|84:240|136:272,1,112.5,8|0,0:0|0:0,0:0:0:0:
256,344,117264,70,0,P|304:300|320:240,1,112.5,6|0,0:0|0:0,0:0:0:0:
408,192,117613,2,0,P|364:144|304:128,1,112.5,8|0,0:0|0:0,0:0:0:0:
256,40,117961,2,0,P|208:84|192:144,1,112.5,2|0,0:0|0:0,0:0:0:0:
256,192,118310,5,10,0:0:0:0:
308,305,118485,1,2,0:0:0:0:
184,294,118659,1,0,0:0:0:0:
285,201,118834,5,2,0:0:0:0:
285,326,119008,1,10,0:0:0:0:
177,263,119182,1,0,0:0:0:0:
156,160,119357,70,0,P|108:132|36:112,2,112.5,2|0|8,0:0|0:0|0:0,0:0:0:0:
204,60,119880,1,0,0:0:0:0:
316,40,120055,6,0,P|364:68|436:88,2,112.5,6|0|8,0:0|0:0|0:0,0:0:0:0:
464,196,120578,1,0,0:0:0:0:
452,228,120665,1,0,0:0:0:0:
428,252,120752,1,2,0:0:0:0:
336,180,120927,1,0,0:0:0:0:
256,248,121101,5,10,0:0:0:0:
143,300,121275,1,2,0:0:0:0:
154,176,121450,1,0,0:0:0:0:
247,277,121624,69,2,0:0:0:0:
122,277,121799,1,10,0:0:0:0:
185,169,121973,1,0,0:0:0:0:
292,132,122148,6,0,P|352:108|392:48,2,112.5,2|0|10,0:0|0:0|0:0,0:0:0:0:
216,48,122671,1,2,0:0:0:0:
112,92,122845,6,0,L|32:184,1,112.5,4|0,0:0|0:0,0:0:0:0:
204,349,123194,2,0,L|120:276,1,112.5,8|0,0:0|0:0,0:0:0:0:
184,168,123543,2,0,L|268:241,2,112.5,2|0|8,0:0|0:0|0:0,0:0:0:0:
216,48,124066,1,2,0:0:0:0:
292,124,124241,70,0,P|348:116|400:84,1,112.5,2|0,0:0|0:0,0:0:0:0:
480,192,124589,2,0,L|352:192,1,112.5,8|0,0:0|0:0,0:0:0:0:
292,260,124938,2,0,P|348:268|400:300,2,112.5,2|0|10,0:0|0:0|0:0,0:0:0:0:
204,192,125461,1,0,0:0:0:0:
121,286,125636,6,0,P|72:192|124:96,1,225,6|8,0:0|0:0,0:0:0:0:
256,192,126159,1,0,0:0:0:0:
388,96,126334,2,0,P|440:192|388:288,1,225,2|8,0:0|0:0,0:0:0:0:
308,192,126857,1,0,0:0:0:0:
234,75,127031,6,0,P|174:91|124:96,1,112.5,2|0,0:0|0:0,0:0:0:0:
277,308,127380,2,0,P|337:292|388:288,1,112.5,8|2,0:0|0:0,0:0:0:0:
200,140,127729,2,0,P|178:198|153:241,1,112.5,2|0,0:0|0:0,0:0:0:0:
312,244,128078,2,0,P|333:185|358:142,1,112.5,8|0,0:0|0:0,0:0:0:0:
256,192,128427,69,6,0:0:0:0:
140,120,128601,1,0,0:0:0:0:
256,52,128775,1,8,0:0:0:0:
372,120,128950,1,0,0:0:0:0:
256,292,129124,2,0,L|256:352,2,56.25,2|0|2,0:0|0:0|0:0,0:0:0:0:
148,284,129473,1,8,0:0:0:0:
364,284,129648,1,0,0:0:0:0:
148,284,129822,6,0,P|92:272|32:272,1,112.5,2|0,0:0|0:0,0:0:0:0:
148,100,130171,2,0,P|92:112|32:112,1,112.5,8|0,0:0|0:0,0:0:0:0:
255,111,130520,1,2,0:0:0:0:
255,273,130694,1,2,0:0:0:0:
256,80,130868,1,10,0:0:0:0:
256,304,131043,1,0,0:0:0:0:
364,100,131217,6,0,P|420:112|475:112,1,112.5,2|0,0:0|0:0,0:0:0:0:
364,284,131566,2,0,P|420:272|475:271,1,112.5,8|0,0:0|0:0,0:0:0:0:
308,192,131915,2,0,B|252:176|252:204|196:192,2,112.5,2|2|8,0:0|0:0|0:0,0:0:0:0:
432,192,132438,1,0,0:0:0:0:
364,100,132613,69,2,0:0:0:0:
256,68,132787,1,0,0:0:0:0:
148,100,132961,1,8,0:0:0:0:
80,192,133136,2,0,L|20:192,4,56.25,0|0|0|0|0,0:0|0:0|0:0|0:0|0:0,0:0:0:0:
148,284,133659,1,8,0:0:0:0:
148,284,133834,1,0,0:0:0:0:
256,316,134008,6,0,P|280:260|332:240,1,112.5,4|0,0:0|0:0,0:0:0:0:
256,68,134357,2,0,P|232:124|180:144,1,112.5,8|2,0:0|0:0,0:0:0:0:
324,240,134706,2,0,P|340:192|400:164,1,112.5,0|2,0:0|0:0,0:0:0:0:
187,143,135055,2,0,P|172:192|112:220,1,112.5,8|0,0:0|0:0,0:0:0:0:
132,332,135403,5,2,0:0:0:0:
212,252,135578,1,0,0:0:0:0:
380,52,135752,69,8,0:0:0:0:
300,132,135927,1,2,0:0:0:0:
188,144,136101,6,0,L|120:144|72:144,1,112.5,0|2,0:0|0:0,0:0:0:0:
324,240,136450,2,0,L|392:240,2,56.25,8|0|0,0:0|0:0|0:0,0:0:0:0:
256,332,136799,6,0,L|144:272,1,112.5,4|0,0:0|0:0,0:0:0:0:
48,244,137148,2,0,P|28:192|52:136,1,112.5,8|2,0:0|0:0,0:0:0:0:
156,105,137496,2,0,L|256:52,1,112.5,0|2,0:0|0:0,0:0:0:0:
324,148,137845,1,8,0:0:0:0:
324,240,138020,1,0,0:0:0:0:
428,192,138194,69,2,0:0:0:0:
324,60,138368,1,0,0:0:0:0:
252,212,138543,1,8,0:0:0:0:
188,60,138717,1,2,0:0:0:0:
84,192,138892,1,0,0:0:0:0:
216,296,139066,2,0,P|168:248|168:188,2,112.5,2|8|0,0:0|0:0|0:0,0:0:0:0:
256,320,139502,1,0,0:0:0:0:
296,296,139589,6,0,P|344:248|344:188,1,112.5,4|0,0:0|0:0,0:0:0:0:
208,112,139938,2,0,P|268:88|312:128,1,112.5,8|2,0:0|0:0,0:0:0:0:
408,156,140287,5,0,0:0:0:0:
360,56,140461,1,2,0:0:0:0:
104,156,140636,69,8,0:0:0:0:
152,56,140810,1,0,0:0:0:0:
256,16,140985,6,0,B|272:68|272:68|256:124,1,112.5,2|0,0:0|0:0,0:0:0:0:
256,368,141334,2,0,B|240:316|240:316|256:260,1,112.5,8|2,0:0|0:0,0:0:0:0:
356,312,141682,2,0,P|408:328|464:308,1,112.5,0|2,0:0|0:0,0:0:0:0:
461,74,142031,2,0,P|408:56|356:72,1,112.5,8|0,0:0|0:0,0:0:0:0:
360,192,142380,6,0,B|404:176|424:208|472:192,2,112.5,4|0|8,0:0|0:0|0:0,0:0:0:0:
152,192,142903,2,0,B|108:176|88:208|40:192,2,112.5,2|0|2,0:0|0:0|0:0,0:0:0:0:
328,276,143427,2,0,P|256:348|188:272,1,225,8|2,0:0|0:0,0:0:0:0:
256,184,143950,69,0,0:0:0:0:
196,88,144124,1,8,0:0:0:0:
316,88,144299,1,2,0:0:0:0:
376,184,144473,2,0,P|428:148|440:96,1,112.5,0|2,0:0|0:0,0:0:0:0:
136,184,144822,2,0,P|84:148|72:96,1,112.5,8|0,0:0|0:0,0:0:0:0:
256,72,145171,6,0,L|256:196,1,112.5,4|0,0:0|0:0,0:0:0:0:
168,328,145520,1,8,0:0:0:0:
344,328,145694,1,2,0:0:0:0:
136,328,145868,1,0,0:0:0:0:
376,328,146043,1,2,0:0:0:0:
200,256,146217,2,0,B|200:204|200:204|256:180|256:180|312:204|312:204|312:255,1,225,8|2,0:0|0:0,0:0:0:0:
124,232,146741,6,0,B|124:168|124:168|164:136,1,112.5,0|8,0:0|0:0,0:0:0:0:
388,232,147089,2,0,B|388:168|388:168|348:136,1,112.5,2|0,0:0|0:0,0:0:0:0:
144,44,147438,1,2,0:0:0:0:
368,44,147613,1,8,0:0:0:0:
256,172,147787,1,0,0:0:0:0:
256,340,147961,69,4,0:0:0:0:
388,232,148136,1,0,0:0:0:0:
124,232,148310,2,0,L|48:140,1,112.5,8|2,0:0|0:0,0:0:0:0:
256,59,148659,2,0,L|256:172,1,112.5,0|2,0:0|0:0,0:0:0:0:
388,232,149008,2,0,L|464:140,1,112.5,8|0,0:0|0:0,0:0:0:0:
384,60,149357,5,2,0:0:0:0:
340,164,149531,1,0,0:0:0:0:
128,60,149706,5,8,0:0:0:0:
172,164,149880,1,2,0:0:0:0:
256,372,150055,69,0,0:0:0:0:
256,260,150229,1,2,0:0:0:0:
256,12,150403,2,0,L|256:128,1,112.5,8|0,0:0|0:0,0:0:0:0:
256,124,150752,5,4,0:0:0:0:
328,204,150927,1,0,0:0:0:0:
328,204,151101,2,0,P|256:276|186:197,1,225,8|0,0:0|0:0,0:0:0:0:
76,168,151624,2,0,P|108:112|160:96,2,112.5,2|8|0,0:0|0:0|0:0,0:0:0:0:
436,168,152148,6,0,P|404:112|352:96,2,112.5,2|0|8,0:0|0:0|0:0,0:0:0:0:
164,184,152671,2,0,B|164:248|164:248|132:296,1,112.5,2|0,0:0|0:0,0:0:0:0:
256,336,153020,1,2,0:0:0:0:
374,288,153194,2,0,B|348:248|348:248|348:184,1,112.5,8|0,0:0|0:0,0:0:0:0:
256,48,153543,69,4,0:0:0:0:
256,336,153717,1,0,0:0:0:0:
256,336,153892,2,0,P|256:224|348:184,1,225,8|0,0:0|0:0,0:0:0:0:
256,48,154415,1,2,0:0:0:0:
164,184,154589,2,0,P|256:224|256:336,1,225,8|2,0:0|0:0,0:0:0:0:
152,292,155113,5,0,0:0:0:0:
360,292,155287,1,8,0:0:0:0:
404,128,155461,1,2,0:0:0:0:
404,128,155549,1,0,0:0:0:0:
404,128,155636,1,2,0:0:0:0:
404,128,155723,1,0,0:0:0:0:
404,128,155810,1,2,0:0:0:0:
256,48,155985,1,8,0:0:0:0:
108,128,156159,1,0,0:0:0:0:
256,192,156334,6,0,L|256:304,2,112.5,4|0|8,0:0|0:0|0:0,0:0:0:0:
324,100,156857,1,2,0:0:0:0:
340,72,156944,1,0,0:0:0:0:
368,56,157031,1,2,0:0:0:0:
472,96,157206,1,2,0:0:0:0:
396,228,157380,2,0,P|352:264|332:320,1,112.5,8|0,0:0|0:0,0:0:0:0:
176,328,157729,70,0,P|125:308|89:264,1,112.5,2|0,0:0|0:0,0:0:0:0:
89,119,158078,2,0,P|125:75|176:56,1,112.5,8|2,0:0|0:0,0:0:0:0:
256,136,158427,1,0,0:0:0:0:
396,228,158601,1,2,0:0:0:0:
472,96,158775,1,10,0:0:0:0:
368,120,158950,1,2,0:0:0:0:
280,248,159124,6,0,P|240:292|184:304,1,112.5,4|0,0:0|0:0,0:0:0:0:
108,228,159473,1,10,0:0:0:0:
156,124,159648,1,0,0:0:0:0:
256,72,159822,5,2,0:0:0:0:
436,164,159996,1,0,0:0:0:0:
256,156,160171,1,10,0:0:0:0:
364,76,160345,1,0,0:0:0:0:
344,208,160520,70,0,P|364:260|340:316,1,112.5,2|0,0:0|0:0,0:0:0:0:
167,310,160868,2,0,P|148:260|168:208,1,112.5,10|2,0:0|0:0,0:0:0:0:
380,208,161217,6,0,P|400:260|376:316,1,112.5,2|0,0:0|0:0,0:0:0:0:
131,310,161566,2,0,P|112:260|132:208,1,112.5,10|0,0:0|0:0,0:0:0:0:
256,156,161915,6,0,P|276:104|257:54,2,112.5,4|0|8,0:0|0:0|0:0,0:0:0:0:
156,104,162438,1,2,0:0:0:0:
124,104,162525,1,0,0:0:0:0:
88,104,162613,1,2,0:0:0:0:
32,228,162787,1,2,0:0:0:0:
156,284,162961,2,0,P|212:296|246:336,1,112.5,8|0,0:0|0:0,0:0:0:0:
256,168,163310,69,2,0:0:0:0:
388,160,163485,1,0,0:0:0:0:
256,268,163659,1,10,0:0:0:0:
124,160,163834,1,2,0:0:0:0:
256,68,164008,5,0,0:0:0:0:
340,236,164182,1,2,0:0:0:0:
172,236,164357,1,10,0:0:0:0:
256,168,164531,1,2,0:0:0:0:
340,92,164706,6,0,B|392:68|392:68|452:64,1,112.5,2|0,0:0|0:0,0:0:0:0:
172,92,165055,2,0,B|120:68|120:68|60:64,1,112.5,10|2,0:0|0:0,0:0:0:0:
48,88,165316,1,0,0:0:0:0:
36,116,165403,1,2,0:0:0:0:
120,192,165578,1,0,0:0:0:0:
36,268,165752,1,8,0:0:0:0:
120,344,165927,1,0,0:0:0:0:
256,308,166101,70,0,P|364:316|416:208,1,225,2|8,0:0|0:0,0:0:0:0:
256,192,166624,1,2,0:0:0:0:
94,158,166799,2,0,P|148:68|256:76,1,225,2|8,0:0|0:0,0:0:0:0:
256,192,167322,1,2,0:0:0:0:
336,136,167496,6,0,P|384:104|436:108,1,112.5,6|0,0:0|0:0,0:0:0:0:
176,248,167845,2,0,P|128:280|76:276,1,112.5,8|0,0:0|0:0,0:0:0:0:
336,248,168194,2,0,P|384:280|436:276,1,112.5,2|2,0:0|0:0,0:0:0:0:
176,136,168543,2,0,P|128:104|76:108,1,112.5,8|0,0:0|0:0,0:0:0:0:
256,108,168892,5,2,0:0:0:0:
336,248,169066,1,0,0:0:0:0:
176,248,169241,1,10,0:0:0:0:
256,192,169415,69,2,0:0:0:0:
176,332,169589,2,0,P|116:308|88:252,1,112.5,2|0,0:0|0:0,0:0:0:0:
336,332,169938,2,0,P|396:308|424:252,1,112.5,10|0,0:0|0:0,0:0:0:0:
480,64,170287,6,0,P|420:152|316:112,1,225,2|8,0:0|0:0,0:0:0:0:
256,28,170810,1,2,0:0:0:0:
190,120,170985,2,0,P|160:168|136:220,1,112.5,2|0,0:0|0:0,0:0:0:0:
256,352,171334,2,0,P|286:304|310:252,1,112.5,8|0,0:0|0:0,0:0:0:0:
164,36,171682,6,0,P|100:124|52:240,1,225,2|8,0:0|0:0,0:0:0:0:
180,344,172206,1,2,0:0:0:0:
348,348,172380,2,0,P|411:259|460:144,1,225,2|8,0:0|0:0,0:0:0:0:
332,40,172903,1,2,0:0:0:0:
256,124,173078,70,0,P|236:176|255:226,1,112.5,6|0,0:0|0:0,0:0:0:0:
180,40,173427,2,0,P|128:20|78:39,1,112.5,8|0,0:0|0:0,0:0:0:0:
36,152,173775,1,2,0:0:0:0:
164,192,173950,1,0,0:0:0:0:
256,288,174124,1,10,0:0:0:0:
348,192,174299,1,2,0:0:0:0:
256,56,174473,5,2,0:0:0:0:
256,56,174648,1,0,0:0:0:0:
120,192,174822,1,10,0:0:0:0:
120,192,174996,1,0,0:0:0:0:
256,328,175171,1,2,0:0:0:0:
256,328,175345,1,0,0:0:0:0:
392,192,175520,1,10,0:0:0:0:
392,192,175694,1,0,0:0:0:0:
368,80,175868,6,0,P|420:60|470:79,1,112.5,2|0,0:0|0:0,0:0:0:0:
470,305,176217,2,0,P|420:324|368:304,1,112.5,10|2,0:0|0:0,0:0:0:0:
144,304,176566,2,0,P|92:324|42:305,1,112.5,2|0,0:0|0:0,0:0:0:0:
42,79,176915,2,0,P|92:60|144:80,1,112.5,8|0,0:0|0:0,0:0:0:0:
256,84,177264,69,2,0:0:0:0:
349,246,177438,1,0,0:0:0:0:
162,246,177613,1,8,0:0:0:0:
256,176,177787,5,0,0:0:0:0:
271,187,177874,1,0,0:0:0:0:
265,204,177961,1,0,0:0:0:0:
246,204,178049,1,0,0:0:0:0:
240,187,178136,1,0,0:0:0:0:
352,136,178310,1,2,0:0:0:0:
160,136,178485,1,2,0:0:0:0:
256,84,178659,21,4,0:0:0:0:
256,192,189822,12,0,200287,0:0:0:0:
380,80,200985,5,4,0:0:0:0:
452,340,201682,1,2,0:0:0:0:
412,212,202031,1,2,0:0:0:0:
380,80,202380,1,2,0:0:0:0:
256,192,203078,2,0,P|144:128|32:196,2,270.000010299683,2|4|2,0:0|0:0|0:0,0:0:0:0:
284,288,204822,1,2,0:0:0:0:
384,308,205171,1,2,0:0:0:0:
256,32,205868,1,2,0:0:0:0:
128,308,206566,86,0,B|132:284|132:284|148:272|192:276|216:348|184:428|40:428|16:308|44:228|184:252,2,405.000015449525,4|2|2,0:0|0:0|0:0,0:0:0:0:
384,76,209357,2,0,B|380:100|380:100|364:112|320:108|296:36|328:-44|472:-44|496:76|468:156|328:132,2,405.000015449525,2|2|2,0:0|0:0|0:0,0:0:0:0:
256,312,212148,5,4,0:0:0:0:
124,76,212845,1,2,0:0:0:0:
256,104,213194,1,2,0:0:0:0:
388,76,213543,1,2,0:0:0:0:
420,344,214241,1,2,0:0:0:0:
92,344,214938,85,4,0:0:0:0:
256,128,215636,1,2,0:0:0:0:
256,264,215985,1,2,0:0:0:0:
368,192,216334,1,2,0:0:0:0:
100,192,217031,1,2,0:0:0:0:
352,96,217729,6,0,P|492:192|344:296,2,405.000015449525,4|2|2,0:0|0:0|0:0,0:0:0:0:
96,192,220520,2,0,B|127:160|151:192|151:192|159:216|199:216|207:192|207:192|231:160|255:192|255:192|263:216|303:216|311:192|311:192|335:160|359:192|359:192|367:216|399:216|423:191,1,405.000015449525,2|2,0:0|0:0,0:0:0:0:
256,192,221915,12,0,223136,0:0:0:0:
256,40,223310,53,4,0:0:0:0:
256,40,223485,1,0,0:0:0:0:
200,132,223659,1,2,0:0:0:0:
180,156,223746,1,0,0:0:0:0:
152,168,223834,1,2,0:0:0:0:
120,168,223921,1,0,0:0:0:0:
92,156,224008,2,0,B|28:208|28:256|28:256|28:324,1,180,8|0,0:0|0:0,0:0:0:0:
128,360,224531,1,0,0:0:0:0:
176,264,224706,6,0,P|256:300|336:264,1,180,0|2,0:0|0:0,0:0:0:0:
256,188,225229,1,0,0:0:0:0:
256,80,225403,1,8,0:0:0:0:
164,136,225578,1,0,0:0:0:0:
80,68,225752,2,0,P|40:140|88:220,1,180,2|6,0:0|0:0,0:0:0:0:
150,326,226275,69,0,0:0:0:0:
256,260,226450,2,0,L|256:208,3,45,2|0|2|0,0:0|0:0|0:0|0:0,0:0:0:0:
256,260,226799,2,0,P|304:264|348:260,1,90,8|0,0:0|0:0,0:0:0:0:
452,192,227148,1,0,0:0:0:0:
345,123,227322,6,0,P|304:120|256:124,1,90,8|0,0:0|0:0,0:0:0:0:
172,192,227671,1,0,0:0:0:0:
84,252,227845,2,0,P|68:312|50:332,1,90,2|0,0:0|0:0,0:0:0:0:
84,136,228194,2,0,P|100:76|128:48,1,90,8|0,0:0|0:0,0:0:0:0:
256,32,228543,1,0,0:0:0:0:
396,56,228717,1,0,0:0:0:0:
476,192,228892,6,0,P|396:228|316:192,1,180,4|0,0:0|0:0,0:0:0:0:
296,176,229328,1,0,0:0:0:0:
272,164,229415,1,2,0:0:0:0:
248,156,229502,1,0,0:0:0:0:
220,156,229589,1,8,0:0:0:0:
40,272,229938,70,0,P|76:300|116:320,1,90,2|0,0:0|0:0,0:0:0:0:
40,112,230287,2,0,P|76:84|116:64,1,90,2|0,0:0|0:0,0:0:0:0:
256,96,230636,1,2,0:0:0:0:
364,192,230810,1,0,0:0:0:0:
256,288,230985,1,8,0:0:0:0:
184,52,231334,6,0,P|144:76|96:88,1,90,2|0,0:0|0:0,0:0:0:0:
328,52,231682,2,0,P|368:76|416:88,1,90,2|0,0:0|0:0,0:0:0:0:
188,168,232031,1,2,0:0:0:0:
220,184,232118,1,0,0:0:0:0:
256,192,232206,1,0,0:0:0:0:
292,184,232293,1,0,0:0:0:0:
324,168,232380,1,10,0:0:0:0:
56,264,232729,6,0,L|116:336,1,90
176,244,233078,1,0,0:0:0:0:
336,244,233252,1,0,0:0:0:0:
256,316,233427,69,2,0:0:0:0:
256,172,233601,1,0,0:0:0:0:
456,264,233775,2,0,L|396:336,1,90,8|0,0:0|0:0,0:0:0:0:
296,280,234124,1,2,0:0:0:0:
256,172,234299,1,0,0:0:0:0:
264,128,234386,1,0,0:0:0:0:
288,92,234473,1,6,0:0:0:0:
100,252,234822,5,2,0:0:0:0:
100,252,234909,1,0,0:0:0:0:
100,252,234996,1,2,0:0:0:0:
100,252,235084,1,0,0:0:0:0:
100,252,235171,2,0,B|56:168|144:168|100:80,1,180,8|0,0:0|0:0,0:0:0:0:
208,16,235694,1,0,0:0:0:0:
264,128,235868,5,0,0:0:0:0:
212,244,236043,1,0,0:0:0:0:
212,244,236217,2,0,L|264:348,1,90,2|0,0:0|0:0,0:0:0:0:
104,216,236566,2,0,L|52:112,1,90,8|0,0:0|0:0,0:0:0:0:
252,324,236915,2,0,P|326:291|344:200,1,180,2|4,0:0|0:0,0:0:0:0:
256,136,237438,69,0,0:0:0:0:
176,60,237613,1,2,0:0:0:0:
212,32,237700,1,0,0:0:0:0:
256,24,237787,1,2,0:0:0:0:
300,32,237874,1,0,0:0:0:0:
336,60,237961,1,10,0:0:0:0:
392,172,238136,1,0,0:0:0:0:
376,296,238310,6,0,B|340:324|340:324|288:340,1,90,2|8,0:0|0:0,0:0:0:0:
256,236,238659,1,2,0:0:0:0:
136,296,238834,2,0,B|172:324|172:324|224:340,1,90,2|2,0:0|0:0,0:0:0:0:
168,192,239182,1,0,0:0:0:0:
256,88,239357,1,8,0:0:0:0:
344,192,239531,1,0,0:0:0:0:
440,112,239706,6,0,B|408:76|364:64,1,90,2|0,0:0|0:0,0:0:0:0:
72,112,240055,2,0,B|104:76|148:64,1,90,4|0,0:0|0:0,0:0:0:0:
256,144,240403,1,2,0:0:0:0:
256,180,240491,1,0,0:0:0:0:
256,216,240578,1,0,0:0:0:0:
256,252,240665,1,0,0:0:0:0:
256,288,240752,1,8,0:0:0:0:
336,108,241101,70,0,P|256:144|176:108,1,180,2|2,0:0|0:0,0:0:0:0:
156,228,241624,1,0,0:0:0:0:
320,316,241799,1,2,0:0:0:0:
192,316,241973,1,0,0:0:0:0:
356,228,242148,1,8,0:0:0:0:
256,88,242496,5,2,0:0:0:0:
256,88,242671,1,0,0:0:0:0:
256,88,242845,2,0,L|256:196,1,90,6|0,0:0|0:0,0:0:0:0:
192,316,243194,1,2,0:0:0:0:
164,316,243281,1,0,0:0:0:0:
136,316,243368,1,2,0:0:0:0:
108,316,243456,1,0,0:0:0:0:
80,316,243543,6,0,B|36:304|36:304|16:260,1,90,8|0,0:0|0:0,0:0:0:0:
80,68,243892,2,0,B|36:80|36:80|16:124,1,90,2|0,0:0|0:0,0:0:0:0:
92,236,244241,1,2,0:0:0:0:
92,148,244415,1,0,0:0:0:0:
192,192,244589,70,0,L|292:192,1,90,2|0,0:0|0:0,0:0:0:0:
456,64,244938,2,0,L|356:64,1,90,8|2,0:0|0:0,0:0:0:0:
366,320,245287,2,0,L|456:320,1,90,2|0,0:0|0:0,0:0:0:0:
464,192,245636,6,0,B|428:204|408:180|368:192,1,90,4|0,0:0|0:0,0:0:0:0:
288,124,245985,1,2,0:0:0:0:
268,152,246072,1,0,0:0:0:0:
260,188,246159,1,2,0:0:0:0:
268,232,246246,1,0,0:0:0:0:
288,260,246334,1,8,0:0:0:0:
232,352,246508,2,0,P|184:320|180:264,1,90,0|2,0:0|0:0,0:0:0:0:
132,192,246857,1,0,0:0:0:0:
175,92,247031,6,0,P|184:64|232:32,1,90
344,64,247380,1,0,0:0:0:0:
424,136,247555,1,0,0:0:0:0:
324,176,247729,1,8,0:0:0:0:
312,68,247903,69,0,0:0:0:0:
392,140,248078,1,0,0:0:0:0:
288,172,248252,1,0,0:0:0:0:
176,92,248427,6,0,B|136:72|136:72|88:72,1,90,4|0,0:0|0:0,0:0:0:0:
92,312,248775,1,2,0:0:0:0:
92,312,248863,1,0,0:0:0:0:
92,312,248950,1,2,0:0:0:0:
92,312,249037,1,0,0:0:0:0:
92,312,249124,2,0,B|132:332|132:332|180:332,2,90,8|0|2,0:0|0:0|0:0,0:0:0:0:
172,228,249648,5,8,0:0:0:0:
60,200,249822,1,0,0:0:0:0:
92,312,249996,1,0,0:0:0:0:
172,228,250171,1,0,0:0:0:0:
220,336,250345,1,0,0:0:0:0:
288,240,250520,1,8,0:0:0:0:
408,88,250868,69,2,0:0:0:0:
320,152,251043,1,0,0:0:0:0:
256,64,251217,1,4,0:0:0:0:
192,152,251392,1,0,0:0:0:0:
104,88,251566,1,2,0:0:0:0:
104,88,251653,1,0,0:0:0:0:
104,88,251741,1,2,0:0:0:0:
104,88,251828,1,0,0:0:0:0:
104,88,251915,1,8,0:0:0:0:
256,320,252264,6,0,P|220:288|236:236,1,90,2|0,0:0|0:0,0:0:0:0:
408,88,252613,2,0,P|444:120|428:172,1,90
404,260,252961,1,2,0:0:0:0:
256,320,253136,1,0,0:0:0:0:
108,260,253310,1,8,0:0:0:0:
356,52,253659,6,0,P|348:108|308:140,1,90,2|0,0:0|0:0,0:0:0:0:
156,52,254008,2,0,P|164:108|204:140,1,90,4|0,0:0|0:0,0:0:0:0:
256,212,254357,1,2,0:0:0:0:
256,240,254444,1,0,0:0:0:0:
256,268,254531,1,2,0:0:0:0:
256,296,254618,1,0,0:0:0:0:
256,324,254706,1,8,0:0:0:0:
152,136,255055,70,0,B|104:136|104:136|76:176,1,90,2|0,0:0|0:0,0:0:0:0:
360,136,255403,2,0,B|408:136|408:136|436:176,1,90,2|0,0:0|0:0,0:0:0:0:
142,225,255752,2,0,B|108:259|108:259|117:307,1,90,2|0,0:0|0:0,0:0:0:0:
369,225,256101,2,0,B|403:259|403:259|394:307,1,90,8|0,0:0|0:0,0:0:0:0:
300,348,256450,1,2,0:0:0:0:
256,192,256624,1,0,0:0:0:0:
212,36,256799,6,0,L|116:36,1,90,4|0,0:0|0:0,0:0:0:0:
40,104,257148,1,2,0:0:0:0:
40,148,257235,1,0,0:0:0:0:
40,192,257322,1,2,0:0:0:0:
40,236,257409,1,0,0:0:0:0:
40,280,257496,1,8,0:0:0:0:
144,312,257671,1,0,0:0:0:0:
144,312,257845,6,0,P|168:260|216:256,1,90,2|0,0:0|0:0,0:0:0:0:
368,312,258194,2,0,P|344:260|296:256,1,90
144,72,258543,2,0,P|168:124|216:128,1,90,2|0,0:0|0:0,0:0:0:0:
368,72,258892,2,0,P|344:124|296:128,1,90,8|0,0:0|0:0,0:0:0:0:
108,192,259241,70,0,L|208:192,1,90,2|0,0:0|0:0,0:0:0:0:
404,192,259589,2,0,L|304:192,1,90,4|0,0:0|0:0,0:0:0:0:
256,284,259938,2,0,L|256:352,4,45,2|0|2|0|8,0:0|0:0|0:0|0:0|0:0,0:0:0:0:
256,100,260461,1,0,0:0:0:0:
404,192,260636,1,2,0:0:0:0:
256,284,260810,1,0,0:0:0:0:
108,192,260985,1,0,0:0:0:0:
256,64,261159,5,0,0:0:0:0:
436,192,261334,1,2,0:0:0:0:
256,320,261508,1,0,0:0:0:0:
76,192,261682,1,8,0:0:0:0:
340,136,262031,6,0,B|368:100|368:100|368:56,1,90,2|0,0:0|0:0,0:0:0:0:
172,248,262380,2,0,B|144:284|144:284|144:328,1,90,4|0,0:0|0:0,0:0:0:0:
256,192,262729,1,2,0:0:0:0:
256,192,262816,1,0,0:0:0:0:
256,192,262903,1,2,0:0:0:0:
256,192,262991,1,0,0:0:0:0:
256,192,263078,1,8,0:0:0:0:
432,316,263427,70,0,B|452:272|452:272|436:212,1,90,2|0,0:0|0:0,0:0:0:0:
432,68,263775,2,0,B|452:112|452:112|436:172,1,90
360,192,264124,1,2,0:0:0:0:
256,280,264299,1,2,0:0:0:0:
152,192,264473,1,8,0:0:0:0:
256,104,264648,1,0,0:0:0:0:
256,104,264822,6,0,P|216:88|172:104,1,90,2|0,0:0|0:0,0:0:0:0:
256,280,265171,2,0,P|296:296|340:280,1,90,4|0,0:0|0:0,0:0:0:0:
416,236,265520,1,2,0:0:0:0:
432,220,265607,1,0,0:0:0:0:
436,196,265694,1,2,0:0:0:0:
432,172,265781,1,0,0:0:0:0:
416,152,265868,1,8,0:0:0:0:
328,52,266043,1,0,0:0:0:0:
256,192,266217,1,2,0:0:0:0:
184,52,266392,1,0,0:0:0:0:
256,104,266566,5,0,0:0:0:0:
256,192,266653,12,0,267961,0:0:0:0:
136,236,279124,70,0,P|68:192|68:116,1,153.000002918243,4|2,0:0|0:2,0:0:0:0:
216,100,279822,1,0,0:0:0:0:
256,248,280171,1,2,0:0:0:0:
376,148,280520,6,0,P|444:192|444:268,1,153.000002918243,2|2,0:0|0:2,0:0:0:0:
256,248,281217,1,0,0:0:0:0:
136,148,281566,1,2,0:0:0:0:
428,56,281915,6,0,B|364:56|364:148|316:148,1,153.000002918243,2|0,0:0|0:0,0:0:0:0:
136,148,282613,1,2,0:0:0:0:
72,192,282787,1,0,0:0:0:0:
72,268,282961,1,2,0:0:0:0:
256,348,283310,70,0,L|324:284,1,76.5000014591217,2|0,0:0|0:0,0:0:0:0:
404,304,283659,2,0,L|430:214,1,76.5000014591217,2|0,0:0|0:0,0:0:0:0:
376,152,284008,2,0,L|308:216,1,76.5000014591217,2|0,0:0|0:0,0:0:0:0:
228,196,284357,2,0,L|201:285,1,76.5000014591217,2|0,0:0|0:0,0:0:0:0:
100,252,284706,5,4,0:0:0:0:
32,192,284880,1,0,0:0:0:0:
100,132,285055,2,0,L|100:80,4,45,2|0|2|0|2,0:0|0:0|0:0|0:0|0:0,0:0:0:0:
100,252,285578,1,0,0:0:0:0:
188,340,285752,2,0,L|224:248,1,90,2|0,0:0|0:0,0:0:0:0:
320,56,286101,6,0,L|388:132,1,90,2|0,0:0|0:0,0:0:0:0:
216,120,286450,2,0,L|148:44,1,90,2|0,0:0|0:0,0:0:0:0:
100,252,286799,70,0,L|160:184,1,90,2|0,0:0|0:0,0:0:0:0:
324,180,287148,2,0,L|264:248,1,90,2|0,0:0|0:0,0:0:0:0:
424,232,287496,69,2,0:0:0:0:
216,120,287845,1,2,0:0:0:0:
440,48,288194,1,2,0:0:0:0:
256,244,288543,1,2,0:0:0:0:
84,296,288892,5,2,0:0:0:0:
186,195,289066,1,2,0:0:0:0:
257,308,289241,1,2,0:0:0:0:
370,220,289415,1,2,0:0:0:0:
364,52,289589,2,2,L|327:15,1,45
256,108,289764,2,2,L|292:144,1,45
364,132,289938,1,8,3:0:0:0:
88,160,290287,6,0,P|133:196|185:194,1,112.5,4|0,0:0|0:0,0:0:0:0:
256,280,290636,1,8,0:0:0:0:
356,228,290810,2,0,P|400:256|416:312,1,112.5,2|0,0:0|0:0,0:0:0:0:
167,332,291159,2,0,P|220:323|256:280,1,112.5,0|8,0:0|0:0,0:0:0:0:
256,168,291508,1,0,0:0:0:0:
256,56,291682,5,2,0:0:0:0:
352,108,291857,2,0,P|404:88|454:106,1,112.5,0|10,0:0|0:0,0:0:0:0:
256,168,292206,1,2,0:0:0:0:
160,276,292380,2,0,P|108:296|58:278,2,112.5,0|2|10,0:0|0:0|0:0,0:0:0:0:
36,192,292903,1,0,0:0:0:0:
56,40,293078,6,0,P|124:104|244:80,1,225,4|8,0:0|0:0,0:0:0:0:
464,116,293601,2,0,L|352:116,1,112.5,2|0,0:0|0:0,0:0:0:0:
108,176,293950,1,2,0:0:0:0:
108,176,294124,2,0,L|240:176,1,112.5,10|0,0:0|0:0,0:0:0:0:
428,264,294473,69,2,0:0:0:0:
328,356,294648,1,0,0:0:0:0:
256,244,294822,1,8,0:0:0:0:
184,356,294996,1,0,0:0:0:0:
84,264,295171,1,0,0:0:0:0:
256,116,295345,1,2,0:0:0:0:
256,116,295432,1,0,0:0:0:0:
256,116,295520,1,8,0:0:0:0:
416,60,295694,1,2,0:0:0:0:
416,60,295868,6,0,P|412:160|300:200,1,225,4|10,0:0|0:0,0:0:0:0:
132,244,296392,1,2,0:0:0:0:
92,204,296479,1,0,0:0:0:0:
52,164,296566,2,0,B|52:109|52:109|92:69,1,112.5,2|0,0:0|0:0,0:0:0:0:
207,280,296915,2,0,B|167:320|167:320|112:320,1,112.5,8|0,0:0|0:0,0:0:0:0:
256,116,297264,6,8,P|320:28|420:64,1,225,2|10,0:0|0:0,0:0:0:0:
395,191,297787,1,2,0:0:0:0:
409,245,297874,1,0,0:0:0:0:
424,300,297961,2,0,B|396:347|396:347|341:362,1,112.5,2|0,0:0|0:0,0:0:0:0:
347,122,298310,2,0,B|401:107|401:107|449:134,1,112.5,8|0,0:0|0:0,0:0:0:0:
256,288,298659,70,0,P|200:284|152:256,1,112.5,4|0,0:0|0:0,0:0:0:0:
32,144,299008,1,8,0:0:0:0:
76,136,299095,1,0,0:0:0:0:
116,112,299182,1,2,0:0:0:0:
140,72,299270,1,0,0:0:0:0:
156,32,299357,1,2,0:0:0:0:
256,148,299531,1,0,0:0:0:0:
436,152,299706,5,8,0:0:0:0:
340,318,299880,1,0,0:0:0:0:
325,199,300055,1,2,0:0:0:0:
450,271,300229,1,0,0:0:0:0:
256,320,300403,5,8,0:0:0:0:
212,332,300491,1,0,0:0:0:0:
168,324,300578,1,2,0:0:0:0:
136,296,300665,1,0,0:0:0:0:
120,252,300752,1,2,0:0:0:0:
256,200,300927,1,0,0:0:0:0:
384,244,301101,2,0,P|413:190|406:140,1,112.5,10|0,0:0|0:0,0:0:0:0:
344,48,301450,69,4,0:0:0:0:
256,120,301624,1,0,0:0:0:0:
168,48,301799,1,8,0:0:0:0:
128,152,301973,2,0,B|88:188|88:188|112:244,1,112.5,2|0,0:0|0:0,0:0:0:0:
256,232,302322,2,0,L|256:120,1,112.5,2|8,0:0|0:0,0:0:0:0:
384,152,302671,1,0,0:0:0:0:
384,152,302845,6,0,P|452:236|364:292,1,225,2|8,0:0|0:0,0:0:0:0:
256,348,303368,1,2,0:0:0:0:
133,294,303543,1,0,0:0:0:0:
133,294,303717,2,0,P|64:256|60:204,1,112.5,2|8,0:0|0:0,0:0:0:0:
28,120,304066,1,0,0:0:0:0:
120,56,304241,6,0,P|189:94|193:146,1,112.5,4|0,0:0|0:0,0:0:0:0:
315,121,304589,2,0,P|323:94|392:56,1,112.5,8|2,0:0|0:0,0:0:0:0:
484,120,304938,1,0,0:0:0:0:
455,228,305113,2,0,P|448:256|379:294,1,112.5,2|8,0:0|0:0,0:0:0:0:
132,294,305461,69,0,0:0:0:0:
256,180,305636,1,2,0:0:0:0:
379,294,305810,1,0,0:0:0:0:
256,344,305985,1,8,0:0:0:0:
256,304,306072,1,0,0:0:0:0:
256,264,306159,1,2,0:0:0:0:
256,224,306246,1,0,0:0:0:0:
256,180,306334,1,2,0:0:0:0:
312,84,306508,2,0,P|236:72|176:104,2,112.5,2|8|0,0:0|0:0|0:0,0:0:0:0:
420,112,307031,5,4,0:0:0:0:
384,220,307206,1,0,0:0:0:0:
256,68,307380,5,8,0:0:0:0:
256,180,307555,1,2,0:0:0:0:
92,112,307729,69,0,0:0:0:0:
128,220,307903,1,2,0:0:0:0:
256,328,308078,1,8,0:0:0:0:
256,328,308165,1,0,0:0:0:0:
256,328,308252,1,0,0:0:0:0:
368,324,308427,6,0,B|428:324|428:324|459:281,1,112.5,2|0,0:0|0:0,0:0:0:0:
444,172,308775,1,8,0:0:0:0:
368,88,308950,1,2,0:0:0:0:
256,68,309124,1,0,0:0:0:0:
144,88,309299,1,2,0:0:0:0:
68,172,309473,1,8,0:0:0:0:
68,172,309560,1,0,0:0:0:0:
68,172,309648,1,0,0:0:0:0:
52,281,309822,6,0,B|84:324|84:324|144:324,1,112.5,4|0,0:0|0:0,0:0:0:0:
459,281,310171,2,0,B|428:324|428:324|368:324,1,112.5,8|2,0:0|0:0,0:0:0:0:
143,211,310520,2,0,L|143:323,1,112.5,0|2,0:0|0:0,0:0:0:0:
369,211,310868,2,0,L|369:323,1,112.5,8|0,0:0|0:0,0:0:0:0:
256,340,311217,69,2,0:0:0:0:
144,212,311392,1,0,0:0:0:0:
256,84,311566,1,8,0:0:0:0:
368,212,311741,1,2,0:0:0:0:
324,220,311828,1,0,0:0:0:0:
280,212,311915,1,2,0:0:0:0:
240,192,312002,1,0,0:0:0:0:
212,156,312089,1,2,0:0:0:0:
108,112,312264,2,0,P|39:136|12:169,1,112.5,8|0,0:0|0:0,0:0:0:0:
40,276,312613,5,4,0:0:0:0:
128,344,312787,1,0,0:0:0:0:
240,352,312961,2,0,L|360:352,1,112.5,8|2,0:0|0:0,0:0:0:0:
408,192,313310,2,0,L|272:192,1,112.5,0|2,0:0|0:0,0:0:0:0:
240,32,313659,2,0,L|360:32,1,112.5,8|0,0:0|0:0,0:0:0:0:
452,88,314008,5,2,0:0:0:0:
408,192,314182,1,0,0:0:0:0:
336,280,314357,1,8,0:0:0:0:
256,356,314531,1,2,0:0:0:0:
176,280,314706,1,0,0:0:0:0:
104,192,314880,1,2,0:0:0:0:
60,88,315055,1,8,0:0:0:0:
172,108,315229,69,0,0:0:0:0:
256,184,315403,1,4,0:0:0:0:
340,108,315578,1,0,0:0:0:0:
256,36,315752,1,8,0:0:0:0:
256,72,315839,1,0,0:0:0:0:
256,112,315927,1,2,0:0:0:0:
256,152,316014,1,0,0:0:0:0:
256,184,316101,1,2,0:0:0:0:
208,284,316275,2,0,P|248:308|304:284,2,112.5,2|8|0,0:0|0:0|0:0,0:0:0:0:
120,352,316799,6,0,P|92:308|104:251,1,112.5,2|0,0:0|0:0,0:0:0:0:
407,251,317148,2,0,P|420:308|392:352,2,112.5,8|2|0,0:0|0:0|0:0,0:0:0:0:
484,140,317671,1,0,0:0:0:0:
404,28,317845,6,0,P|336:56|328:96,1,112.5,8|0,0:0|0:0,0:0:0:0:
108,28,318194,2,0,P|176:56|184:96,1,112.5,4|0,0:0|0:0,0:0:0:0:
256,176,318543,2,0,L|256:244,4,56.25,8|0|2|0|2,0:0|0:0|0:0|0:0|0:0,0:0:0:0:
256,64,319066,69,2,0:0:0:0:
116,156,319241,1,8,0:0:0:0:
172,316,319415,1,0,0:0:0:0:
340,316,319589,1,2,0:0:0:0:
396,156,319764,1,0,0:0:0:0:
256,176,319938,1,8,0:0:0:0:
256,192,320025,1,0,0:0:0:0:
256,208,320113,1,2,0:0:0:0:
256,224,320200,1,0,0:0:0:0:
256,240,320287,1,2,0:0:0:0:
340,316,320461,6,0,P|424:288|448:240,1,112.5,2|8,0:0|0:0,0:0:0:0:
340,68,320810,2,0,P|424:96|448:144,2,112.5,0|4|0,0:0|0:0|0:0,0:0:0:0:
172,68,321334,1,8,0:0:0:0:
128,72,321421,1,0,0:0:0:0:
88,92,321508,1,2,0:0:0:0:
60,128,321595,1,0,0:0:0:0:
52,172,321682,1,2,0:0:0:0:
120,264,321857,6,0,L|84:320,2,56.25,2|0|8,0:0|0:0|0:0,0:0:0:0:
256,308,322206,2,0,L|256:376,2,56.25,2|0|2,0:0|0:0|0:0,0:0:0:0:
392,264,322555,2,0,L|428:320,2,56.25,2|0|8,0:0|0:0|0:0,0:0:0:0:
392,120,322903,70,0,L|428:64,2,56.25,2|0|0,0:0|0:0|0:0,0:0:0:0:
256,76,323252,2,0,L|256:8,2,56.25,2|0|8,0:0|0:0|0:0,0:0:0:0:
120,120,323601,1,0,0:0:0:0:
40,228,323775,6,0,P|64:280|108:312,1,112.5,4|0,0:0|0:0,0:0:0:0:
312,260,324124,2,0,P|334:210|328:153,1,112.5,8|0,0:0|0:0,0:0:0:0:
184,152,324473,2,0,P|178:209|200:258,1,112.5,2|0,0:0|0:0,0:0:0:0:
404,312,324822,2,0,P|448:280|472:228,1,112.5,8|2,0:0|0:0,0:0:0:0:
388,124,325171,5,2,0:0:0:0:
256,92,325345,1,0,0:0:0:0:
124,124,325520,1,8,0:0:0:0:
256,188,325694,1,2,0:0:0:0:
188,280,325868,70,0,P|132:296|84:321,1,112.5,0|2,0:0|0:0,0:0:0:0:
324,280,326217,2,0,P|380:296|427:321,1,112.5,8|0,0:0|0:0,0:0:0:0:
124,124,326566,6,0,P|72:92|40:44,1,112.5,6|0,0:0|0:0,0:0:0:0:
256,92,326915,2,0,P|308:124|340:172,1,112.5,8|0,0:0|0:0,0:0:0:0:
160,260,327264,2,0,P|100:274|44:262,1,112.5,2|2,0:0|0:0,0:0:0:0:
240,196,327613,2,0,P|254:255|242:311,1,112.5,8|0,0:0|0:0,0:0:0:0:
156,172,327961,6,0,P|187:120|235:89,1,112.5,2|0,0:0|0:0,0:0:0:0:
352,152,328310,1,8,0:0:0:0:
480,192,328485,1,0,0:0:0:0:
376,280,328659,2,0,P|268:264|204:364,1,225,2|8,0:0|0:0,0:0:0:0:
308,360,329182,1,2,0:0:0:0:
134,281,329357,70,0,P|78:259|56:213,1,112.5,6|0,0:0|0:0,0:0:0:0:
184,197,329706,2,0,P|160:142|178:94,1,112.5,8|2,0:0|0:0,0:0:0:0:
279,176,330055,2,0,P|301:120|348:98,2,112.5,2|0|8,0:0|0:0|0:0,0:0:0:0:
388,200,330578,1,2,0:0:0:0:
196,56,330752,6,0,P|140:48|84:56,1,112.5,0|2,0:0|0:0,0:0:0:0:
84,264,331101,2,0,P|139:271|195:263,1,112.5,8|0,0:0|0:0,0:0:0:0:
192,132,331450,2,0,P|136:124|80:132,1,112.5,2|0,0:0|0:0,0:0:0:0:
80,340,331799,2,0,P|135:347|191:339,1,112.5,10|0,0:0|0:0,0:0:0:0:
296,252,332148,5,6,0:0:0:0:
416,192,332322,1,2,0:0:0:0:
408,328,332496,1,8,0:0:0:0:
296,252,332671,2,0,L|256:292,4,56.25,2|0|2|0|2,0:0|0:0|0:0|0:0|0:0,0:0:0:0:
416,192,333194,1,8,0:0:0:0:
408,56,333368,1,0,0:0:0:0:
296,132,333543,70,0,P|248:156|176:152,1,112.5,2|0,0:0|0:0,0:0:0:0:
36,272,333892,2,0,P|84:248|156:244,1,112.5,8|0,0:0|0:0,0:0:0:0:
164,244,334153,1,0,0:0:0:0:
188,248,334241,1,0,0:0:0:0:
208,256,334328,1,0,0:0:0:0:
224,272,334415,1,0,0:0:0:0:
336,344,334589,2,0,P|389:340|453:308,1,112.5,8|0,0:0|0:0,0:0:0:0:
396,188,334938,6,0,B|396:120|396:120|368:80,1,112.5,6|0,0:0|0:0,0:0:0:0:
256,168,335287,2,0,L|256:296,1,112.5,8|0,0:0|0:0,0:0:0:0:
116,188,335636,2,0,B|116:120|116:120|144:80,1,112.5,2|2,0:0|0:0,0:0:0:0:
256,280,335985,2,0,P|224:328|172:340,1,112.5,8|0,0:0|0:0,0:0:0:0:
328,232,336334,6,0,P|340:288|304:352,1,112.5,2|0,0:0|0:0,0:0:0:0:
184,152,336682,2,0,P|172:96|208:32,1,112.5,8|0,0:0|0:0,0:0:0:0:
288,108,337031,1,2,0:0:0:0:
224,276,337206,1,0,0:0:0:0:
314,124,337380,1,8,0:0:0:0:
197,259,337555,1,2,0:0:0:0:
328,232,337729,70,0,P|377:211|433:223,1,112.5,6|0,0:0|0:0,0:0:0:0:
184,152,338078,2,0,P|134:172|78:160,1,112.5,8|0,0:0|0:0,0:0:0:0:
124,56,338427,1,2,0:0:0:0:
256,92,338601,1,0,0:0:0:0:
388,56,338775,1,8,0:0:0:0:
124,328,339124,5,2,0:0:0:0:
256,292,339299,1,0,0:0:0:0:
388,328,339473,1,8,0:0:0:0:
40,136,339822,6,0,B|64:104|64:104|136:104,1,112.5,2|0,0:0|0:0,0:0:0:0:
136,280,340171,2,0,B|64:280|64:280|40:248,1,112.5,8|0,0:0|0:0,0:0:0:0:
368,192,340520,70,0,L|256:192,1,112.5,4|0,0:0|0:0,0:0:0:0:
220,84,340868,1,8,0:0:0:0:
220,300,341043,1,2,0:0:0:0:
332,284,341217,2,0,P|392:288|432:324,1,112.5,2|0,0:0|0:0,0:0:0:0:
332,100,341566,2,0,P|392:96|432:60,1,112.5,8|0,0:0|0:0,0:0:0:0:
256,192,341915,5,2,0:0:0:0:
144,300,342089,1,2,0:0:0:0:
28,192,342264,1,8,0:0:0:0:
144,84,342438,1,2,0:0:0:0:
144,192,342613,6,0,B|120:240|92:224|56:276,1,112.5,2|0,0:0|0:0,0:0:0:0:
368,192,342961,2,0,B|392:240|420:224|456:276,1,112.5,8|0,0:0|0:0,0:0:0:0:
256,40,343310,69,6,0:0:0:0:
256,192,343485,1,2,0:0:0:0:
168,268,343659,5,8,0:0:0:0:
368,192,343834,1,2,0:0:0:0:
168,116,344008,1,2,0:0:0:0:
344,116,344182,5,0,0:0:0:0:
144,192,344357,1,10,0:0:0:0:
344,268,344531,1,0,0:0:0:0:
144,192,344706,70,0,L|28:192,1,112.5,2|0,0:0|0:0,0:0:0:0:
368,192,345055,2,0,L|484:192,1,112.5,8|0,0:0|0:0,0:0:0:0:
256,36,345403,2,0,B|232:92|276:92|256:156,1,112.5,2|0,0:0|0:0,0:0:0:0:
256,348,345752,2,0,B|232:292|276:292|256:228,1,112.5,8|0,0:0|0:0,0:0:0:0:
144,192,346101,5,4,0:0:0:0:
368,192,346275,1,2,0:0:0:0:
188,268,346450,2,0,P|132:284|84:256,1,112.5,8|0,0:0|0:0,0:0:0:0:
324,268,346799,2,0,P|380:284|428:256,1,112.5,2|0,0:0|0:0,0:0:0:0:
344,92,347148,6,0,P|256:32|168:92,1,225,8|2,0:0|0:0,0:0:0:0:
256,192,347671,1,0,0:0:0:0:
344,292,347845,2,0,P|256:352|168:292,1,225,8|2,0:0|0:0,0:0:0:0:
376,192,348368,1,0,0:0:0:0:
256,272,348543,1,8,0:0:0:0:
136,192,348717,1,0,0:0:0:0:
312,112,348892,70,0,P|368:92|424:100,1,112.5,4|0,0:0|0:0,0:0:0:0:
200,112,349241,2,0,P|144:92|88:100,1,112.5,8|0,0:0|0:0,0:0:0:0:
76,276,349589,1,2,0:0:0:0:
256,192,349764,1,0,0:0:0:0:
436,276,349938,1,8,0:0:0:0:
136,192,350287,6,0,P|100:132|104:76,1,112.5,2|0,0:0|0:0,0:0:0:0:
376,192,350636,2,0,P|412:132|408:76,1,112.5,8|2,0:0|0:0,0:0:0:0:
200,268,350985,2,0,P|138:301|114:352,1,112.5,2|0,0:0|0:0,0:0:0:0:
312,268,351334,2,0,P|373:301|397:352,1,112.5,8|0,0:0|0:0,0:0:0:0:
256,344,351682,5,4,0:0:0:0:
256,192,351857,1,2,0:0:0:0:
309,44,352031,2,0,B|404:44|404:44|464:64|464:152,1,225,8|2,0:0|0:0,0:0:0:0:
256,192,352555,1,0,0:0:0:0:
48,149,352729,2,0,B|48:64|108:44|108:44|202:44,1,225,8|2,0:0|0:0,0:0:0:0:
256,192,353252,1,0,0:0:0:0:
176,256,353427,70,0,B|148:300|148:300|88:300,1,112.5,8|0,0:0|0:0,0:0:0:0:
336,256,353775,2,0,B|364:300|364:300|424:300,1,112.5,2|0,0:0|0:0,0:0:0:0:
256,140,354124,2,0,B|236:84|276:84|256:28,1,112.5,8|2,0:0|0:0,0:0:0:0:
149,98,354473,5,4,0:0:0:0:
363,98,354648,1,2,0:0:0:0:
188,192,354822,1,8,0:0:0:0:
324,192,354996,1,0,0:0:0:0:
149,286,355171,1,2,0:0:0:0:
363,286,355345,1,2,0:0:0:0:
108,192,355520,1,8,0:0:0:0:
404,192,355694,1,0,0:0:0:0:
256,140,355868,6,0,B|273:86|229:86|253:30,2,112.5,0|0|8,0:0|0:0|0:0,0:0:0:0:
220,272,356392,2,0,L|200:332,1,56.25
292,272,356566,2,0,L|312:332,1,56.25
256,348,356741,1,0,0:0:0:0:
456,192,356915,2,0,B|402:175|402:219|346:195,1,112.5,8|0,0:0|0:0,0:0:0:0:
128,84,357264,70,0,P|192:108|208:160,1,112.5,4|0,0:0|0:0,0:0:0:0:
148,320,357613,2,0,P|172:256|224:240,1,112.5,8|2,0:0|0:0,0:0:0:0:
384,300,357961,2,0,P|320:276|304:223,1,112.5,0|2,0:0|0:0,0:0:0:0:
364,64,358310,2,0,P|340:128|288:144,1,112.5,8|0,0:0|0:0,0:0:0:0:
140,192,358659,5,2,0:0:0:0:
372,192,358834,1,0,0:0:0:0:
172,192,359008,1,8,0:0:0:0:
340,192,359182,1,2,0:0:0:0:
256,44,359357,2,0,P|232:96|264:144,1,112.5,0|2,0:0|0:0,0:0:0:0:
256,340,359706,2,0,P|280:288|248:240,1,112.5,8|0,0:0|0:0,0:0:0:0:
156,90,360055,5,4,0:0:0:0:
84,148,360229,1,0,0:0:0:0:
68,236,360403,1,8,0:0:0:0:
96,320,360578,1,2,0:0:0:0:
356,294,360752,69,0,0:0:0:0:
428,236,360927,1,2,0:0:0:0:
444,148,361101,1,8,0:0:0:0:
416,64,361275,1,0,0:0:0:0:
308,36,361450,6,0,P|288:92|255:133,1,112.5,2|0,0:0|0:0,0:0:0:0:
204,348,361799,2,0,P|224:292|256:250,1,112.5,8|2,0:0|0:0,0:0:0:0:
156,90,362148,2,0,P|216:102|256:134,1,112.5,0|2,0:0|0:0,0:0:0:0:
356,294,362496,2,0,P|296:282|256:250,1,112.5,8|0,0:0|0:0,0:0:0:0:
160,192,362845,5,4,0:0:0:0:
48,192,363020,1,0,0:0:0:0:
104,288,363194,1,8,0:0:0:0:
136,180,363368,69,2,0:0:0:0:
24,184,363543,1,0,0:0:0:0:
84,280,363717,1,2,0:0:0:0:
192,320,363892,6,0,P|244:336|300:320,1,112.5,8|0,0:0|0:0,0:0:0:0:
320,64,364241,2,0,P|268:48|212:64,1,112.5,2|0,0:0|0:0,0:0:0:0:
256,192,364589,1,8,0:0:0:0:
256,192,364764,1,2,0:0:0:0:
368,192,364938,1,0,0:0:0:0:
480,192,365113,1,2,0:0:0:0:
372,164,365287,1,8,0:0:0:0:
484,164,365461,1,0,0:0:0:0:
432,64,365636,5,4,0:0:0:0:
256,192,365810,1,0,0:0:0:0:
80,64,365985,1,8,0:0:0:0:
80,64,366159,1,2,0:0:0:0:
28,164,366334,1,0,0:0:0:0:
140,164,366508,1,2,0:0:0:0:
32,192,366682,1,8,0:0:0:0:
144,192,366857,1,0,0:0:0:0:
92,292,367031,70,0,B|112:344|112:344|173:349,1,112.5,2|0,0:0|0:0,0:0:0:0:
420,292,367380,2,0,B|400:344|400:344|338:349,1,112.5,8|2,0:0|0:0,0:0:0:0:
256,280,367729,1,0,0:0:0:0:
340,132,367903,1,2,0:0:0:0:
172,132,368078,1,8,0:0:0:0:
256,280,368252,1,0,0:0:0:0:
256,112,368427,6,0,P|220:56|164:44,1,112.5,4|0,0:0|0:0,0:0:0:0:
256,112,368775,2,0,P|292:56|348:44,1,112.5,8|2,0:0|0:0,0:0:0:0:
428,104,369124,1,0,0:0:0:0:
400,212,369299,1,2,0:0:0:0:
84,280,369473,1,8,0:0:0:0:
112,172,369648,1,0,0:0:0:0:
140,64,369822,6,0,P|64:76|16:220,1,225,2|8,0:0|0:0,0:0:0:0:
84,280,370345,1,2,0:0:0:0:
172,348,370520,2,0,P|248:336|296:192,1,225,0|8,0:0|0:0,0:0:0:0:
384,136,371043,1,0,0:0:0:0:
300,60,371217,69,4,0:0:0:0:
216,136,371392,1,0,0:0:0:0:
140,56,371566,1,8,0:0:0:0:
60,136,371741,1,2,0:0:0:0:
136,220,371915,2,0,P|128:280|164:328,1,112.5,0|2,0:0|0:0,0:0:0:0:
256,248,372264,2,0,L|256:360,1,112.5,8|0,0:0|0:0,0:0:0:0:
376,220,372613,6,0,P|384:280|348:328,2,112.5,2|0|8,0:0|0:0|0:0,0:0:0:0:
468,88,373136,1,2,0:0:0:0:
468,88,373310,2,0,P|408:48|344:40,1,112.5,0|2,0:0|0:0,0:0:0:0:
44,88,373659,2,0,P|104:48|168:40,1,112.5,8|0,0:0|0:0,0:0:0:0:
256,36,374008,6,0,L|256:164,1,112.5,4|0,0:0|0:0,0:0:0:0:
256,316,374357,2,0,L|256:256,2,56.25,8|0|2,0:0|0:0|0:0,0:0:0:0:
144,292,374706,1,0,0:0:0:0:
68,208,374880,1,2,0:0:0:0:
144,292,375055,1,8,0:0:0:0:
256,316,375229,1,0,0:0:0:0:
368,292,375403,69,2,0:0:0:0:
444,208,375578,1,0,0:0:0:0:
368,292,375752,1,8,0:0:0:0:
256,316,375927,2,0,L|312:212,1,112.5,2|0,0:0|0:0,0:0:0:0:
256,68,376275,2,0,L|200:172,2,112.5,2|8|0,0:0|0:0|0:0,0:0:0:0:
424,40,376799,5,4,0:0:0:0:
444,208,376973,1,0,0:0:0:0:
276,236,377148,1,8,0:0:0:0:
256,68,377322,1,2,0:0:0:0:
88,40,377496,5,0,0:0:0:0:
68,208,377671,1,2,0:0:0:0:
236,236,377845,1,8,0:0:0:0:
256,68,378020,1,0,0:0:0:0:
256,192,378194,12,4,379589,0:0:0:0:
256,48,380287,5,2,0:0:0:0:
400,192,380636,1,2,0:0:0:0:
256,336,380985,1,2,0:0:0:0:
28,192,381682,1,2,0:0:0:0:
400,192,382380,6,0,P|288:244|159:190,1,270.000010299683,4|2,0:0|0:0,0:0:0:0:
180,56,383427,1,2,0:0:0:0:
276,148,383775,1,2,0:0:0:0:
76,332,384473,1,2,0:0:0:0:
76,332,385171,86,0,P|28:244|144:328,2,405.000015449525,4|2|2,0:0|0:0|0:0,0:0:0:0:
436,52,387961,2,0,P|484:140|368:56,2,405.000015449525,2|2|2,0:0|0:0|0:0,0:0:0:0:
168,68,390752,5,4,0:0:0:0:
228,332,391450,1,2,0:0:0:0:
352,280,391799,1,2,0:0:0:0:
472,340,392148,1,2,0:0:0:0:
352,100,392845,1,2,0:0:0:0:
96,192,393543,85,4,0:0:0:0:
352,280,394241,1,2,0:0:0:0:
456,192,394589,1,2,0:0:0:0:
352,100,394938,1,2,0:0:0:0:
352,100,395636,1,2,0:0:0:0:
24,152,396334,6,0,B|160:152|192:80|148:16|72:16|28:80|60:152|196:151,1,405.000015449525,4|2,0:0|0:0,0:0:0:0:
256,192,398427,1,2,0:0:0:0:
488,232,399124,2,0,B|352:232|320:304|364:368|440:368|484:304|452:232|315:232,1,405.000015449525,2|2,0:0|0:0,0:0:0:0:
256,192,401217,37,2,0:0:0:0:
