osu file format v12

[General]
AudioFilename: time.mp3
AudioLeadIn: 0
PreviewTime: 109878
Countdown: 0
SampleSet: Soft
StackLeniency: 0.7
Mode: 0
LetterboxInBreaks: 0
WidescreenStoryboard: 0

[Editor]
DistanceSpacing: 1
BeatDivisor: 4
GridSize: 4

[Metadata]
Title:Time Bomb (feat. Veela & Boyinaband)
TitleUnicode:Time Bomb (feat. Veela & Boyinaband)
Artist:Feint
ArtistUnicode:Feint
Creator:vipto
Version:Hard
Source:
Tags:drum and bass dnb katty pie kattypie lally
BeatmapID:267135
BeatmapSetID:98842

[Difficulty]
HPDrainRate:6
CircleSize:4
OverallDifficulty:6
ApproachRate:8
SliderMultiplier:1.5
SliderTickRate:1

[Events]
//Background and Video events
0,0,"asdasd.jpg",0,0
//Break Periods
2,88135,98157
//Storyboard Layer 0 (Background)
//Storyboard Layer 1 (Fail)
//Storyboard Layer 2 (Pass)
//Storyboard Layer 3 (Foreground)
//Storyboard Sound Samples
//Background Colour Transformations
3,100,163,162,255

[TimingPoints]
22107,342.857142857143,4,2,1,30,1,0
44049,-83.3333333333333,4,1,1,50,0,1
65992,-83.3333333333333,4,1,1,50,0,0
98907,-100,4,2,1,30,0,0
109878,-83.3333333333333,4,1,1,50,0,1
131821,-83.3333333333333,4,1,1,50,0,0
153764,-100,4,2,1,35,0,0
175707,-100,4,2,0,50,0,0

[Colours]
Combo1 : 245,173,235
Combo2 : 0,132,196
Combo3 : 149,199,253
Combo4 : 255,176,138
Combo5 : 207,255,159

[HitObjects]
256,328,22107,2,0,P|312:332|372:248,1,150,0|8,3:0|0:0,0:0:0:0:
388,116,22792,2,0,L|436:80,2,37.5
328,160,23135,1,8,0:0:0:0:
216,60,23478,6,0,L|136:40,1,75,0|0,0:0|0:0,0:0:0:0:
96,100,23821,2,0,L|176:120,1,75,8|0,0:0|0:0,0:0:0:0:
184,192,24164,2,0,L|104:172,1,75,0|0,0:0|0:0,0:0:0:0:
60,232,24507,2,0,L|140:252,1,75,8|0,0:0|0:0,0:0:0:0:
188,300,24849,54,0,B|232:300|256:328|256:328|280:300|322:300,2,150,0|8|0,0:0|0:0|0:0,0:0:0:0:
256,160,25878,1,8,0:0:0:0:
316,24,26221,6,0,P|372:40|380:76,1,75
380,124,26564,2,0,P|324:108|316:72,1,75,8|0,0:0|0:0,0:0:0:0:
196,24,26907,2,0,P|140:40|132:76,1,75
132,124,27250,2,0,P|188:108|196:72,1,75,8|0,0:0|0:0,0:0:0:0:
256,136,27592,54,0,L|256:304,1,150,0|8,0:0|0:0,0:0:0:0:
116,344,28278,1,0,0:0:0:0:
44,324,28449,1,0,0:0:0:0:
44,248,28621,1,8,0:0:0:0:
132,124,28964,6,0,P|140:44|208:68,1,150,0|8,0:0|0:0,0:0:0:0:
380,124,29649,2,0,P|372:44|304:68,1,150,0|8,0:0|0:0,0:0:0:0:
200,192,30335,54,0,P|256:232|316:188,2,150,0|8|0,0:0|0:0|0:0,0:0:0:0:
256,140,31192,1,0,0:0:0:0:
256,140,31364,2,0,L|256:304,1,150,8|0,0:0|0:0,0:0:0:0:
320,328,31878,1,0,0:0:0:0:
392,312,32049,2,0,L|392:148,1,150,8|0,0:0|0:0,0:0:0:0:
312,36,32735,1,8,0:0:0:0:
162,44,33078,6,0,B|116:56|120:104|120:104|76:96|56:136,1,150,0|8,3:1|0:0,0:0:0:0:
124,272,33764,2,0,L|48:332,2,75,0|0|8,0:0|0:0|0:0,0:0:0:0:
276,272,34449,54,0,P|304:304|352:304,1,75
348,236,34792,2,0,P|390:238|424:204,1,75,8|0,0:0|0:0,0:0:0:0:
372,160,35135,2,0,P|404:132|404:84,1,75
336,96,35478,2,0,P|338:53|304:19,1,75,8|0,0:0|0:0,0:0:0:0:
256,68,35821,5,0,0:0:0:0:
191,28,35992,2,0,P|173:53|176:96,1,75,0|8,0:0|0:0,0:0:0:0:
102,101,36335,2,0,P|108:132|140:160,1,75
256,256,36849,1,8,0:0:0:0:
380,344,37192,53,0,0:0:0:0:
380,344,37364,1,0,0:0:0:0:
420,280,37535,2,0,B|436:240|436:240|436:204,1,75,8|0,0:0|0:0,0:0:0:0:
428,132,37878,1,0,0:0:0:0:
360,100,38049,1,0,0:0:0:0:
284,108,38221,2,0,B|268:148|268:148|268:184,1,75,8|0,0:0|0:0,0:0:0:0:
256,256,38564,6,0,P|216:312|124:292,1,150,0|8,0:0|0:0,0:0:0:0:
104,228,39078,2,0,P|144:172|219:177,1,150,0|0,0:0|0:0,0:0:0:0:
179,243,39591,1,8,0:0:0:0:
100,76,39935,54,0,P|132:40|176:36,1,75
216,80,40278,1,8,0:0:0:0:
296,80,40449,1,0,0:0:0:0:
355,33,40621,2,0,P|380:40|412:76,1,75,0|0,0:0|0:0,0:0:0:0:
424,152,40964,2,0,B|380:199|452:240|406:293,1,150,8|0,0:0|0:0,0:0:0:0:
336,264,41478,1,0,0:0:0:0:
268,292,41649,2,0,B|222:238|293:197|250:150,2,150,8|0|8,0:0|0:0|0:0,0:0:0:0:
256,192,42678,12,0,43707,0:0:0:0:
352,296,44049,22,0,P|416:284|416:156,1,179.999994506836,4|8,0:0|0:0,0:0:0:0:
356,212,44564,1,0,0:0:0:0:
328,128,44735,1,0,0:0:0:0:
256,72,44907,1,0,0:0:0:0:
184,128,45078,1,8,0:0:0:0:
156,212,45249,1,0,0:0:0:0:
70,183,45422,6,0,P|96:284|160:304,1,179.999994506836,0|8,0:0|0:0,0:0:0:0:
240,260,45935,1,0,0:0:0:0:
324,292,46107,2,0,B|396:292|396:292|428:228|504:252,2,179.999994506836,0|8|0,0:0|0:0|0:0,0:0:0:0:
256,124,47135,5,8,0:0:0:0:
84,76,47478,2,0,L|44:168,1,89.9999972534181
100,232,47821,2,0,L|140:140,1,89.9999972534181,8|0,0:0|0:0,0:0:0:0:
184,72,48164,38,0,P|256:28|329:74,2,179.999994506836,0|8|0,0:0|0:0|0:0,0:0:0:0:
180,164,49021,1,0,0:0:0:0:
256,212,49192,1,8,0:0:0:0:
332,164,49364,1,0,0:0:0:0:
332,164,49535,6,0,P|344:220|256:300,1,179.999994506836,8|8,0:0|0:0,0:0:0:0:
176,320,50049,1,0,0:0:0:0:
88,332,50221,2,0,P|44:312|40:256,1,89.9999972534181,0|0,0:0|0:0,0:0:0:0:
70,191,50564,2,0,P|114:211|123:248,1,89.9999972534181,8|0,0:0|0:0,0:0:0:0:
176,320,50907,5,8,0:0:0:0:
260,160,51249,1,8,0:0:0:0:
304,80,51421,1,0,0:0:0:0:
388,48,51592,1,0,0:0:0:0:
480,48,51764,2,0,P|496:96|484:144,1,89.9999972534181,0|8,0:0|0:0,0:0:0:0:
448,212,52107,1,0,0:0:0:0:
368,256,52278,37,8,0:0:0:0:
368,256,52621,1,8,0:0:0:0:
288,216,52792,1,0,0:0:0:0:
204,180,52964,1,0,0:0:0:0:
124,144,53135,2,0,P|116:181|132:229,2,89.9999972534181,0|8|0,0:0|0:0|0:0,0:0:0:0:
200,96,53649,5,8,0:0:0:0:
200,96,53992,1,8,0:0:0:0:
256,256,54335,1,8,0:0:0:0:
300,176,54507,1,0,0:0:0:0:
256,96,54678,1,8,0:0:0:0:
296,20,54849,1,0,0:0:0:0:
296,20,55021,6,0,P|380:40|420:120,1,179.999994506836,4|8,0:0|0:0,0:0:0:0:
472,192,55535,1,0,0:0:0:0:
419,265,55707,2,0,P|380:344|296:364,1,179.999994506836,0|8,0:0|0:0,0:0:0:0:
256,284,56221,1,0,0:0:0:0:
168,304,56392,38,0,L|80:280,1,89.9999972534181
46,197,56735,2,0,L|134:221,1,89.9999972534181,8|0,0:0|0:0,0:0:0:0:
205,166,57078,2,0,L|13:114,2,179.999994506836,0|8|4,0:0|0:0|0:0,0:0:0:0:
349,57,58107,5,8,0:0:0:0:
468,192,58449,1,0,0:0:0:0:
456,280,58621,1,0,0:0:0:0:
368,260,58792,1,8,0:0:0:0:
356,348,58964,1,0,0:0:0:0:
272,312,59135,6,0,B|224:248|156:288|156:288|134:245,1,179.999994506836,0|8,0:0|0:0,0:0:0:0:
168,160,59649,1,0,0:0:0:0:
232,96,59821,2,0,B|280:96|280:96|316:128,1,89.9999972534181
336,212,60164,2,0,B|288:212|288:212|252:180,1,89.9999972534181,8|0,0:0|0:0,0:0:0:0:
168,160,60507,37,8,0:0:0:0:
172,340,60849,1,8,0:0:0:0:
108,276,61021,1,0,0:0:0:0:
196,256,61192,1,0,0:0:0:0:
196,256,61364,2,0,B|244:256|244:256|280:288,2,89.9999972534181,0|8|0,0:0|0:0|0:0,0:0:0:0:
108,276,61878,5,8,0:0:0:0:
108,276,62221,1,8,0:0:0:0:
96,184,62392,1,0,0:0:0:0:
84,96,62564,1,0,0:0:0:0:
120,16,62735,2,0,P|168:60|160:100,1,89.9999972534181,0|8,0:0|0:0,0:0:0:0:
212,160,63078,1,0,0:0:0:0:
292,116,63249,5,8,0:0:0:0:
292,116,63592,1,8,0:0:0:0:
348,188,63764,2,0,L|424:264,1,89.9999972534181
368,332,64107,2,0,L|292:256,1,89.9999972534181,0|8,0:0|0:0,0:0:0:0:
216,252,64449,1,0,0:0:0:0:
212,160,64621,1,4,0:0:0:0:
256,192,64707,12,4,65992,1:1:0:0:
344,312,66335,38,0,L|300:228,1,89.9999972534181,8|0,0:0|0:0,0:0:0:0:
352,156,66678,2,0,L|396:240,1,89.9999972534181
432,320,67021,1,8,0:0:0:0:
344,312,67192,1,0,0:0:0:0:
256,336,67364,5,0,0:0:0:0:
168,312,67535,1,0,0:0:0:0:
80,320,67706,1,8,0:0:0:0:
48,236,67878,2,0,P|28:188|52:144,1,89.9999972534181
104,92,68221,1,0,0:0:0:0:
184,132,68392,2,0,P|204:180|180:224,1,89.9999972534181,8|0,0:0|0:0,0:0:0:0:
256,276,68735,5,4,1:1:0:0:
320,213,68907,2,0,P|308:180|328:132,1,89.9999972534181,0|8,0:0|0:0,0:0:0:0:
408,92,69249,1,0,0:0:0:0:
471,154,69421,2,0,P|484:188|464:236,2,89.9999972534181,0|0|8,0:0|0:0|0:0,0:0:0:0:
408,92,69935,1,0,0:0:0:0:
316,88,70107,37,0,0:0:0:0:
236,124,70278,1,0,0:0:0:0:
192,204,70449,2,0,P|176:268|249:345,2,179.999994506836,8|0|8,0:0|0:0|0:0,0:0:0:0:
96,44,71478,6,0,P|60:80|64:120,1,89.9999972534181,4|0,0:1|0:0,0:0:0:0:
60,208,71821,1,8,0:0:0:0:
108,284,71992,1,0,0:0:0:0:
192,320,72164,2,0,B|244:308|244:308|288:324|288:324|324:296|364:324,1,179.999994506836,0|8,0:0|0:0,0:0:0:0:
420,252,72678,1,0,0:0:0:0:
360,184,72849,6,0,B|308:196|308:196|264:180|264:180|228:208|188:180,2,179.999994506836,0|8|0,0:0|0:0|0:0,0:0:0:0:
256,36,73878,1,8,0:0:0:0:
192,96,74049,1,0,0:0:0:0:
104,76,74221,38,0,P|52:100|32:220,1,179.999994506836,4|8,1:1|0:0,0:0:0:0:
92,276,74735,1,0,0:0:0:0:
172,316,74907,2,0,B|224:316|256:288|256:288|284:316|338:315,1,179.999994506836,0|8,0:0|0:0,0:0:0:0:
420,276,75421,1,0,0:0:0:0:
256,192,75592,12,4,76964,1:1:0:0:
184,256,77307,6,0,L|216:348,1,89.9999972534181,8|0,0:0|0:0,0:0:0:0:
298,341,77649,2,0,L|328:256,1,89.9999972534181
316,168,77992,1,8,0:0:0:0:
256,100,78164,1,0,0:0:0:0:
196,168,78335,6,0,B|128:168|128:168|112:216|112:216|48:216,1,179.999994506836,0|8,0:0|0:0,0:0:0:0:
64,128,78849,1,0,0:0:0:0:
128,64,79021,2,0,L|220:32,1,89.9999972534181
298,34,79364,2,0,L|384:64,1,89.9999972534181,8|0,0:0|0:0,0:0:0:0:
436,136,79707,37,4,1:1:0:0:
436,136,79878,1,0,0:0:0:0:
368,192,80049,1,8,0:0:0:0:
368,192,80221,1,0,0:0:0:0:
436,248,80392,1,0,0:0:0:0:
436,248,80563,1,0,0:0:0:0:
368,308,80735,6,0,P|332:336|264:244,1,179.999994506836,8|0,0:0|0:0,0:0:0:0:
196,192,81249,1,0,0:0:0:0:
224,108,81421,2,0,B|296:64|296:64|396:64,2,179.999994506836,8|0|8,0:0|0:0|0:0,0:0:0:0:
52,48,82449,5,4,1:1:0:0:
44,228,82792,1,8,0:0:0:0:
180,344,83135,1,0,0:0:0:0:
256,292,83307,1,0,0:0:0:0:
332,344,83478,1,8,0:0:0:0:
404,292,83649,1,0,0:0:0:0:
404,292,83821,38,0,P|452:232|404:140,1,179.999994506836,0|8,0:0|0:0,0:0:0:0:
368,68,84335,1,0,0:0:0:0:
368,68,84507,2,0,P|320:128|368:220,1,179.999994506836,0|8,0:0|0:0,0:0:0:0:
256,364,85192,5,0,0:0:0:0:
124,240,85535,1,8,0:0:0:0:
256,120,85878,1,0,0:0:0:0:
280,208,86049,1,0,0:0:0:0:
372,208,86221,1,8,0:0:0:0:
396,120,86392,1,0,0:0:0:0:
324,64,86564,2,0,P|276:36|236:36,2,89.9999972534181,0|0|8,0:0|0:0|0:0,0:0:0:0:
256,192,87078,12,4,87935,0:2:0:0:
340,52,98907,22,0,P|404:92|416:184,1,150,0|8,3:3|0:0,0:0:0:0:
324,272,99592,1,0,0:0:0:0:
256,304,99764,1,0,0:0:0:0:
188,272,99935,1,8,0:0:0:0:
192,76,100278,6,0,B|160:56|160:56|116:56,1,75
132,132,100621,2,0,B|95:140|95:140|64:171,1,75,8|0,0:0|0:0,0:0:0:0:
132,212,100964,2,0,B|111:244|111:244|112:288,1,75
188,272,101307,2,0,B|196:308|196:308|227:339,1,75,8|0,0:0|0:0,0:0:0:0:
268,276,101649,54,0,B|300:296|300:296|344:296,1,75
324,220,101992,2,0,B|360:211|360:211|391:180,2,75,8|0|0,0:0|0:0|0:0,0:0:0:0:
256,88,102678,1,8,0:0:0:0:
110,128,103021,6,0,B|60:152|60:152|32:200|67:238,1,150,0|8,0:0|0:0,0:0:0:0:
176,344,103707,2,0,B|226:320|226:320|254:272|218:234,1,150,0|8,0:0|0:0,0:0:0:0:
256,88,104392,53,0,0:0:0:0:
328,64,104564,1,0,0:0:0:0:
396,96,104735,2,0,P|428:104|432:216,2,150,8|0|8,0:0|0:0|0:0,0:0:0:0:
316,224,105764,5,0,0:0:0:0:
276,288,105935,1,0,0:0:0:0:
204,312,106107,1,8,0:0:0:0:
128,308,106278,1,0,0:0:0:0:
60,280,106449,2,0,P|32:248|32:188,1,75
64,152,106792,2,0,P|92:184|92:244,1,75,8|0,0:0|0:0,0:0:0:0:
168,244,107135,54,0,P|168:180|124:108,1,150,0|8,0:0|0:0,0:0:0:0:
152,40,107649,1,0,0:0:0:0:
228,32,107821,2,0,P|273:77|355:97,1,150,0|8,0:0|0:0,0:0:0:0:
256,192,108507,12,0,109535,0:0:0:0:
44,212,109878,22,0,P|40:308|124:304,1,179.999994506836,4|8,0:0|0:0,0:0:0:0:
184,360,110392,2,0,P|192:296|168:252,1,89.9999972534181
256,220,110735,1,0,0:0:0:0:
328,273,110907,2,0,P|320:296|328:360,1,89.9999972534181,8|0,0:0|0:0,0:0:0:0:
406,317,111249,6,0,P|472:308|468:212,1,179.999994506836,0|8,0:0|0:0,0:0:0:0:
432,128,111764,1,0,0:0:0:0:
356,80,111935,2,0,B|312:56|272:88|272:88|240:56|188:77,2,179.999994506836,0|8|4,0:0|0:0|0:0,0:0:0:0:
284,244,112964,5,8,0:0:0:0:
284,244,113307,2,0,L|260:336,1,89.9999972534181
176,356,113650,2,0,L|200:264,1,89.9999972534181,8|0,0:0|0:0,0:0:0:0:
220,180,113992,38,0,P|176:124|236:24,2,179.999994506836,0|8|0,0:0|0:0|0:0,0:0:0:0:
272,104,114849,1,0,0:0:0:0:
352,64,115021,1,8,0:0:0:0:
432,108,115192,1,0,0:0:0:0:
432,108,115364,6,0,L|432:288,1,179.999994506836,4|8,0:0|0:0,0:0:0:0:
356,336,115878,2,0,L|296:260,1,89.9999972534181
211,265,116221,2,0,L|156:336,2,89.9999972534181,0|8|0,0:0|0:0|0:0,0:0:0:0:
256,188,116735,5,8,0:0:0:0:
140,48,117078,2,0,B|84:48|84:48|32:80,1,89.9999972534181,8|0,0:0|0:0,0:0:0:0:
116,132,117421,2,0,B|172:132|172:132|224:100,1,89.9999972534181
256,44,117764,1,8,0:0:0:0:
312,116,117935,1,0,0:0:0:0:
372,48,118107,37,8,0:0:0:0:
372,48,118449,2,0,P|400:92|400:136,1,89.9999972534181,8|0,0:0|0:0,0:0:0:0:
336,192,118792,1,0,0:0:0:0:
336,192,118964,1,0,0:0:0:0:
401,255,119135,2,0,P|400:292|372:336,1,89.9999972534181,8|0,0:0|0:0,0:0:0:0:
312,268,119478,5,8,0:0:0:0:
312,268,119821,1,8,0:0:0:0:
232,304,119992,1,0,0:0:0:0:
148,340,120164,1,8,0:0:0:0:
80,280,120335,1,0,0:0:0:0:
24,208,120507,1,8,0:0:0:0:
24,208,120678,1,0,0:0:0:0:
24,208,120849,6,0,P|100:156|96:72,1,179.999994506836,4|8,0:0|0:0,0:0:0:0:
184,44,121364,1,0,0:0:0:0:
184,44,121535,2,0,P|239:102|329:85,1,179.999994506836,0|8,0:0|0:0,0:0:0:0:
420,72,122049,1,0,0:0:0:0:
480,140,122221,38,0,L|468:248,1,89.9999972534181
404,168,122564,2,0,L|392:276,1,89.9999972534181,8|0,0:0|0:0,0:0:0:0:
328,196,122907,2,0,L|304:380,2,179.999994506836,0|8|4,0:0|0:0|0:0,0:0:0:0:
256,32,123935,5,8,0:0:0:0:
184,196,124278,2,0,L|196:300,1,89.9999972534181
108,168,124621,2,0,L|117:257,1,89.9999972534181,8|0,0:0|0:0,0:0:0:0:
32,140,124964,6,0,L|52:324,2,179.999994506836,0|8|0,0:0|0:0|0:0,0:0:0:0:
100,80,125821,1,0,0:0:0:0:
100,80,125992,1,8,0:0:0:0:
184,112,126164,1,0,0:0:0:0:
268,84,126335,37,8,0:0:0:0:
268,84,126678,2,0,P|320:116|332:152,1,89.9999972534181,8|0,0:0|0:0,0:0:0:0:
304,228,127021,2,0,P|252:196|240:160,2,89.9999972534181,0|0|8,0:0|0:0|0:0,0:0:0:0:
392,204,127535,1,0,0:0:0:0:
484,204,127707,5,8,0:0:0:0:
484,204,128049,1,8,0:0:0:0:
460,116,128221,1,0,0:0:0:0:
380,76,128392,2,0,L|276:32,1,89.9999972534181
214,40,128735,2,0,L|132:76,1,89.9999972534181,8|0,0:0|0:0,0:0:0:0:
48,112,129078,5,8,0:0:0:0:
48,112,129421,2,0,L|56:216,1,89.9999972534181,8|0,0:0|0:0,0:0:0:0:
132,248,129764,2,0,L|124:144,1,89.9999972534181
204,200,130107,2,0,L|212:304,1,89.9999972534181,8|0,0:0|0:0,0:0:0:0:
256,192,130449,12,4,131821,0:0:0:0:
452,232,132164,38,0,P|432:180|388:160,1,89.9999972534181,8|0,0:0|0:0,0:0:0:0:
332,216,132507,2,0,P|352:268|396:288,2,89.9999972534181,0|0|8,0:0|0:0|0:0,0:0:0:0:
256,164,133021,1,0,0:0:0:0:
180,216,133192,6,0,P|160:268|132:284,1,89.9999972534181
60,232,133535,2,0,P|80:180|107:163,1,89.9999972534181,8|0,0:0|0:0,0:0:0:0:
160,88,133878,1,0,0:0:0:0:
160,88,134049,1,0,0:0:0:0:
236,40,134221,1,8,0:0:0:0:
236,40,134392,1,0,0:0:0:0:
304,100,134564,6,0,L|400:108,1,89.9999972534181,4|0,0:0|0:0,0:0:0:0:
432,188,134907,2,0,L|336:180,1,89.9999972534181,8|0,0:0|0:0,0:0:0:0:
380,260,135249,2,0,L|476:268,2,89.9999972534181,0|0|8,0:0|0:0|0:0,0:0:0:0:
304,312,135764,1,0,0:0:0:0:
216,300,135935,38,0,B|152:288|152:288|128:216|44:240,1,179.999994506836,0|8,0:0|0:0,0:0:0:0:
62,148,136449,1,0,0:0:0:0:
62,148,136621,2,0,B|128:168|152:96|152:96|216:84,1,179.999994506836,0|8,0:0|0:0,0:0:0:0:
388,40,137307,6,0,P|460:72|452:168,1,179.999994506836,4|8,0:0|0:0,0:0:0:0:
376,124,137821,1,0,0:0:0:0:
364,212,137992,2,0,P|292:180|300:84,2,179.999994506836,0|8|0,0:0|0:0|0:0,0:0:0:0:
412,288,138849,5,0,0:0:0:0:
344,348,139021,1,8,0:0:0:0:
256,328,139192,1,0,0:0:0:0:
168,348,139364,1,0,0:0:0:0:
100,288,139535,1,0,0:0:0:0:
100,288,139707,2,0,L|100:180,1,89.9999972534181,8|0,0:0|0:0,0:0:0:0:
100,108,140049,37,0,0:0:0:0:
256,200,140392,1,8,0:0:0:0:
412,108,140735,1,0,0:0:0:0:
256,200,141078,1,8,0:0:0:0:
256,200,141249,1,0,0:0:0:0:
256,192,141421,12,4,142792,0:0:0:0:
412,228,143135,6,0,P|400:292|348:308,1,89.9999972534181,8|0,0:0|0:0,0:0:0:0:
320,240,143478,2,0,P|266:276|218:251,1,89.9999972534181
256,184,143821,2,0,P|192:172|175:120,1,89.9999972534181,8|0,0:0|0:0,0:0:0:0:
168,64,144164,6,0,L|260:32,1,89.9999972534181
328,84,144507,2,0,L|236:116,1,89.9999972534181,8|0,0:0|0:0,0:0:0:0:
160,144,144849,1,0,0:0:0:0:
108,216,145021,1,0,0:0:0:0:
148,296,145192,1,8,0:0:0:0:
236,304,145364,1,0,0:0:0:0:
236,304,145535,38,0,L|332:304,1,89.9999972534181,4|0,0:0|0:0,0:0:0:0:
272,232,145878,2,0,L|368:232,1,89.9999972534181,8|0,0:0|0:0,0:0:0:0:
308,160,146221,2,0,L|404:160,1,89.9999972534181
344,88,146564,2,0,L|440:88,1,89.9999972534181,8|0,0:0|0:0,0:0:0:0:
344,88,146907,6,0,P|276:56|180:96,1,179.999994506836,0|8,0:0|0:0,0:0:0:0:
92,96,147421,1,0,0:0:0:0:
104,184,147592,2,0,P|67:276|99:344,2,179.999994506836,0|8|4,0:0|0:0|0:0,0:0:0:0:
172,240,148449,5,0,0:0:0:0:
216,320,148621,1,8,0:0:0:0:
304,308,148792,1,0,0:0:0:0:
316,220,148964,1,0,0:0:0:0:
236,176,149135,1,0,0:0:0:0:
236,176,149307,2,0,B|240:84|240:84|340:56,1,179.999994506836,8|0,0:0|0:0,0:0:0:0:
412,44,149821,37,0,0:0:0:0:
480,104,149992,2,0,B|476:196|476:196|376:224,1,179.999994506836,8|0,0:0|0:0,0:0:0:0:
324,280,150507,1,0,0:0:0:0:
256,224,150678,1,8,0:0:0:0:
188,280,150849,1,0,0:0:0:0:
188,280,151021,5,0,0:0:0:0:
92,128,151364,1,8,0:0:0:0:
256,52,151707,1,0,0:0:0:0:
420,128,152049,1,8,0:0:0:0:
420,128,152221,1,0,0:0:0:0:
256,192,152392,12,4,153764,0:0:0:0:
136,76,154107,22,0,B|120:124|120:124|120:184|192:180,1,150,8|0,0:0|0:0,0:0:0:0:
256,208,154621,1,0,0:0:0:0:
326,180,154792,2,0,B|392:184|392:124|392:124|376:76,1,150,8|0,0:0|0:0,0:0:0:0:
308,40,155307,5,0,0:0:0:0:
236,28,155478,1,8,0:0:0:0:
164,44,155649,1,0,0:0:0:0:
112,100,155821,2,0,P|77:171|119:234,2,150,0|8|4,0:0|0:0|0:0,0:0:0:0:
176,140,156678,53,0,0:0:0:0:
228,192,156849,1,8,0:0:0:0:
236,268,157021,2,0,L|224:348,1,75
296,368,157364,2,0,L|308:288,2,75,0|8|0,0:0|0:0|0:0,0:0:0:0:
224,342,157878,6,0,P|112:328|72:276,1,150,0|8,0:0|0:0,0:0:0:0:
60,236,158392,1,0,0:0:0:0:
60,160,158564,2,0,L|60:76,2,75,0|0|8,0:0|0:0|0:0,0:0:0:0:
128,24,159249,54,0,P|176:52|192:148,1,150,4|8,0:0|0:0,0:0:0:0:
256,184,159764,1,0,0:0:0:0:
316,139,159935,2,0,P|335:51|383:23,2,150,0|8|0,0:0|0:0|0:0,0:0:0:0:
256,184,160792,6,0,P|252:256|236:272,1,75,0|8,0:0|0:0,0:0:0:0:
184,288,161135,2,0,P|188:216|204:200,1,75,0|0,0:0|0:0,0:0:0:0:
192,140,161478,2,0,P|168:108|120:96,1,75,0|8,0:0|0:0,0:0:0:0:
60,96,161821,1,0,0:0:0:0:
60,96,161992,53,0,0:0:0:0:
72,284,162335,1,8,0:0:0:0:
256,324,162678,1,0,0:0:0:0:
440,284,163021,1,8,0:0:0:0:
440,284,163192,1,0,0:0:0:0:
256,192,163364,12,4,164735,0:0:0:0:
440,284,165078,5,8,0:0:0:0:
380,328,165249,1,0,0:0:0:0:
304,332,165421,1,0,0:0:0:0:
236,300,165592,1,0,0:0:0:0:
208,228,165764,1,8,0:0:0:0:
208,152,165935,1,0,0:0:0:0:
208,152,166107,54,0,L|208:72,1,75
136,56,166449,2,0,L|136:136,1,75,8|0,0:0|0:0,0:0:0:0:
64,152,166792,2,0,L|64:72,2,75,0|0|8,0:0|0:0|0:0,0:0:0:0:
64,228,167307,1,0,0:0:0:0:
112,288,167478,6,0,B|164:288|164:288|192:316|192:316|260:316,1,150,4|8,0:0|0:0,0:0:0:0:
276,244,167992,1,0,0:0:0:0:
276,244,168164,2,0,B|224:244|224:244|196:216|196:216|128:216,1,150,0|8,0:0|0:0,0:0:0:0:
124,144,168678,1,0,0:0:0:0:
148,72,168849,54,0,B|184:48|184:48|232:48,1,75
292,48,169192,1,8,0:0:0:0:
364,68,169364,1,0,0:0:0:0:
400,132,169535,2,0,P|408:208|328:240,2,150,0|8|4,0:0|0:0|0:0,0:0:0:0:
256,180,170564,5,8,0:0:0:0:
196,136,170735,1,0,0:0:0:0:
136,180,170907,1,0,0:0:0:0:
80,132,171078,1,0,0:0:0:0:
80,132,171249,2,0,P|60:192|116:252,1,150,8|0,0:0|0:0,0:0:0:0:
168,300,171764,53,0,0:0:0:0:
240,324,171935,2,0,B|276:324|304:356|304:356|332:324|370:324,1,150,8|0,0:0|0:0,0:0:0:0:
420,268,172449,2,0,L|464:188,2,75,0|8|0,0:0|0:0|0:0,0:0:0:0:
344,252,172964,5,0,0:0:0:0:
388,108,173307,1,8,0:0:0:0:
256,36,173649,1,0,0:0:0:0:
224,104,173821,1,0,0:0:0:0:
148,96,173992,1,8,0:0:0:0:
116,164,174164,1,0,0:0:0:0:
256,192,174335,12,2,175707,0:0:0:0:
