osu file format v12

[General]
AudioFilename: time.mp3
AudioLeadIn: 0
PreviewTime: 109878
Countdown: 0
SampleSet: Soft
StackLeniency: 0.7
Mode: 0
LetterboxInBreaks: 0
WidescreenStoryboard: 0

[Editor]
DistanceSpacing: 1
BeatDivisor: 4
GridSize: 4

[Metadata]
Title:Time Bomb (feat. Veela & Boyinaband)
TitleUnicode:Time Bomb (feat. Veela & Boyinaband)
Artist:Feint
ArtistUnicode:Feint
Creator:vipto
Version:Easy
Source:
Tags:drum and bass dnb katty pie kattypie lally
BeatmapID:264143
BeatmapSetID:98842

[Difficulty]
HPDrainRate:2
CircleSize:3
OverallDifficulty:1
ApproachRate:3
SliderMultiplier:0.8
SliderTickRate:1

[Events]
//Background and Video events
0,0,"asdasd.jpg",0,0
//Break Periods
2,88135,97467
//Storyboard Layer 0 (Background)
//Storyboard Layer 1 (Fail)
//Storyboard Layer 2 (Pass)
//Storyboard Layer 3 (Foreground)
//Storyboard Sound Samples
//Background Colour Transformations
3,100,163,162,255

[TimingPoints]
22107,342.857142857143,4,2,1,30,1,0
44049,-100,4,1,1,50,0,1
64621,-100,4,2,0,50,0,1
65307,-100,4,1,1,50,0,1
65992,-100,4,1,1,50,0,0
98907,-100,4,2,1,30,0,0
109878,-100,4,1,1,50,0,1
130449,-100,4,2,0,50,0,1
131135,-100,4,1,1,50,0,1
131821,-100,4,1,1,50,0,0
153764,-100,4,2,1,35,0,0
175707,-100,4,2,0,50,0,0

[Colours]
Combo1 : 245,173,235
Combo2 : 0,132,196
Combo3 : 149,199,253
Combo4 : 255,176,138
Combo5 : 207,255,159

[HitObjects]
104,128,22107,2,0,L|184:136,1,80,0|8,0:0|0:0,0:0:0:0:
318,49,23135,1,8,0:0:0:0:
386,90,23478,2,0,P|428:142|393:230,1,160
322,240,24507,1,8,0:0:0:0:
255,195,24849,6,0,P|247:162|268:116,1,80,0|8,0:0|0:0,0:0:0:0:
246,279,25878,1,8,0:0:0:0:
195,340,26221,2,0,P|123:357|103:285,1,160
180,153,27592,54,0,B|189:111|175:70|175:70|256:25|325:66,1,240,0|8,0:0|0:0,0:0:0:0:
380,120,28964,2,0,P|419:137|463:120,2,80,0|8|0,0:0|0:0|0:0,0:0:0:0:
426,54,29992,1,8,0:0:0:0:
346,42,30335,6,0,B|304:57|277:114|304:161|304:161|361:255,1,240,0|8,0:0|0:0,0:0:0:0:
434,256,31707,2,0,B|476:241|503:184|476:137|476:137|426:54,1,240,0|8,0:0|0:0,0:0:0:0:
345,54,33078,53,0,0:0:0:0:
265,64,33421,2,0,P|230:84|202:126,1,80,8|0,0:0|0:0,0:0:0:0:
210,195,34107,1,8,0:0:0:0:
240,270,34449,2,0,P|287:305|384:271,1,160
403,202,35478,1,8,0:0:0:0:
388,123,35821,6,0,P|341:88|244:122,1,160
186,162,36849,1,8,0:0:0:0:
118,118,37192,2,0,L|99:32,2,80,0|8|0,0:0|0:0|0:0,0:0:0:0:
112,198,38221,1,8,0:0:0:0:
174,248,38564,54,0,B|221:263|259:228|259:228|291:219|328:237,2,160
199,171,40278,1,8,0:0:0:0:
257,116,40621,2,0,P|301:98|345:112,1,80,0|8,0:0|0:0,0:0:0:0:
387,161,41307,2,0,L|408:284,1,120
256,192,42164,12,0,43364,0:0:0:0:
256,289,44049,22,0,L|346:306,2,80,0|0|0,0:0|0:0|0:0,0:0:0:0:
185,326,45078,1,8,0:0:0:0:
136,262,45421,2,0,L|124:164,1,80,0|8,0:0|0:0,0:0:0:0:
249,80,46449,1,8,0:0:0:0:
322,47,46792,6,0,P|327:96|305:139,1,80,0|8,0:0|0:0,0:0:0:0:
232,260,47821,1,8,0:0:0:0:
311,255,48164,2,0,P|302:302|268:334,2,80
304,175,49192,1,8,0:0:0:0:
358,118,49535,6,0,P|370:75|358:35,1,80,0|8,0:0|0:0,0:0:0:0:
232,135,50564,1,8,0:0:0:0:
82,78,51249,1,8,0:0:0:0:
21,227,51935,1,8,0:0:0:0:
86,273,52278,38,0,B|125:281|125:281|170:263,1,80,0|8,0:0|0:0,0:0:0:0:
191,191,52964,2,0,L|204:104,1,80,0|8,0:0|0:0,0:0:0:0:
271,70,53649,2,0,P|319:64|355:77,1,80,0|8,0:0|0:0,0:0:0:0:
416,116,54335,2,0,P|452:168|408:257,1,160
371,185,55364,5,8,0:0:0:0:
231,263,56049,1,8,0:0:0:0:
171,209,56392,2,0,L|186:124,2,80,0|8|0,0:0|0:0|0:0,0:0:0:0:
96,238,57421,1,8,0:0:0:0:
47,174,57764,6,0,L|62:89,1,80,0|8,0:0|0:0,0:0:0:0:
212,43,58792,1,8,0:0:0:0:
276,90,59135,2,0,P|316:99|359:83,1,80,0|0,0:0|0:0,0:0:0:0:
484,178,60164,1,8,0:0:0:0:
449,250,60507,37,0,0:0:0:0:
414,321,60849,1,8,0:0:0:0:
348,274,61192,2,0,L|265:293,1,80,0|8,0:0|0:0,0:0:0:0:
203,246,61878,2,0,P|188:204|199:165,2,80,0|8|0,0:0|0:0|0:0,0:0:0:0:
153,309,62907,6,0,P|117:316|74:297,1,80,8|0,0:0|0:0,0:0:0:0:
47,226,63592,1,8,0:0:0:0:
95,73,64278,1,8,0:0:0:0:
164,113,64621,6,0,L|251:101,1,80,2|8,3:0|3:1,0:0:0:0:
292,38,65307,2,0,P|273:91|337:177,1,160
388,221,66335,38,0,P|425:206|470:211,2,80,8|0|8,0:0|0:0|0:0,0:0:0:0:
325,271,67364,2,0,P|265:299|187:249,1,160
180,175,68392,1,8,0:0:0:0:
227,110,68735,6,0,B|179:80|132:111|132:111|100:114|74:98,1,160
47,174,69764,1,8,0:0:0:0:
99,324,70449,1,8,0:0:0:0:
257,300,71135,1,8,0:0:0:0:
319,249,71478,6,0,B|357:226|400:241|400:241|450:173,2,160
246,216,73192,2,0,P|229:174|238:131,1,80,8|0,0:0|0:0,0:0:0:0:
309,167,73878,1,8,0:0:0:0:
319,249,74221,38,0,P|354:284|458:258,2,160
390,93,76278,1,0,0:0:0:0:
311,78,76621,2,0,P|268:74|237:91,1,80,8|0,0:0|0:0,0:0:0:0:
173,137,77307,5,8,0:0:0:0:
211,207,77649,2,0,P|160:216|93:143,1,160
127,69,78678,1,8,0:0:0:0:
203,47,79021,2,0,B|283:36|283:36|362:75,1,160
384,145,80049,5,8,0:0:0:0:
303,283,80735,1,8,0:0:0:0:
232,244,81078,2,0,L|221:161,1,80,0|8,0:0|0:0,0:0:0:0:
157,116,81764,2,0,P|113:109|69:132,1,80,0|8,0:0|0:0,0:0:0:0:
125,187,82449,38,0,P|167:194|233:99,2,160
66,242,84164,2,0,P|122:269|228:255,1,160,8|8,0:0|0:0,0:0:0:0:
284,216,85192,6,0,B|448:216|448:216|512:280,1,240
444,326,86564,2,0,B|280:326|280:326|216:262,1,240
171,214,87935,5,4,0:2:0:0:
106,267,98907,6,0,P|154:292|246:245,1,160
283,94,100278,2,0,P|348:73|416:124,2,160
170,207,102335,1,0,0:0:0:0:
305,292,103021,6,0,L|392:283,1,80,0|8,0:0|0:0,0:0:0:0:
421,212,103707,2,0,L|336:189,1,80,0|8,0:0|0:0,0:0:0:0:
329,112,104392,2,0,L|488:94,2,160
263,65,106107,1,8,0:0:0:0:
221,133,106449,2,0,L|200:225,1,80,0|8,0:0|0:0,0:0:0:0:
249,276,107135,54,0,P|296:294|398:252,1,160
411,178,108164,1,0,0:0:0:0:
367,110,108507,2,0,P|301:75|218:112,1,160
163,153,109535,1,0,0:0:0:0:
194,226,109878,22,0,P|196:276|177:309,2,80,0|8|0,0:0|0:0|0:0,0:0:0:0:
114,212,110907,1,8,0:0:0:0:
84,139,111249,2,0,P|139:75|213:92,1,160
244,157,112278,1,8,0:0:0:0:
300,212,112621,6,0,P|358:226|382:215,1,80,0|8,0:0|0:0,0:0:0:0:
501,121,113649,1,8,0:0:0:0:
437,72,113992,2,0,P|402:60|342:67,1,80,0|8,0:0|0:0,0:0:0:0:
224,148,115021,1,8,0:0:0:0:
196,223,115364,6,0,P|186:270|201:307,1,80,0|8,0:0|0:0,0:0:0:0:
258,349,116049,2,0,P|301:358|341:352,1,80,0|8,0:0|0:0,0:0:0:0:
396,300,116735,2,0,B|422:255|405:216|405:216|390:176|416:138,1,160
358,85,117764,1,8,0:0:0:0:
285,119,118107,38,0,B|258:160|276:203|276:203|289:242|265:281,2,160
229,61,119821,2,0,P|187:47|143:55,1,80,8|0,0:0|0:0,0:0:0:0:
81,88,120507,1,8,0:0:0:0:
43,158,120849,6,0,L|27:247,1,80,0|8,0:0|0:0,0:0:0:0:
160,328,121878,1,8,0:0:0:0:
212,267,122221,2,0,L|302:287,1,80,0|8,0:0|0:0,0:0:0:0:
411,179,123249,1,8,0:0:0:0:
356,119,123592,6,0,L|275:132,1,80,0|8,0:0|0:0,0:0:0:0:
152,233,124621,1,8,0:0:0:0:
111,163,124964,2,0,P|99:112|116:72,1,80,0|8,0:0|0:0,0:0:0:0:
178,121,125649,2,0,P|218:90|257:90,1,80,0|8,0:0|0:0,0:0:0:0:
242,165,126335,38,0,P|259:205|246:250,1,80,0|8,0:0|0:0,0:0:0:0:
135,349,127364,1,8,0:0:0:0:
87,284,127707,2,0,L|115:200,1,80,0|8,0:0|0:0,0:0:0:0:
272,205,128735,1,8,0:0:0:0:
316,138,129078,6,0,L|290:48,2,80,0|8|0,0:0|0:0|0:0,0:0:0:0:
356,207,130107,1,8,0:0:0:0:
434,190,130449,2,0,B|458:116|458:116|436:28,2,160
398,261,132164,6,0,L|327:317,1,80,8|0,0:0|0:0,0:0:0:0:
260,282,132849,1,8,0:0:0:0:
213,216,133192,2,0,P|203:161|284:103,2,160
177,287,134907,38,0,P|130:302|90:286,1,80,8|0,0:0|0:0,0:0:0:0:
39,244,135592,2,0,P|27:190|44:158,1,80,8|0,0:0|0:0,0:0:0:0:
106,130,136278,2,0,L|280:112,1,160,8|8,0:0|0:0,0:0:0:0:
280,192,137307,6,0,L|149:205,2,120
354,225,138678,1,0,0:0:0:0:
354,225,139021,1,8,0:0:0:0:
289,272,139364,2,0,L|209:280,2,80,0|8|0,0:0|0:0|0:0,0:0:0:0:
363,302,140392,5,8,0:0:0:0:
429,257,140735,2,0,L|459:179,1,80,0|8,0:0|0:0,0:0:0:0:
419,111,141421,2,0,P|390:99|342:107,1,80,0|8,0:0|0:0,0:0:0:0:
283,159,142107,1,0,0:0:0:0:
189,288,142792,37,0,0:0:0:0:
114,317,143135,2,0,P|69:326|25:304,1,80,8|0,0:0|0:0,0:0:0:0:
80,243,143821,1,8,0:0:0:0:
45,170,144164,2,0,L|85:91,1,80,0|8,0:0|0:0,0:0:0:0:
153,133,144849,2,0,P|207:150|288:89,1,160
348,144,145878,6,0,P|339:180|357:221,1,80,8|0,0:0|0:0,0:0:0:0:
432,238,146564,2,0,P|473:208|466:95,2,160,8|8|8,0:0|0:0|0:0,0:0:0:0:
352,232,148278,6,0,P|305:223|268:238,1,80,0|8,0:0|0:0,0:0:0:0:
206,273,148964,1,0,0:0:0:0:
161,339,149307,1,8,0:0:0:0:
55,219,149992,1,8,0:0:0:0:
152,92,150678,38,0,L|236:74,1,80,8|0,0:0|0:0,0:0:0:0:
256,151,151364,2,0,L|337:158,1,80,8|0,0:0|0:0,0:0:0:0:
331,237,152049,2,0,P|367:288|238:265,1,320,8|0,0:0|0:0,0:0:0:0:
260,194,153764,38,0,P|273:149|259:102,1,80,0|8,0:0|0:0,0:0:0:0:
205,65,154449,2,0,L|123:55,1,80,0|8,0:0|0:0,0:0:0:0:
55,94,155135,2,0,P|35:140|51:182,1,80,0|8,0:0|0:0,0:0:0:0:
99,223,155821,2,0,P|160:252|252:221,1,160
276,153,156849,6,0,L|286:65,2,80,8|0|8,0:0|0:0|0:0,0:0:0:0:
331,211,157878,2,0,P|399:204|334:292,1,240,0|8,0:0|0:0,0:0:0:0:
270,269,159249,54,0,P|236:257|181:261,1,80,0|8,0:0|0:0,0:0:0:0:
135,201,159935,2,0,P|148:161|139:118,1,80,0|8,0:0|0:0,0:0:0:0:
88,64,160621,1,0,0:0:0:0:
166,47,160964,1,8,0:0:0:0:
271,167,161649,1,8,0:0:0:0:
328,110,161992,6,0,L|413:127,2,80,0|8|0,0:0|0:0|0:0,0:0:0:0:
272,51,163021,1,8,0:0:0:0:
167,172,163707,2,0,L|150:259,1,80,8|0,0:0|0:0,0:0:0:0:
210,304,164392,1,8,0:0:0:0:
282,270,164735,54,0,B|338:243|397:273|397:273|369:210|414:152,1,240,0|8,0:0|0:0,0:0:0:0:
478,120,166107,2,0,P|499:83|489:35,2,80,0|8|0,0:0|0:0|0:0,0:0:0:0:
408,159,167135,2,0,L|316:163,1,80,8|0,0:0|0:0,0:0:0:0:
271,106,167821,5,8,0:0:0:0:
188,242,168507,1,8,0:0:0:0:
126,190,168849,2,0,P|107:240|175:322,2,160
202,164,170564,54,0,L|295:163,1,80,8|0,0:0|0:0,0:0:0:0:
339,218,171249,1,8,0:0:0:0:
448,101,171935,1,8,0:0:0:0:
302,34,172621,1,8,0:0:0:0:
229,67,172964,6,0,P|184:71|145:59,2,80,0|8|0,0:0|0:0|0:0,0:0:0:0:
302,34,173992,1,8,0:0:0:0:
344,101,174335,2,0,P|349:145|341:191,1,80,0|8,0:0|0:0,0:0:0:0:
311,253,175021,1,0,0:0:0:0:
241,293,175364,1,8,0:0:0:0:
161,296,175707,53,4,0:0:0:0:
