osu file format v12

[General]
AudioFilename: Feint - The Journey ft. Veela [HD].mp3
AudioLeadIn: 2934
PreviewTime: -1
Countdown: 0
SampleSet: Soft
StackLeniency: 0.2
Mode: 1
LetterboxInBreaks: 1

[Editor]
Bookmarks: 22961,45348,59285,66641,91723
DistanceSpacing: 0.8
BeatDivisor: 4
GridSize: 8

[Metadata]
Title:The Journey ft. Veela
TitleUnicode:The Journey ft. Veela
Artist:Feint
ArtistUnicode:Feint
Creator:deathward
Version:Taiko Oni
Source:
Tags:dnb drum and bass feint journey
BeatmapID:247552
BeatmapSetID:91234

[Difficulty]
HPDrainRate:8
CircleSize:7
OverallDifficulty:8
ApproachRate:10
SliderMultiplier:0.999999999999998
SliderTickRate:1

[Events]
//Background and Video events
0,0,"the_girl_who_loved_the_sea_by_nuriko_kun-d5zih7o.jpg",1,1
//Break Periods
//Storyboard Layer 0 (Background)
//Storyboard Layer 1 (Fail)
//Storyboard Layer 2 (Pass)
//Storyboard Layer 3 (Foreground)
//Storyboard Sound Samples
//Background Colour Transformations
3,100,0,0,0

[TimingPoints]
2440,348.837209302326,4,2,1,100,1,0
47091,-66.6666666666667,4,1,1,100,0,1
52672,-66.6666666666667,4,1,1,100,0,0
91742,-66.6666666666667,4,1,1,100,0,1
97323,-66.6666666666667,4,1,1,100,0,0

[Colours]
Combo1 : 140,0,0
Combo2 : 40,148,255
Combo3 : 105,213,235
Combo4 : 128,128,192

[HitObjects]
368,96,24765,1,0,0:0:0:0:
368,96,25114,1,8,0:0:0:0:
368,96,25637,1,0,0:0:0:0:
368,96,25812,1,8,0:0:0:0:
368,96,26160,1,0,0:0:0:0:
368,96,26509,1,8,0:0:0:0:
368,96,27033,1,0,0:0:0:0:
368,96,27207,1,8,0:0:0:0:
368,96,27556,1,0,0:0:0:0:
368,96,27905,1,8,0:0:0:0:
368,96,28428,1,0,0:0:0:0:
368,96,28602,1,8,0:0:0:0:
368,96,28951,1,0,0:0:0:0:
368,96,29300,1,8,0:0:0:0:
368,96,29649,1,0,0:0:0:0:
368,96,29823,1,0,0:0:0:0:
368,96,29998,1,8,0:0:0:0:
368,96,30346,1,0,0:0:0:0:
368,96,30521,1,0,0:0:0:0:
368,96,30695,1,8,0:0:0:0:
368,96,30870,1,0,0:0:0:0:
368,96,30957,1,0,0:0:0:0:
368,96,31044,1,0,0:0:0:0:
368,96,31219,1,0,0:0:0:0:
368,96,31393,1,8,0:0:0:0:
368,96,31742,1,0,0:0:0:0:
368,96,31916,1,0,0:0:0:0:
368,96,32091,1,8,0:0:0:0:
368,96,32265,1,0,0:0:0:0:
368,96,32352,1,0,0:0:0:0:
368,96,32439,1,0,0:0:0:0:
368,96,32614,1,0,0:0:0:0:
368,96,32788,1,8,0:0:0:0:
368,96,33137,1,0,0:0:0:0:
368,96,33486,1,8,0:0:0:0:
368,96,33835,1,0,0:0:0:0:
368,96,34009,1,0,0:0:0:0:
368,96,34184,1,8,0:0:0:0:
368,96,34533,1,0,0:0:0:0:
368,96,34707,1,0,0:0:0:0:
368,96,34881,1,8,0:0:0:0:
368,96,35056,1,0,0:0:0:0:
368,96,35143,1,0,0:0:0:0:
368,96,35230,1,0,0:0:0:0:
368,96,35405,1,0,0:0:0:0:
368,96,35579,1,8,0:0:0:0:
368,96,35928,1,0,0:0:0:0:
368,96,36102,1,0,0:0:0:0:
368,96,36277,1,8,0:0:0:0:
368,96,36538,1,0,0:0:0:0:
368,96,36626,1,0,0:0:0:0:
368,96,36800,1,0,0:0:0:0:
368,96,36974,1,8,0:0:0:0:
368,96,37323,1,0,0:0:0:0:
368,96,37498,1,0,0:0:0:0:
368,96,37672,1,8,0:0:0:0:
368,96,37934,1,0,0:0:0:0:
368,96,38021,1,0,0:0:0:0:
368,96,38108,1,0,0:0:0:0:
368,96,38195,1,0,0:0:0:0:
368,96,38370,1,8,0:0:0:0:
368,96,38719,1,0,0:0:0:0:
368,96,38893,1,0,0:0:0:0:
368,96,39067,1,8,0:0:0:0:
368,96,39329,1,0,0:0:0:0:
368,96,39416,1,0,0:0:0:0:
368,96,39591,1,0,0:0:0:0:
368,96,39765,1,8,0:0:0:0:
368,96,40114,1,0,0:0:0:0:
368,96,40288,1,0,0:0:0:0:
368,96,40463,1,8,0:0:0:0:
368,96,40724,1,0,0:0:0:0:
368,96,40812,1,0,0:0:0:0:
368,96,40899,1,0,0:0:0:0:
368,96,40986,1,0,0:0:0:0:
368,96,41160,1,8,0:0:0:0:
368,96,41509,1,0,0:0:0:0:
368,96,41684,1,0,0:0:0:0:
368,96,41858,1,8,0:0:0:0:
368,96,42033,1,0,0:0:0:0:
368,96,42207,1,0,0:0:0:0:
368,96,42381,1,0,0:0:0:0:
368,96,42556,1,8,0:0:0:0:
368,96,42730,1,0,0:0:0:0:
368,96,42905,1,0,0:0:0:0:
368,96,43079,1,0,0:0:0:0:
368,96,43253,1,8,0:0:0:0:
368,96,43428,1,0,0:0:0:0:
368,96,43602,1,0,0:0:0:0:
368,96,43777,1,0,0:0:0:0:
368,96,43951,1,8,0:0:0:0:
368,96,44300,1,0,0:0:0:0:
368,96,44998,1,8,0:0:0:0:
368,96,45695,1,8,0:0:0:0:
368,96,46044,1,8,0:0:0:0:
256,192,46393,12,0,46916,0:0:0:0:
368,96,47091,5,0,0:0:0:0:
368,96,47265,1,0,0:0:0:0:
368,96,47439,1,8,0:0:0:0:
368,96,47614,1,0,0:0:0:0:
368,96,47701,1,0,0:0:0:0:
368,96,47788,1,0,0:0:0:0:
368,96,47963,1,0,0:0:0:0:
368,96,48137,1,8,0:0:0:0:
368,96,48486,1,0,0:0:0:0:
368,96,48660,1,0,0:0:0:0:
368,96,48835,1,8,0:0:0:0:
368,96,49009,1,0,0:0:0:0:
368,96,49096,1,0,0:0:0:0:
368,96,49184,1,0,0:0:0:0:
368,96,49271,1,0,0:0:0:0:
368,96,49358,1,0,0:0:0:0:
368,96,49533,1,8,0:0:0:0:
368,96,49881,1,0,0:0:0:0:
368,96,50056,1,0,0:0:0:0:
368,96,50230,1,8,0:0:0:0:
368,96,50405,1,0,0:0:0:0:
368,96,50492,1,0,0:0:0:0:
368,96,50579,1,0,0:0:0:0:
368,96,50753,1,0,0:0:0:0:
368,96,50928,1,8,0:0:0:0:
368,96,51277,1,0,0:0:0:0:
368,96,51451,1,0,0:0:0:0:
368,96,51626,1,8,0:0:0:0:
368,96,51800,1,0,0:0:0:0:
368,96,51887,1,0,0:0:0:0:
368,96,51974,1,0,0:0:0:0:
368,96,52062,1,0,0:0:0:0:
368,96,52149,1,0,0:0:0:0:
368,96,52323,1,8,0:0:0:0:
368,96,52672,1,0,0:0:0:0:
368,96,52846,1,0,0:0:0:0:
368,96,53021,1,8,0:0:0:0:
368,96,53195,1,8,0:0:0:0:
368,96,53370,1,0,0:0:0:0:
368,96,53544,1,0,0:0:0:0:
368,96,53719,1,8,0:0:0:0:
368,96,53893,1,0,0:0:0:0:
368,96,54067,1,0,0:0:0:0:
368,96,54242,1,0,0:0:0:0:
368,96,54416,1,8,0:0:0:0:
368,96,54591,1,8,0:0:0:0:
368,96,54765,1,0,0:0:0:0:
368,96,54939,1,0,0:0:0:0:
368,96,55114,1,8,0:0:0:0:
368,96,55288,1,0,0:0:0:0:
368,96,55463,1,0,0:0:0:0:
368,96,55637,1,0,0:0:0:0:
368,96,55812,1,8,0:0:0:0:
368,96,55986,1,0,0:0:0:0:
368,96,56160,1,0,0:0:0:0:
368,96,56335,1,0,0:0:0:0:
368,96,56509,1,8,0:0:0:0:
368,96,56684,1,0,0:0:0:0:
368,96,56858,1,0,0:0:0:0:
368,96,57033,1,0,0:0:0:0:
368,96,57207,1,8,0:0:0:0:
368,96,57381,1,0,0:0:0:0:
368,96,57556,1,0,0:0:0:0:
368,96,57730,1,0,0:0:0:0:
368,96,57905,1,8,0:0:0:0:
368,96,58079,1,0,0:0:0:0:
368,96,58253,1,0,0:0:0:0:
368,96,58428,1,0,0:0:0:0:
368,96,58602,1,8,0:0:0:0:
368,96,58777,1,0,0:0:0:0:
368,96,58864,1,0,0:0:0:0:
368,96,58951,1,0,0:0:0:0:
368,96,59126,1,0,0:0:0:0:
368,96,59300,1,8,0:0:0:0:
368,96,59474,1,0,0:0:0:0:
368,96,59649,1,0,0:0:0:0:
368,96,59823,1,0,0:0:0:0:
368,96,59998,1,8,0:0:0:0:
368,96,60172,1,0,0:0:0:0:
368,96,60259,1,0,0:0:0:0:
368,96,60346,1,0,0:0:0:0:
368,96,60434,1,0,0:0:0:0:
368,96,60521,1,0,0:0:0:0:
368,96,60695,1,8,0:0:0:0:
368,96,60870,1,0,0:0:0:0:
368,96,61044,1,0,0:0:0:0:
368,96,61219,1,0,0:0:0:0:
368,96,61393,1,8,0:0:0:0:
368,96,61567,1,0,0:0:0:0:
368,96,61655,1,0,0:0:0:0:
368,96,61742,1,0,0:0:0:0:
368,96,61916,1,0,0:0:0:0:
368,96,62091,1,8,0:0:0:0:
368,96,62265,1,0,0:0:0:0:
368,96,62439,1,0,0:0:0:0:
368,96,62614,1,0,0:0:0:0:
368,96,62788,1,8,0:0:0:0:
368,96,62963,1,0,0:0:0:0:
368,96,63050,1,0,0:0:0:0:
368,96,63137,1,0,0:0:0:0:
368,96,63224,1,0,0:0:0:0:
368,96,63312,1,0,0:0:0:0:
368,96,63486,1,8,0:0:0:0:
368,96,63660,1,0,0:0:0:0:
368,96,63835,1,0,0:0:0:0:
368,96,64009,1,0,0:0:0:0:
368,96,64184,1,8,0:0:0:0:
368,96,64358,1,8,0:0:0:0:
368,96,64533,1,0,0:0:0:0:
368,96,64620,1,0,0:0:0:0:
368,96,64707,1,0,0:0:0:0:
368,96,64881,1,8,0:0:0:0:
368,96,65056,1,0,0:0:0:0:
368,96,65230,1,0,0:0:0:0:
368,96,65405,1,0,0:0:0:0:
368,96,65579,1,8,0:0:0:0:
368,96,65753,1,8,0:0:0:0:
368,96,65928,1,0,0:0:0:0:
368,96,66015,1,0,0:0:0:0:
368,96,66102,1,0,0:0:0:0:
368,96,66277,1,8,0:0:0:0:
368,96,66451,1,0,0:0:0:0:
368,96,66626,1,0,0:0:0:0:
368,96,66800,1,0,0:0:0:0:
368,96,66974,1,8,0:0:0:0:
368,96,67149,1,0,0:0:0:0:
368,96,67236,1,0,0:0:0:0:
368,96,67323,1,0,0:0:0:0:
368,96,67410,1,0,0:0:0:0:
368,96,67498,1,0,0:0:0:0:
368,96,67672,1,8,0:0:0:0:
368,96,67846,1,0,0:0:0:0:
368,96,68021,1,0,0:0:0:0:
368,96,68195,1,0,0:0:0:0:
368,96,68370,1,8,0:0:0:0:
368,96,68544,1,0,0:0:0:0:
368,96,68631,1,0,0:0:0:0:
368,96,68719,1,0,0:0:0:0:
368,96,68806,1,0,0:0:0:0:
368,96,68893,1,0,0:0:0:0:
368,96,69067,1,8,0:0:0:0:
368,96,69242,1,0,0:0:0:0:
368,96,69416,1,0,0:0:0:0:
368,96,69591,1,0,0:0:0:0:
368,96,69765,1,8,0:0:0:0:
368,96,69939,1,0,0:0:0:0:
368,96,70114,1,0,0:0:0:0:
368,96,70201,1,0,0:0:0:0:
368,96,70288,1,0,0:0:0:0:
368,96,70463,1,8,0:0:0:0:
368,96,70637,1,0,0:0:0:0:
368,96,70812,1,0,0:0:0:0:
368,96,70899,1,0,0:0:0:0:
368,96,70986,1,0,0:0:0:0:
368,96,71160,1,8,0:0:0:0:
368,96,71335,1,0,0:0:0:0:
368,96,71422,1,0,0:0:0:0:
368,96,71509,1,0,0:0:0:0:
368,96,71596,1,0,0:0:0:0:
368,96,71684,1,0,0:0:0:0:
368,96,71858,1,8,0:0:0:0:
368,96,72033,1,0,0:0:0:0:
368,96,72207,1,0,0:0:0:0:
368,96,72381,1,0,0:0:0:0:
368,96,72556,1,8,0:0:0:0:
368,96,72730,1,0,0:0:0:0:
368,96,72817,1,8,0:0:0:0:
368,96,72905,1,0,0:0:0:0:
368,96,73079,1,0,0:0:0:0:
368,96,73253,1,8,0:0:0:0:
368,96,73428,1,0,0:0:0:0:
368,96,73602,1,0,0:0:0:0:
368,96,73777,1,0,0:0:0:0:
368,96,73951,1,8,0:0:0:0:
368,96,74126,1,0,0:0:0:0:
368,96,74213,1,8,0:0:0:0:
368,96,74300,1,0,0:0:0:0:
368,96,74474,1,0,0:0:0:0:
368,96,74649,1,8,0:0:0:0:
368,96,74823,1,0,0:0:0:0:
368,96,74998,1,0,0:0:0:0:
368,96,75172,1,0,0:0:0:0:
368,96,75346,1,8,0:0:0:0:
368,96,75521,1,8,0:0:0:0:
368,96,75695,1,0,0:0:0:0:
368,96,75870,1,0,0:0:0:0:
368,96,76044,1,8,0:0:0:0:
368,96,76219,1,0,0:0:0:0:
368,96,76393,1,0,0:0:0:0:
368,96,76567,1,0,0:0:0:0:
368,96,76742,1,8,0:0:0:0:
368,96,76916,1,8,0:0:0:0:
368,96,77091,1,0,0:0:0:0:
368,96,77265,1,0,0:0:0:0:
368,96,77440,1,8,0:0:0:0:
368,96,77614,1,0,0:0:0:0:
368,96,77788,1,0,0:0:0:0:
368,96,77963,1,0,0:0:0:0:
368,96,78137,1,8,0:0:0:0:
368,96,78312,1,0,0:0:0:0:
368,96,78486,1,0,0:0:0:0:
368,96,78660,1,0,0:0:0:0:
368,96,78835,1,8,0:0:0:0:
368,96,79009,1,0,0:0:0:0:
368,96,79184,1,0,0:0:0:0:
368,96,79358,1,0,0:0:0:0:
368,96,79533,1,8,0:0:0:0:
368,96,79707,1,0,0:0:0:0:
368,96,79881,1,0,0:0:0:0:
368,96,80056,1,0,0:0:0:0:
368,96,80230,1,8,0:0:0:0:
368,96,80405,1,0,0:0:0:0:
368,96,80579,1,0,0:0:0:0:
368,96,80753,1,0,0:0:0:0:
368,96,80928,1,8,0:0:0:0:
368,96,81102,1,0,0:0:0:0:
368,96,81277,1,0,0:0:0:0:
368,96,81451,1,0,0:0:0:0:
368,96,81626,1,8,0:0:0:0:
368,96,81800,1,0,0:0:0:0:
368,96,81974,1,0,0:0:0:0:
368,96,82149,1,0,0:0:0:0:
368,96,82236,1,0,0:0:0:0:
368,96,82323,1,8,0:0:0:0:
368,96,82410,1,0,0:0:0:0:
368,96,82498,1,0,0:0:0:0:
368,96,82672,1,0,0:0:0:0:
368,96,82846,1,0,0:0:0:0:
368,96,82934,1,0,0:0:0:0:
368,96,83021,1,8,0:0:0:0:
368,96,83108,1,0,0:0:0:0:
368,96,83195,1,0,0:0:0:0:
368,96,83370,1,0,0:0:0:0:
368,96,83544,1,0,0:0:0:0:
368,96,83719,1,8,0:0:0:0:
368,96,83893,1,0,0:0:0:0:
368,96,84067,1,0,0:0:0:0:
368,96,84242,1,0,0:0:0:0:
368,96,84416,1,8,0:0:0:0:
368,96,84591,1,0,0:0:0:0:
368,96,84765,1,0,0:0:0:0:
368,96,84940,1,0,0:0:0:0:
368,96,85027,1,0,0:0:0:0:
368,96,85114,1,8,0:0:0:0:
368,96,85201,1,0,0:0:0:0:
368,96,85288,1,0,0:0:0:0:
368,96,85376,1,0,0:0:0:0:
368,96,85463,1,0,0:0:0:0:
368,96,85550,1,0,0:0:0:0:
368,96,85637,1,0,0:0:0:0:
368,96,85724,1,0,0:0:0:0:
368,96,85812,1,8,0:0:0:0:
368,96,85899,1,0,0:0:0:0:
368,96,85986,1,0,0:0:0:0:
368,96,86073,1,0,0:0:0:0:
368,96,86160,1,0,0:0:0:0:
368,96,86335,1,0,0:0:0:0:
368,96,86509,1,8,0:0:0:0:
368,96,86684,1,8,0:0:0:0:
368,96,86771,1,0,0:0:0:0:
368,96,86858,1,0,0:0:0:0:
368,96,87033,1,0,0:0:0:0:
368,96,87207,1,8,0:0:0:0:
368,96,87294,1,0,0:0:0:0:
368,96,87556,1,0,0:0:0:0:
368,96,87730,1,0,0:0:0:0:
368,96,87905,1,8,0:0:0:0:
368,96,88166,1,8,0:0:0:0:
368,96,88253,1,0,0:0:0:0:
368,96,88341,1,0,0:0:0:0:
368,96,88428,1,0,0:0:0:0:
368,96,88602,1,8,0:0:0:0:
368,96,88777,1,0,0:0:0:0:
368,96,88951,1,0,0:0:0:0:
368,96,89126,1,0,0:0:0:0:
368,96,89300,1,8,0:0:0:0:
368,96,89474,1,0,0:0:0:0:
368,96,89562,1,0,0:0:0:0:
368,96,89649,1,0,0:0:0:0:
368,96,89736,1,0,0:0:0:0:
368,96,89823,1,0,0:0:0:0:
368,96,89998,1,8,0:0:0:0:
368,96,90172,1,0,0:0:0:0:
368,96,90346,1,0,0:0:0:0:
368,96,90521,1,0,0:0:0:0:
368,96,90695,1,8,0:0:0:0:
368,96,90870,1,0,0:0:0:0:
368,96,90957,1,0,0:0:0:0:
368,96,91044,1,0,0:0:0:0:
368,96,91131,1,0,0:0:0:0:
368,96,91219,1,0,0:0:0:0:
368,96,91393,1,8,0:0:0:0:
368,96,91567,1,0,0:0:0:0:
240,120,91742,1,0,0:0:0:0:
240,120,92091,1,8,0:0:0:0:
240,120,92440,1,0,0:0:0:0:
240,120,92614,1,0,0:0:0:0:
240,120,92788,1,8,0:0:0:0:
240,120,93137,1,0,0:0:0:0:
240,120,93486,1,8,0:0:0:0:
240,120,93835,1,0,0:0:0:0:
240,120,94009,1,0,0:0:0:0:
240,120,94096,1,0,0:0:0:0:
240,120,94184,1,8,0:0:0:0:
240,120,94533,1,0,0:0:0:0:
240,120,94881,1,8,0:0:0:0:
240,120,95230,1,0,0:0:0:0:
240,120,95405,1,0,0:0:0:0:
240,120,95579,1,8,0:0:0:0:
240,120,95928,1,0,0:0:0:0:
240,120,96102,1,0,0:0:0:0:
240,120,96277,1,8,0:0:0:0:
240,120,96451,1,0,0:0:0:0:
240,120,96626,1,0,0:0:0:0:
240,120,96713,1,0,0:0:0:0:
240,120,96800,1,0,0:0:0:0:
240,120,96974,1,8,0:0:0:0:
240,120,97323,1,0,0:0:0:0:
240,120,97498,1,0,0:0:0:0:
240,120,97672,1,8,0:0:0:0:
240,120,97846,1,8,0:0:0:0:
240,120,98021,1,0,0:0:0:0:
240,120,98195,1,0,0:0:0:0:
240,120,98370,1,8,0:0:0:0:
240,120,98544,1,0,0:0:0:0:
240,120,98719,1,0,0:0:0:0:
240,120,98893,1,0,0:0:0:0:
240,120,99067,1,8,0:0:0:0:
240,120,99242,1,8,0:0:0:0:
240,120,99416,1,0,0:0:0:0:
240,120,99591,1,0,0:0:0:0:
240,120,99765,1,8,0:0:0:0:
240,120,99940,1,0,0:0:0:0:
240,120,100114,1,0,0:0:0:0:
240,120,100288,1,0,0:0:0:0:
240,120,100463,1,8,0:0:0:0:
240,120,100637,1,0,0:0:0:0:
240,120,100812,1,0,0:0:0:0:
240,120,100986,1,0,0:0:0:0:
240,120,101160,1,8,0:0:0:0:
240,120,101335,1,0,0:0:0:0:
240,120,101509,1,0,0:0:0:0:
240,120,101684,1,0,0:0:0:0:
240,120,101858,1,8,0:0:0:0:
240,120,102033,1,0,0:0:0:0:
240,120,102207,1,0,0:0:0:0:
240,120,102294,1,0,0:0:0:0:
240,120,102381,1,0,0:0:0:0:
240,120,102556,1,8,0:0:0:0:
240,120,102730,1,0,0:0:0:0:
240,120,102905,1,0,0:0:0:0:
240,120,103079,1,0,0:0:0:0:
240,120,103166,1,0,0:0:0:0:
240,120,103253,1,8,0:0:0:0:
240,120,103428,1,0,0:0:0:0:
240,120,103602,1,0,0:0:0:0:
240,120,103690,1,0,0:0:0:0:
240,120,103777,1,0,0:0:0:0:
240,120,103864,1,0,0:0:0:0:
240,120,103951,1,8,0:0:0:0:
240,120,104126,1,0,0:0:0:0:
240,120,104300,1,0,0:0:0:0:
240,120,104474,1,0,0:0:0:0:
240,120,104649,1,8,0:0:0:0:
240,120,104823,1,0,0:0:0:0:
240,120,104910,1,0,0:0:0:0:
240,120,104998,1,0,0:0:0:0:
240,120,105085,1,0,0:0:0:0:
240,120,105172,1,0,0:0:0:0:
240,120,105346,1,8,0:0:0:0:
240,120,105434,1,0,0:0:0:0:
240,120,105521,1,0,0:0:0:0:
240,120,105695,1,0,0:0:0:0:
240,120,105870,1,0,0:0:0:0:
240,120,105957,1,0,0:0:0:0:
240,120,106044,1,8,0:0:0:0:
240,120,106219,1,0,0:0:0:0:
240,120,106393,1,0,0:0:0:0:
240,120,106480,1,0,0:0:0:0:
240,120,106567,1,0,0:0:0:0:
240,120,106655,1,0,0:0:0:0:
240,120,106742,1,8,0:0:0:0:
240,120,106916,1,0,0:0:0:0:
240,120,107091,1,0,0:0:0:0:
240,120,107265,1,0,0:0:0:0:
240,120,107440,1,8,0:0:0:0:
240,120,107614,1,0,0:0:0:0:
240,120,107701,1,0,0:0:0:0:
240,120,107788,1,0,0:0:0:0:
240,120,107876,1,0,0:0:0:0:
240,120,107963,1,0,0:0:0:0:
240,120,108137,1,8,0:0:0:0:
240,120,108224,1,0,0:0:0:0:
240,120,108312,1,0,0:0:0:0:
240,120,108486,1,0,0:0:0:0:
240,120,108660,1,0,0:0:0:0:
240,120,108835,1,8,0:0:0:0:
240,120,109009,1,0,0:0:0:0:
240,120,109184,1,0,0:0:0:0:
240,120,109358,1,0,0:0:0:0:
240,120,109533,1,8,0:0:0:0:
240,120,109707,1,8,0:0:0:0:
240,120,109881,1,0,0:0:0:0:
240,120,110056,1,0,0:0:0:0:
240,120,110230,1,8,0:0:0:0:
240,120,110405,1,0,0:0:0:0:
240,120,110579,1,0,0:0:0:0:
240,120,110753,1,0,0:0:0:0:
240,120,110928,1,8,0:0:0:0:
240,120,111102,1,8,0:0:0:0:
240,120,111277,1,0,0:0:0:0:
240,120,111451,1,0,0:0:0:0:
240,120,111626,1,8,0:0:0:0:
240,120,111800,1,0,0:0:0:0:
240,120,111974,1,0,0:0:0:0:
240,120,112149,1,0,0:0:0:0:
240,120,112323,1,8,0:0:0:0:
240,120,112498,1,0,0:0:0:0:
240,120,112672,1,0,0:0:0:0:
240,120,112846,1,0,0:0:0:0:
240,120,113021,1,8,0:0:0:0:
240,120,113195,1,0,0:0:0:0:
240,120,113370,1,0,0:0:0:0:
240,120,113457,1,0,0:0:0:0:
240,120,113544,1,0,0:0:0:0:
240,120,113719,1,8,0:0:0:0:
240,120,113893,1,0,0:0:0:0:
240,120,114067,1,0,0:0:0:0:
104,64,114242,1,0,0:0:0:0:
104,64,114416,1,8,0:0:0:0:
104,64,114765,1,0,0:0:0:0:
104,64,114940,1,0,0:0:0:0:
104,64,115114,1,8,0:0:0:0:
104,64,115463,1,0,0:0:0:0:
104,64,115637,1,0,0:0:0:0:
104,64,115812,1,8,0:0:0:0:
104,64,115986,1,0,0:0:0:0:
104,64,116073,1,0,0:0:0:0:
104,64,116335,1,0,0:0:0:0:
104,64,116509,1,8,0:0:0:0:
104,64,116858,1,0,0:0:0:0:
104,64,117207,1,8,0:0:0:0:
104,64,117556,1,0,0:0:0:0:
104,64,117730,1,0,0:0:0:0:
104,64,117904,1,8,0:0:0:0:
104,64,118253,1,0,0:0:0:0:
104,64,118428,1,0,0:0:0:0:
104,64,118602,1,8,0:0:0:0:
104,64,118777,1,0,0:0:0:0:
104,64,118951,1,0,0:0:0:0:
104,64,119125,1,0,0:0:0:0:
104,64,119300,1,8,0:0:0:0:
104,64,119649,1,0,0:0:0:0:
104,64,119823,1,0,0:0:0:0:
104,64,119997,1,8,0:0:0:0:
104,64,120172,1,0,0:0:0:0:
104,64,120346,1,0,0:0:0:0:
104,64,120521,1,0,0:0:0:0:
104,64,120608,1,0,0:0:0:0:
104,64,120695,1,8,0:0:0:0:
104,64,121044,1,0,0:0:0:0:
104,64,121219,1,0,0:0:0:0:
104,64,121393,1,8,0:0:0:0:
104,64,121567,1,0,0:0:0:0:
104,64,121654,1,0,0:0:0:0:
104,64,121742,1,0,0:0:0:0:
104,64,121915,1,0,0:0:0:0:
104,64,122003,1,0,0:0:0:0:
104,64,122091,1,8,0:0:0:0:
104,64,122440,1,0,0:0:0:0:
104,64,122615,1,0,0:0:0:0:
104,64,122788,1,8,0:0:0:0:
104,64,122963,1,0,0:0:0:0:
104,64,123137,1,0,0:0:0:0:
104,64,123311,1,0,0:0:0:0:
104,64,123486,1,8,0:0:0:0:
104,64,123660,1,0,0:0:0:0:
104,64,123835,1,0,0:0:0:0:
104,64,124009,1,0,0:0:0:0:
104,64,124183,1,8,0:0:0:0:
104,64,124358,1,0,0:0:0:0:
104,64,124532,1,0,0:0:0:0:
104,64,124620,1,0,0:0:0:0:
104,64,124707,1,0,0:0:0:0:
104,64,124794,1,0,0:0:0:0:
104,64,124881,1,8,0:0:0:0:
104,64,125230,1,0,0:0:0:0:
104,64,125579,1,8,0:0:0:0:
104,64,125928,1,0,0:0:0:0:
104,64,126102,1,0,0:0:0:0:
104,64,126277,1,8,0:0:0:0:
104,64,126625,1,0,0:0:0:0:
104,64,126974,1,8,0:0:0:0:
104,64,127323,1,0,0:0:0:0:
104,64,127497,1,0,0:0:0:0:
104,64,127672,1,8,0:0:0:0:
104,64,128021,1,0,0:0:0:0:
104,64,128370,1,8,0:0:0:0:
104,64,128893,1,0,0:0:0:0:
104,64,129067,1,8,0:0:0:0:
104,64,129416,1,0,0:0:0:0:
104,64,129765,1,8,0:0:0:0:
104,64,130288,1,0,0:0:0:0:
104,64,130463,1,8,0:0:0:0:
104,64,130811,1,0,0:0:0:0:
104,64,130986,1,0,0:0:0:0:
104,64,131160,1,8,0:0:0:0:
104,64,131509,1,0,0:0:0:0:
104,64,131683,1,0,0:0:0:0:
104,64,131858,1,8,0:0:0:0:
104,64,132207,1,0,0:0:0:0:
104,64,132381,1,0,0:0:0:0:
104,64,132556,1,8,0:0:0:0:
104,64,132730,1,0,0:0:0:0:
104,64,132817,1,8,0:0:0:0:
104,64,132904,1,0,0:0:0:0:
104,64,133079,1,0,0:0:0:0:
104,64,133253,1,8,0:0:0:0:
104,64,133602,1,0,0:0:0:0:
104,64,133951,1,8,0:0:0:0:
104,64,134300,1,0,0:0:0:0:
104,64,134474,1,0,0:0:0:0:
104,64,134649,1,8,0:0:0:0:
104,64,134998,1,0,0:0:0:0:
104,64,135172,1,0,0:0:0:0:
104,64,135347,1,8,0:0:0:0:
104,64,135521,1,0,0:0:0:0:
104,64,135608,1,8,0:0:0:0:
104,64,135695,1,0,0:0:0:0:
104,64,135870,1,0,0:0:0:0:
104,64,135957,1,0,0:0:0:0:
104,64,136044,1,8,0:0:0:0:
160,56,136393,2,0,L|400:56|392:56,4,225.000008583069
