osu file format v12

[General]
AudioFilename: Feint - The Journey ft. Veela [HD].mp3
AudioLeadIn: 2934
PreviewTime: -1
Countdown: 0
SampleSet: Soft
StackLeniency: 0.2
Mode: 0
LetterboxInBreaks: 1

[Editor]
Bookmarks: 22961,45348,59285,66641,74649,87207
DistanceSpacing: 0.8
BeatDivisor: 4
GridSize: 8

[Metadata]
Title:The Journey ft. Veela
TitleUnicode:The Journey ft. Veela
Artist:Feint
ArtistUnicode:Feint
Creator:deathward
Version:Hard
Source:
Tags:dnb drum and bass feint journey
BeatmapID:249721
BeatmapSetID:91234

[Difficulty]
HPDrainRate:7
CircleSize:4
OverallDifficulty:6
ApproachRate:8
SliderMultiplier:1.5
SliderTickRate:1

[Events]
//Background and Video events
0,0,"the_girl_who_loved_the_sea_by_nuriko_kun-d5zih7o.jpg",1,1
//Break Periods
//Storyboard Layer 0 (Background)
//Storyboard Layer 1 (Fail)
//Storyboard Layer 2 (Pass)
//Storyboard Layer 3 (Foreground)
//Storyboard Sound Samples
//Background Colour Transformations
3,100,0,0,0

[TimingPoints]
2440,348.837209302326,4,2,1,100,1,0
47091,-75.187969924812,4,1,1,100,0,1
52672,-75.187969924812,4,1,1,100,0,0
91742,-75.187969924812,4,1,1,100,0,1
97323,-75.187969924812,4,1,1,100,0,0

[Colours]
Combo1 : 140,0,0
Combo2 : 40,148,255
Combo3 : 105,213,235
Combo4 : 128,128,192

[HitObjects]
256,192,24765,1,4,0:0:0:0:
360,128,25114,1,0,0:0:0:0:
464,192,25463,1,0,0:0:0:0:
448,312,25812,2,0,P|376:360|296:360,1,150
208,312,26509,2,0,P|280:360|360:360,1,150
336,240,27207,1,0,0:0:0:0:
432,168,27556,5,0,0:0:0:0:
312,184,27905,1,0,0:0:0:0:
256,192,28079,1,0,0:0:0:0:
200,184,28253,1,0,0:0:0:0:
80,168,28602,2,0,P|72:112|88:80,1,74.9999999999999
80,96,29126,1,0,0:0:0:0:
104,216,29474,1,0,0:0:0:0:
136,264,29649,1,0,0:0:0:0:
192,288,29823,1,0,0:0:0:0:
248,296,29998,1,0,0:0:0:0:
304,288,30172,1,0,0:0:0:0:
360,264,30346,6,0,P|408:192|360:128,1,150
320,136,30870,2,0,P|272:208|320:272,1,150,0|0,0:0|0:0,0:0:0:0:
352,280,31393,2,0,P|448:248|472:176,1,150
152,264,33137,6,0,P|104:192|152:128,1,150
192,136,33661,2,0,P|240:208|192:272,1,150,0|0,0:0|0:0,0:0:0:0:
160,280,34184,2,0,P|64:248|40:176,1,150
8,96,34881,1,0,0:0:0:0:
40,48,35056,1,0,0:0:0:0:
96,32,35230,1,0,0:0:0:0:
160,32,35405,1,0,0:0:0:0:
216,56,35579,1,0,0:0:0:0:
256,104,35753,1,0,0:0:0:0:
256,168,35928,6,0,P|256:272|312:272,1,150
336,280,36451,2,0,P|400:272|456:192,1,150
448,152,36974,2,0,L|296:72,1,150
200,48,37672,1,0,0:0:0:0:
88,48,38021,1,0,0:0:0:0:
136,160,38370,1,0,0:0:0:0:
256,168,38719,6,0,P|256:272|200:272,1,150
176,280,39242,2,0,P|112:272|56:192,1,150
64,152,39765,2,0,L|216:72,1,150
376,48,40637,1,0,0:0:0:0:
432,64,40812,1,0,0:0:0:0:
456,120,40986,1,0,0:0:0:0:
448,176,41160,1,0,0:0:0:0:
400,216,41335,1,0,0:0:0:0:
344,232,41509,6,0,L|168:232,1,150
136,232,42033,2,0,P|96:160|144:80,1,150
176,96,42556,2,0,L|344:96,3,150
256,328,44300,5,0,0:0:0:0:
256,152,44823,1,0,0:0:0:0:
256,328,45346,1,0,0:0:0:0:
256,192,45695,12,4,46742,0:0:0:0:
48,48,47091,5,4,0:0:0:0:
208,48,47440,2,0,P|240:88|200:128,2,99.7499958904268,8|0|0,0:0|0:0|0:0,0:0:0:0:
48,48,48137,1,0,0:0:0:0:
72,128,48312,1,4,0:0:0:0:
128,192,48486,1,0,0:0:0:0:
208,208,48660,1,8,0:0:0:0:
352,272,49009,2,0,P|384:216|352:176,4,99.7499958904268,4|8|4|8|4,0:0|0:0|0:0|0:0|0:0,0:0:0:0:
272,288,49881,6,0,P|144:280|104:224,1,199.499991780854,4|8,0:0|0:0,0:0:0:0:
72,160,50405,1,0,0:0:0:0:
64,80,50579,1,0,0:0:0:0:
224,64,50928,2,0,P|264:80|296:152,1,99.7499958904268,4|4,0:0|0:0,0:0:0:0:
160,208,51451,2,0,P|128:312|40:360,1,199.499991780854,8|4,0:0|0:0,0:0:0:0:
40,120,52323,2,0,P|104:80|160:72,1,99.7499958904268,4|0,0:0|0:0,0:0:0:0:
272,64,52672,6,0,L|384:64,2,99.7499958904268,4|4|8,0:0|0:0|0:0,0:0:0:0:
240,112,53195,2,0,L|240:232,2,99.7499958904268,8|4|4,0:0|0:0|0:0,0:0:0:0:
208,64,53719,2,0,L|96:64,2,99.7499958904268,8|4|0,0:0|0:0|0:0,0:0:0:0:
240,64,54416,1,4,0:0:0:0:
240,64,54765,1,8,0:0:0:0:
368,64,55114,2,0,P|368:144|352:192,1,99.7499958904268,4|8,0:0|0:0,0:0:0:0:
360,240,55463,5,0,0:0:0:0:
224,328,55812,1,0,0:0:0:0:
152,296,55986,1,0,0:0:0:0:
128,224,56160,1,0,0:0:0:0:
104,64,56509,2,0,P|168:48|216:64,1,99.7499958904268
336,144,57033,1,0,0:0:0:0:
336,144,57381,1,0,0:0:0:0:
56,128,58253,6,0,P|88:80|144:56,1,99.7499958904268
200,64,58602,1,0,0:0:0:0:
280,72,58777,1,0,0:0:0:0:
352,104,58951,2,0,P|400:168|400:216,1,99.7499958904268
368,256,59300,1,0,0:0:0:0:
368,256,59474,1,0,0:0:0:0:
224,320,59823,1,0,0:0:0:0:
80,248,60172,6,0,L|48:152,4,99.7499958904268
144,296,61044,2,0,P|240:344|336:280,1,199.499991780854
360,240,61567,1,0,0:0:0:0:
400,168,61742,1,0,0:0:0:0:
368,96,61916,1,0,0:0:0:0:
288,72,62091,2,0,P|216:72|176:88,1,99.7499958904268
128,136,62440,2,0,P|112:192|136:264,1,99.7499958904268
256,96,63486,6,0,P|256:168|240:96,1,199.499991780854
304,96,64009,2,0,L|432:96,2,99.7499958904268
224,96,64533,2,0,L|96:96,2,99.7499958904268
264,96,65230,1,0,0:0:0:0:
264,96,65579,1,0,0:0:0:0:
104,112,65928,2,0,P|64:136|64:200,1,99.7499958904268
56,264,66277,2,0,P|80:304|144:304,1,99.7499958904268
208,320,66626,5,0,0:0:0:0:
360,264,66974,1,0,0:0:0:0:
352,104,67323,1,0,0:0:0:0:
296,48,67498,1,0,0:0:0:0:
216,40,67672,1,0,0:0:0:0:
72,104,68021,2,0,P|24:200|16:304,1,199.499991780854
14,290,68544,1,0,0:0:0:0:
176,296,68893,1,0,0:0:0:0:
256,296,69067,1,0,0:0:0:0:
400,232,69416,6,0,L|424:120,1,99.7499958904268
360,72,69765,1,0,0:0:0:0:
280,48,69940,1,0,0:0:0:0:
200,48,70114,1,0,0:0:0:0:
40,80,70463,2,0,P|24:160|88:264,1,199.499991780854
152,296,70986,1,0,0:0:0:0:
312,312,71335,1,0,0:0:0:0:
312,232,71509,1,0,0:0:0:0:
360,296,71684,1,0,0:0:0:0:
288,264,71858,1,0,0:0:0:0:
368,248,72033,1,0,0:0:0:0:
416,184,72207,6,0,P|424:80|320:16,1,199.499991780854
280,8,72730,1,0,0:0:0:0:
200,16,72905,1,0,0:0:0:0:
120,24,73079,1,0,0:0:0:0:
48,64,73253,1,0,0:0:0:0:
32,144,73428,2,0,P|32:232|64:256,1,99.7499958904268
112,248,73777,2,0,L|416:248,1,299.24998767128
416,88,74649,2,0,L|416:216,1,99.7499958904268
336,192,74998,6,0,L|128:192,1,199.499991780854
64,192,75521,2,0,P|64:304|128:352,1,199.499991780854
208,352,76044,2,0,L|432:352,1,199.499991780854
416,272,76742,1,0,0:0:0:0:
416,192,77091,1,0,0:0:0:0:
416,112,77440,1,0,0:0:0:0:
