osu file format v14

[General]
AudioFilename: Feint - Sky Dance.mp3
AudioLeadIn: 0
PreviewTime: 92541
Countdown: 0
SampleSet: Normal
StackLeniency: 0.7
Mode: 1
LetterboxInBreaks: 0
WidescreenStoryboard: 0

[Editor]
DistanceSpacing: 1.1
BeatDivisor: 4
GridSize: 8
TimelineZoom: 1.3

[Metadata]
Title:Sky Dance
TitleUnicode:Sky Dance
Artist:Feint
ArtistUnicode:Feint
Creator:Aldwych
Version:Oni
Source:
Tags:shoegaze Sandwych Kin
BeatmapID:543164
BeatmapSetID:234125

[Difficulty]
HPDrainRate:6
CircleSize:5
OverallDifficulty:5
ApproachRate:10
SliderMultiplier:1.4
SliderTickRate:1

[Events]
//Background and Video events
0,0,"skyDance.png",0,0
//Break Periods
//Storyboard Layer 0 (Background)
//Storyboard Layer 1 (Fail)
//Storyboard Layer 2 (Pass)
//Storyboard Layer 3 (Foreground)
//Storyboard Sound Samples

[TimingPoints]
122,483.870967741935,4,1,0,50,1,0
61331,-100,4,1,0,60,0,0
62057,-83.3333333333333,4,1,0,70,0,1
123992,-83.3333333333333,4,1,0,50,0,0

[HitObjects]
256,192,15605,5,0,0:0:0:0:
256,192,16089,1,0,0:0:0:0:
256,192,16331,1,8,0:0:0:0:
256,192,16573,1,0,0:0:0:0:
256,192,16815,1,0,0:0:0:0:
256,192,17057,1,8,0:0:0:0:
256,192,17541,1,0,0:0:0:0:
256,192,18025,1,0,0:0:0:0:
256,192,18267,1,8,0:0:0:0:
256,192,18509,1,0,0:0:0:0:
256,192,18751,1,0,0:0:0:0:
256,192,18993,1,8,0:0:0:0:
256,192,19476,1,0,0:0:0:0:
256,192,19960,1,0,0:0:0:0:
256,192,20202,1,8,0:0:0:0:
256,192,20444,1,0,0:0:0:0:
256,192,20686,1,0,0:0:0:0:
256,192,20928,1,8,0:0:0:0:
256,192,21412,1,0,0:0:0:0:
256,192,21896,1,0,0:0:0:0:
256,192,22138,1,8,0:0:0:0:
256,192,22380,1,0,0:0:0:0:
256,192,22863,1,8,0:0:0:0:
256,192,23105,1,8,0:0:0:0:
256,192,23347,1,0,0:0:0:0:
256,192,23831,1,0,0:0:0:0:
256,192,24073,1,8,0:0:0:0:
256,192,24557,1,0,0:0:0:0:
256,192,24799,1,8,0:0:0:0:
256,192,25041,1,0,0:0:0:0:
256,192,25162,1,0,0:0:0:0:
256,192,25283,1,0,0:0:0:0:
256,192,25767,1,0,0:0:0:0:
256,192,26009,1,8,0:0:0:0:
256,192,26492,1,0,0:0:0:0:
256,192,26734,1,8,0:0:0:0:
256,192,26976,1,0,0:0:0:0:
256,192,27218,1,0,0:0:0:0:
256,192,27702,1,0,0:0:0:0:
256,192,27944,1,8,0:0:0:0:
256,192,28428,1,0,0:0:0:0:
256,192,28670,1,8,0:0:0:0:
256,192,28912,1,0,0:0:0:0:
256,192,29033,1,0,0:0:0:0:
256,192,29154,1,0,0:0:0:0:
256,192,29638,1,0,0:0:0:0:
256,192,29880,1,8,0:0:0:0:
256,192,30121,1,0,0:0:0:0:
256,192,30363,1,0,0:0:0:0:
256,192,30484,1,0,0:0:0:0:
256,192,30605,1,8,0:0:0:0:
256,192,30726,1,0,0:0:0:0:
256,192,30847,1,8,0:0:0:0:
256,192,31089,1,0,0:0:0:0:
256,192,31573,1,0,0:0:0:0:
256,192,31815,1,8,0:0:0:0:
256,192,32057,1,0,0:0:0:0:
256,192,32299,1,0,0:0:0:0:
256,192,32541,1,8,0:0:0:0:
256,192,32783,1,8,0:0:0:0:
256,192,32904,1,8,0:0:0:0:
256,192,33025,1,0,0:0:0:0:
256,192,33509,1,0,0:0:0:0:
256,192,33751,1,8,0:0:0:0:
256,192,33992,1,0,0:0:0:0:
256,192,34113,1,0,0:0:0:0:
256,192,34234,1,8,0:0:0:0:
256,192,34476,1,8,0:0:0:0:
256,192,34960,1,0,0:0:0:0:
256,192,35202,1,0,0:0:0:0:
256,192,35323,1,0,0:0:0:0:
256,192,35444,1,0,0:0:0:0:
256,192,35686,1,8,0:0:0:0:
256,192,35807,1,8,0:0:0:0:
256,192,35928,1,0,0:0:0:0:
256,192,36049,1,0,0:0:0:0:
256,192,36170,1,0,0:0:0:0:
256,192,36412,1,8,0:0:0:0:
256,192,36896,1,0,0:0:0:0:
256,192,37380,1,0,0:0:0:0:
256,192,37621,1,8,0:0:0:0:
256,192,37863,1,0,0:0:0:0:
256,192,38105,1,0,0:0:0:0:
256,192,38226,1,0,0:0:0:0:
256,192,38347,1,8,0:0:0:0:
256,192,38468,1,0,0:0:0:0:
256,192,38589,1,8,0:0:0:0:
256,192,38831,1,0,0:0:0:0:
256,192,39315,1,0,0:0:0:0:
256,192,39436,1,0,0:0:0:0:
256,192,39557,1,8,0:0:0:0:
256,192,39799,1,8,0:0:0:0:
256,192,39920,1,8,0:0:0:0:
256,192,40041,1,0,0:0:0:0:
256,192,40283,1,8,0:0:0:0:
208,132,40525,1,0,0:0:0:0:
252,192,40767,1,0,0:0:0:0:
172,60,41251,1,0,0:0:0:0:
212,124,41492,1,8,0:0:0:0:
232,156,41613,1,0,0:0:0:0:
248,192,41734,1,0,0:0:0:0:
232,156,41976,1,0,0:0:0:0:
232,156,42097,1,0,0:0:0:0:
232,156,42218,1,8,0:0:0:0:
232,156,42460,1,8,0:0:0:0:
232,156,42702,1,0,0:0:0:0:
232,156,43186,1,0,0:0:0:0:
232,156,43428,1,8,0:0:0:0:
232,156,43670,1,0,0:0:0:0:
232,156,43912,1,0,0:0:0:0:
232,156,44033,1,0,0:0:0:0:
232,156,44154,1,8,0:0:0:0:
232,156,44396,1,0,0:0:0:0:
232,156,44638,1,0,0:0:0:0:
232,156,45121,1,0,0:0:0:0:
232,156,45242,1,0,0:0:0:0:
232,156,45363,1,8,0:0:0:0:
232,156,45605,1,0,0:0:0:0:
232,156,45847,1,0,0:0:0:0:
232,156,46089,1,8,0:0:0:0:
232,156,46331,1,8,0:0:0:0:
232,156,46573,1,4,0:0:0:0:
232,156,47299,1,8,0:0:0:0:
232,156,47541,1,0,0:0:0:0:
232,156,48025,1,8,0:0:0:0:
232,156,48509,1,8,0:0:0:0:
256,192,48751,1,0,0:0:0:0:
256,192,48871,1,0,0:0:0:0:
256,192,49113,1,0,0:0:0:0:
256,192,49234,1,8,0:0:0:0:
256,192,49476,1,8,0:0:0:0:
256,192,49960,1,8,0:0:0:0:
256,192,50202,1,0,0:0:0:0:
256,192,50444,1,0,0:0:0:0:
256,192,50686,1,0,0:0:0:0:
256,192,50807,1,8,0:0:0:0:
256,192,51049,1,8,0:0:0:0:
256,192,51170,1,0,0:0:0:0:
256,192,51412,1,8,0:0:0:0:
256,192,51896,1,8,0:0:0:0:
256,192,52138,1,8,0:0:0:0:
256,192,52380,1,0,0:0:0:0:
256,192,52621,1,0,0:0:0:0:
256,192,52742,1,8,0:0:0:0:
256,192,52984,1,8,0:0:0:0:
256,192,53105,1,0,0:0:0:0:
256,192,53347,1,8,0:0:0:0:
256,192,53831,1,8,0:0:0:0:
256,192,54315,1,8,0:0:0:0:
256,192,54557,1,8,0:0:0:0:
256,192,55041,1,8,0:0:0:0:
256,192,55162,1,8,0:0:0:0:
256,192,55283,1,0,0:0:0:0:
256,192,55767,1,0,0:0:0:0:
256,192,56251,1,0,0:0:0:0:
256,192,56492,1,0,0:0:0:0:
256,192,56613,1,8,0:0:0:0:
256,192,56855,1,0,0:0:0:0:
256,192,56976,1,8,0:0:0:0:
256,192,57218,1,8,0:0:0:0:
256,192,57702,1,8,0:0:0:0:
256,192,57944,1,0,0:0:0:0:
256,192,58186,1,4,0:0:0:0:
256,192,61331,1,8,0:0:0:0:
256,192,61573,1,0,0:0:0:0:
256,192,62057,1,4,0:0:0:0:
256,192,62299,1,0,0:0:0:0:
256,192,62420,1,0,0:0:0:0:
256,192,62541,1,0,0:0:0:0:
256,192,62783,1,8,0:0:0:0:
256,192,63267,1,8,0:0:0:0:
256,192,63388,1,8,0:0:0:0:
256,192,63509,1,0,0:0:0:0:
256,192,63630,1,0,0:0:0:0:
256,192,63751,1,8,0:0:0:0:
116,252,63992,1,0,0:0:0:0:
152,236,64113,1,0,0:0:0:0:
188,220,64234,1,8,0:0:0:0:
224,208,64355,1,0,0:0:0:0:
224,208,64476,1,8,0:0:0:0:
224,208,64718,1,8,0:0:0:0:
224,208,65202,1,0,0:0:0:0:
224,208,65444,1,8,0:0:0:0:
224,208,65928,1,8,0:0:0:0:
224,208,66049,1,0,0:0:0:0:
224,208,66170,1,8,0:0:0:0:
224,208,66291,1,8,0:0:0:0:
224,208,66412,1,0,0:0:0:0:
224,208,66654,1,8,0:0:0:0:
224,208,67138,1,0,0:0:0:0:
224,208,67380,1,8,0:0:0:0:
224,208,67863,1,8,0:0:0:0:
224,208,67984,1,8,0:0:0:0:
224,208,68105,1,0,0:0:0:0:
224,208,68226,1,0,0:0:0:0:
224,208,68347,1,8,0:0:0:0:
224,208,68589,1,8,0:0:0:0:
224,208,68831,1,8,0:0:0:0:
224,208,68952,1,0,0:0:0:0:
224,208,69073,1,0,0:0:0:0:
224,208,69315,1,8,0:0:0:0:
224,208,69436,1,0,0:0:0:0:
224,208,69557,1,8,0:0:0:0:
224,208,69678,1,0,0:0:0:0:
224,208,69799,1,0,0:0:0:0:
224,208,70162,1,0,0:0:0:0:
224,208,70283,1,0,0:0:0:0:
224,208,70525,1,8,0:0:0:0:
224,208,71009,1,8,0:0:0:0:
224,208,71251,1,8,0:0:0:0:
224,208,71492,1,8,0:0:0:0:
224,208,71734,1,0,0:0:0:0:
224,208,71855,1,0,0:0:0:0:
224,208,72097,1,8,0:0:0:0:
224,208,72218,1,0,0:0:0:0:
224,208,72460,1,8,0:0:0:0:
224,208,72944,1,0,0:0:0:0:
215,208,73186,1,8,0:0:0:0:
224,208,73428,1,0,0:0:0:0:
224,208,73670,1,8,0:0:0:0:
224,208,73791,1,0,0:0:0:0:
224,208,73912,1,0,0:0:0:0:
224,208,74154,1,0,0:0:0:0:
224,208,74396,1,8,0:0:0:0:
224,208,74880,1,0,0:0:0:0:
224,208,75001,1,0,0:0:0:0:
224,208,75121,1,8,0:0:0:0:
224,208,75363,1,0,0:0:0:0:
224,208,75605,1,8,0:0:0:0:
224,208,75726,1,0,0:0:0:0:
224,208,75968,1,8,0:0:0:0:
224,208,76089,1,0,0:0:0:0:
224,208,76331,1,8,0:0:0:0:
224,208,76815,1,0,0:0:0:0:
224,208,77057,1,8,0:0:0:0:
224,208,77299,1,8,0:0:0:0:
224,208,77541,1,4,0:0:0:0:
224,208,77783,1,0,0:0:0:0:
224,208,77904,1,0,0:0:0:0:
224,208,78025,1,0,0:0:0:0:
224,208,78267,1,8,0:0:0:0:
224,208,78751,1,8,0:0:0:0:
224,208,78871,1,0,0:0:0:0:
224,208,78992,1,8,0:0:0:0:
224,208,79234,1,0,0:0:0:0:
224,208,79476,1,8,0:0:0:0:
224,208,79718,1,0,0:0:0:0:
224,208,79839,1,0,0:0:0:0:
215,245,79960,1,8,0:0:0:0:
215,245,80202,1,8,0:0:0:0:
215,245,80323,1,0,0:0:0:0:
229,169,80565,1,0,0:0:0:0:
224,208,80686,1,8,0:0:0:0:
231,131,80928,1,8,0:0:0:0:
231,131,81412,1,8,0:0:0:0:
231,131,81533,1,8,0:0:0:0:
231,131,81654,1,0,0:0:0:0:
234,207,81896,1,0,0:0:0:0:
231,130,82138,1,8,0:0:0:0:
231,131,82380,1,0,0:0:0:0:
231,131,82501,1,0,0:0:0:0:
231,131,82621,1,0,0:0:0:0:
231,131,82863,1,8,0:0:0:0:
231,130,83347,1,8,0:0:0:0:
219,166,83468,1,0,0:0:0:0:
231,130,83589,1,8,0:0:0:0:
219,166,83710,1,0,0:0:0:0:
219,166,83831,1,0,0:0:0:0:
219,166,84073,1,8,0:0:0:0:
219,166,84315,1,0,0:0:0:0:
231,130,84557,1,0,0:0:0:0:
231,130,84678,1,0,0:0:0:0:
231,130,84799,1,8,0:0:0:0:
231,130,85041,1,8,0:0:0:0:
227,121,85283,1,0,0:0:0:0:
227,121,85404,1,8,0:0:0:0:
227,121,85525,1,0,0:0:0:0:
231,130,85646,1,0,0:0:0:0:
231,130,85767,1,8,0:0:0:0:
231,130,86009,1,8,0:0:0:0:
231,130,86492,1,8,0:0:0:0:
227,121,86734,1,8,0:0:0:0:
227,121,86976,1,8,0:0:0:0:
231,130,87218,1,0,0:0:0:0:
231,130,87339,1,8,0:0:0:0:
231,130,87581,1,8,0:0:0:0:
231,130,87702,1,0,0:0:0:0:
231,130,87944,1,8,0:0:0:0:
227,121,88186,1,8,0:0:0:0:
227,121,88307,1,0,0:0:0:0:
227,121,88428,1,0,0:0:0:0:
227,121,88549,1,0,0:0:0:0:
231,130,88670,1,8,0:0:0:0:
231,130,89154,1,0,0:0:0:0:
231,130,89275,1,0,0:0:0:0:
231,130,89396,1,8,0:0:0:0:
231,130,89517,1,0,0:0:0:0:
227,121,89638,1,8,0:0:0:0:
227,121,89880,1,8,0:0:0:0:
227,121,90121,1,0,0:0:0:0:
231,130,90242,1,0,0:0:0:0:
231,130,90363,1,0,0:0:0:0:
231,130,90605,1,8,0:0:0:0:
231,130,91089,1,8,0:0:0:0:
227,121,91210,1,8,0:0:0:0:
227,121,91331,1,0,0:0:0:0:
227,121,91452,1,0,0:0:0:0:
227,121,91573,1,8,0:0:0:0:
231,130,91815,1,8,0:0:0:0:
231,130,92057,1,0,0:0:0:0:
231,130,92299,1,0,0:0:0:0:
227,121,92420,1,0,0:0:0:0:
231,130,92541,1,8,0:0:0:0:
227,121,92662,1,0,0:0:0:0:
227,121,92783,1,8,0:0:0:0:
227,121,93025,1,4,0:0:0:0:
231,130,93267,1,8,0:0:0:0:
231,130,93751,1,8,0:0:0:0:
227,121,93992,1,0,0:0:0:0:
240,120,94234,1,0,0:0:0:0:
240,120,94355,1,0,0:0:0:0:
236,120,94476,1,8,0:0:0:0:
231,130,94718,1,0,0:0:0:0:
231,130,94960,1,8,0:0:0:0:
231,130,95081,1,8,0:0:0:0:
231,130,95202,1,0,0:0:0:0:
231,130,95323,1,8,0:0:0:0:
227,121,95444,1,8,0:0:0:0:
227,121,95686,1,8,0:0:0:0:
231,130,96170,1,0,0:0:0:0:
231,130,96412,1,8,0:0:0:0:
227,121,96654,1,0,0:0:0:0:
227,121,96896,1,0,0:0:0:0:
227,121,97017,1,8,0:0:0:0:
227,121,97138,1,0,0:0:0:0:
236,120,97259,1,8,0:0:0:0:
227,121,97380,1,0,0:0:0:0:
227,121,97621,1,8,0:0:0:0:
227,121,98105,1,0,0:0:0:0:
227,121,98347,1,8,0:0:0:0:
227,121,98831,1,8,0:0:0:0:
227,121,98952,1,8,0:0:0:0:
227,121,99073,1,0,0:0:0:0:
236,120,99194,1,0,0:0:0:0:
236,120,99315,1,8,0:0:0:0:
227,121,99557,1,8,0:0:0:0:
227,121,100041,1,0,0:0:0:0:
227,121,100283,1,8,0:0:0:0:
227,121,100525,1,8,0:0:0:0:
224,192,100767,1,8,0:0:0:0:
224,192,100888,1,0,0:0:0:0:
224,192,101009,1,0,0:0:0:0:
226,145,101130,1,0,0:0:0:0:
227,126,101251,1,8,0:0:0:0:
224,192,101492,1,8,0:0:0:0:
224,192,101613,1,8,0:0:0:0:
224,192,101734,1,0,0:0:0:0:
224,192,101855,1,0,0:0:0:0:
224,192,101976,1,8,0:0:0:0:
263,275,102218,1,8,0:0:0:0:
223,191,102460,1,0,0:0:0:0:
264,273,102702,1,0,0:0:0:0:
224,224,102823,1,8,0:0:0:0:
224,224,102944,1,0,0:0:0:0:
224,224,103065,1,0,0:0:0:0:
224,224,103186,1,8,0:0:0:0:
224,224,103428,1,8,0:0:0:0:
224,224,103912,1,0,0:0:0:0:
224,224,104033,1,0,0:0:0:0:
224,224,104154,1,8,0:0:0:0:
224,224,104396,1,0,0:0:0:0:
224,224,104517,1,0,0:0:0:0:
224,224,104638,1,8,0:0:0:0:
224,224,104759,1,0,0:0:0:0:
224,224,104880,1,8,0:0:0:0:
224,224,105001,1,0,0:0:0:0:
224,224,105121,1,0,0:0:0:0:
224,224,105363,1,8,0:0:0:0:
224,224,105847,1,0,0:0:0:0:
228,316,106089,1,8,0:0:0:0:
216,132,106573,1,8,0:0:0:0:
216,132,106694,1,8,0:0:0:0:
216,132,106815,1,0,0:0:0:0:
216,132,106936,1,0,0:0:0:0:
216,132,107057,1,8,0:0:0:0:
216,132,107299,1,8,0:0:0:0:
216,132,107541,1,0,0:0:0:0:
216,132,107783,1,0,0:0:0:0:
216,132,107904,1,0,0:0:0:0:
216,132,108025,1,8,0:0:0:0:
216,132,108146,1,0,0:0:0:0:
216,132,108267,1,8,0:0:0:0:
216,132,108509,1,4,0:0:0:0:
216,132,108751,1,0,0:0:0:0:
216,132,108871,1,0,0:0:0:0:
216,132,108992,1,8,0:0:0:0:
216,132,109113,1,8,0:0:0:0:
216,132,109234,1,0,0:0:0:0:
216,132,109476,1,8,0:0:0:0:
216,132,109718,1,0,0:0:0:0:
216,132,109960,1,8,0:0:0:0:
216,132,110444,1,8,0:0:0:0:
216,132,110565,1,8,0:0:0:0:
216,132,110686,1,0,0:0:0:0:
216,132,110807,1,0,0:0:0:0:
216,132,110928,1,8,0:0:0:0:
216,132,111170,1,8,0:0:0:0:
216,132,111412,1,0,0:0:0:0:
224,136,111654,1,0,0:0:0:0:
224,136,111896,1,8,0:0:0:0:
224,136,112017,1,8,0:0:0:0:
224,136,112138,1,0,0:0:0:0:
224,136,112380,1,0,0:0:0:0:
224,136,112501,1,0,0:0:0:0:
224,144,112621,1,8,0:0:0:0:
224,144,112742,1,8,0:0:0:0:
224,144,112863,1,0,0:0:0:0:
223,144,113105,1,8,0:0:0:0:
224,144,113589,1,0,0:0:0:0:
224,144,113831,1,8,0:0:0:0:
224,144,114073,1,0,0:0:0:0:
224,144,114315,1,8,0:0:0:0:
216,136,114436,1,0,0:0:0:0:
223,144,114557,1,8,0:0:0:0:
216,136,114678,1,0,0:0:0:0:
216,136,114799,1,0,0:0:0:0:
216,136,115041,1,8,0:0:0:0:
216,136,115525,1,0,0:0:0:0:
216,136,115767,1,8,0:0:0:0:
216,136,116009,1,8,0:0:0:0:
210,130,116251,1,8,0:0:0:0:
224,136,116371,1,0,0:0:0:0:
213,130,116492,1,8,0:0:0:0:
224,136,116613,1,0,0:0:0:0:
224,136,116734,1,0,0:0:0:0:
224,135,116976,1,8,0:0:0:0:
224,152,117218,1,0,0:0:0:0:
224,136,117460,1,8,0:0:0:0:
224,136,117702,1,8,0:0:0:0:
224,136,117944,1,0,0:0:0:0:
224,136,118186,1,8,0:0:0:0:
216,160,118307,1,8,0:0:0:0:
214,167,118428,1,0,0:0:0:0:
216,168,118549,1,0,0:0:0:0:
194,266,118670,1,8,0:0:0:0:
194,266,118912,1,8,0:0:0:0:
194,266,119396,1,0,0:0:0:0:
194,266,119638,1,8,0:0:0:0:
194,266,119880,1,8,0:0:0:0:
194,266,120121,1,0,0:0:0:0:
194,266,120242,1,8,0:0:0:0:
194,266,120363,1,8,0:0:0:0:
194,266,120484,1,0,0:0:0:0:
194,266,120605,1,8,0:0:0:0:
200,272,120847,1,8,0:0:0:0:
197,271,121089,1,0,0:0:0:0:
197,271,121210,1,0,0:0:0:0:
197,271,121331,1,8,0:0:0:0:
196,279,121452,1,0,0:0:0:0:
199,272,121573,1,8,0:0:0:0:
199,274,122057,1,8,0:0:0:0:
199,274,122178,1,0,0:0:0:0:
200,272,122299,1,8,0:0:0:0:
200,272,122420,1,8,0:0:0:0:
200,272,122541,1,0,0:0:0:0:
200,272,122662,1,0,0:0:0:0:
200,272,122783,1,8,0:0:0:0:
199,272,123025,1,0,0:0:0:0:
199,274,123267,1,8,0:0:0:0:
199,274,123388,1,0,0:0:0:0:
199,274,123509,1,8,0:0:0:0:
199,274,123751,1,0,0:0:0:0:
208,275,123992,1,4,0:0:0:0:
