osu file format v14

[General]
AudioFilename: Feint - Sky Dance.mp3
AudioLeadIn: 0
PreviewTime: 92541
Countdown: 0
SampleSet: Normal
StackLeniency: 0.7
Mode: 1
LetterboxInBreaks: 0
WidescreenStoryboard: 0

[Editor]
DistanceSpacing: 1.1
BeatDivisor: 4
GridSize: 16
TimelineZoom: 0.8999999

[Metadata]
Title:Sky Dance
TitleUnicode:Sky Dance
Artist:Feint
ArtistUnicode:Feint
Creator:Aldwych
Version:Muzukashii
Source:
Tags:shoegaze Sandwych Kin
BeatmapID:543244
BeatmapSetID:234125

[Difficulty]
HPDrainRate:5
CircleSize:5
OverallDifficulty:4
ApproachRate:10
SliderMultiplier:1.4
SliderTickRate:1

[Events]
//Background and Video events
0,0,"skyDance.png",0,0
//Break Periods
//Storyboard Layer 0 (Background)
//Storyboard Layer 1 (Fail)
//Storyboard Layer 2 (Pass)
//Storyboard Layer 3 (Foreground)
//Storyboard Sound Samples

[TimingPoints]
122,483.870967741935,4,1,0,50,1,0
61331,-100,4,1,0,60,0,0
62057,-83.3333333333333,4,1,0,70,0,1
123992,-83.3333333333333,4,1,0,50,0,0

[HitObjects]
256,192,15605,5,0,0:0:0:0:
256,192,16331,1,8,0:0:0:0:
256,192,16573,1,0,0:0:0:0:
256,192,16815,1,0,0:0:0:0:
256,192,17057,1,8,0:0:0:0:
256,192,17541,1,0,0:0:0:0:
256,192,18267,1,8,0:0:0:0:
256,192,18509,1,0,0:0:0:0:
256,192,18751,1,0,0:0:0:0:
256,192,18992,1,8,0:0:0:0:
256,192,19476,1,0,0:0:0:0:
256,192,19960,1,0,0:0:0:0:
256,192,20202,1,8,0:0:0:0:
256,192,20686,1,0,0:0:0:0:
256,192,20928,1,8,0:0:0:0:
256,192,21412,1,0,0:0:0:0:
256,192,22138,1,8,0:0:0:0:
256,192,22863,1,8,0:0:0:0:
256,192,23105,1,8,0:0:0:0:
256,192,23347,1,0,0:0:0:0:
256,192,24073,1,8,0:0:0:0:
256,192,24315,1,0,0:0:0:0:
256,192,24557,1,0,0:0:0:0:
256,192,24799,1,8,0:0:0:0:
256,192,25283,1,0,0:0:0:0:
256,192,26009,1,8,0:0:0:0:
256,192,26251,1,0,0:0:0:0:
256,192,26734,1,8,0:0:0:0:
256,192,27218,1,0,0:0:0:0:
256,192,27944,1,8,0:0:0:0:
256,192,28186,1,0,0:0:0:0:
256,192,28428,1,0,0:0:0:0:
256,192,28670,1,8,0:0:0:0:
256,192,29154,1,0,0:0:0:0:
256,192,29638,1,0,0:0:0:0:
256,192,29880,1,8,0:0:0:0:
256,192,30363,1,0,0:0:0:0:
256,192,30605,1,8,0:0:0:0:
256,192,30847,1,8,0:0:0:0:
256,192,31089,1,0,0:0:0:0:
256,192,31573,1,0,0:0:0:0:
256,192,31815,1,8,0:0:0:0:
256,192,32299,1,0,0:0:0:0:
256,192,32541,1,8,0:0:0:0:
256,192,32783,1,0,0:0:0:0:
256,192,32904,1,0,0:0:0:0:
256,192,33025,1,0,0:0:0:0:
256,192,33751,1,8,0:0:0:0:
256,192,34234,1,0,0:0:0:0:
256,192,34476,1,8,0:0:0:0:
256,192,34718,1,0,0:0:0:0:
256,192,34960,1,0,0:0:0:0:
256,192,35686,1,8,0:0:0:0:
256,192,36170,1,0,0:0:0:0:
256,192,36412,1,8,0:0:0:0:
256,192,36654,1,0,0:0:0:0:
256,192,36775,1,0,0:0:0:0:
256,192,36896,1,0,0:0:0:0:
256,192,37621,1,8,0:0:0:0:
256,192,37863,1,0,0:0:0:0:
256,192,38105,1,0,0:0:0:0:
256,192,38347,1,8,0:0:0:0:
256,192,38468,1,8,0:0:0:0:
256,192,38589,1,8,0:0:0:0:
256,192,38831,1,0,0:0:0:0:
256,192,39315,1,0,0:0:0:0:
256,192,39557,1,8,0:0:0:0:
256,192,40041,1,0,0:0:0:0:
256,192,40283,1,8,0:0:0:0:
256,192,40525,1,0,0:0:0:0:
256,192,40646,1,0,0:0:0:0:
256,192,40767,1,0,0:0:0:0:
256,192,41492,1,8,0:0:0:0:
256,192,41733,1,0,0:0:0:0:
256,192,41975,1,0,0:0:0:0:
256,192,42217,1,8,0:0:0:0:
256,192,42460,1,0,0:0:0:0:
256,192,42702,1,0,0:0:0:0:
256,192,43186,1,0,0:0:0:0:
256,192,43428,1,8,0:0:0:0:
256,192,43912,1,0,0:0:0:0:
256,192,44154,1,8,0:0:0:0:
256,192,44396,1,0,0:0:0:0:
256,192,44517,1,0,0:0:0:0:
256,192,44638,1,0,0:0:0:0:
256,192,45121,1,0,0:0:0:0:
256,192,45363,1,8,0:0:0:0:
256,192,45847,1,0,0:0:0:0:
256,192,46089,1,8,0:0:0:0:
256,192,46331,1,8,0:0:0:0:
256,192,46573,1,4,0:0:0:0:
256,192,47299,1,8,0:0:0:0:
256,192,47541,1,0,0:0:0:0:
256,192,48025,1,0,0:0:0:0:
256,192,48509,1,0,0:0:0:0:
256,192,48871,1,8,0:0:0:0:
256,192,49234,1,0,0:0:0:0:
256,192,49476,1,8,0:0:0:0:
256,192,49960,1,8,0:0:0:0:
256,192,50202,1,0,0:0:0:0:
256,192,50444,1,0,0:0:0:0:
256,192,50807,1,8,0:0:0:0:
256,192,51170,1,0,0:0:0:0:
256,192,51412,1,8,0:0:0:0:
256,192,52380,1,0,0:0:0:0:
256,192,52742,1,8,0:0:0:0:
256,192,53105,1,0,0:0:0:0:
256,192,53347,1,8,0:0:0:0:
256,192,53831,1,8,0:0:0:0:
256,192,54315,1,8,0:0:0:0:
256,192,54557,1,8,0:0:0:0:
256,192,55041,1,8,0:0:0:0:
256,192,55283,1,0,0:0:0:0:
256,192,55767,1,0,0:0:0:0:
256,192,56251,1,0,0:0:0:0:
256,192,56613,1,8,0:0:0:0:
256,192,56976,1,0,0:0:0:0:
256,192,57218,1,8,0:0:0:0:
256,192,57702,1,8,0:0:0:0:
256,192,58186,1,4,0:0:0:0:
256,192,61331,1,8,0:0:0:0:
256,192,61573,1,0,0:0:0:0:
256,192,62057,1,4,0:0:0:0:
256,192,62299,1,0,0:0:0:0:
256,192,62420,1,0,0:0:0:0:
256,192,62541,1,0,0:0:0:0:
256,192,62783,1,8,0:0:0:0:
256,192,63267,1,8,0:0:0:0:
256,192,63509,1,8,0:0:0:0:
256,192,63992,1,0,0:0:0:0:
256,192,64234,1,0,0:0:0:0:
256,192,64355,1,0,0:0:0:0:
256,192,64476,1,0,0:0:0:0:
256,192,64718,1,8,0:0:0:0:
256,192,65202,1,0,0:0:0:0:
256,192,65444,1,8,0:0:0:0:
256,192,65928,1,0,0:0:0:0:
256,192,66170,1,0,0:0:0:0:
256,192,66291,1,0,0:0:0:0:
256,192,66412,1,0,0:0:0:0:
256,192,66654,1,8,0:0:0:0:
256,184,67138,1,0,0:0:0:0:
256,184,67380,1,8,0:0:0:0:
256,192,67863,1,8,0:0:0:0:
256,192,68105,1,0,0:0:0:0:
256,192,68347,1,0,0:0:0:0:
256,192,68589,1,8,0:0:0:0:
256,192,69073,1,0,0:0:0:0:
256,192,69315,1,8,0:0:0:0:
256,192,69436,1,8,0:0:0:0:
256,192,69557,1,8,0:0:0:0:
256,192,69799,1,0,0:0:0:0:
256,192,70041,1,0,0:0:0:0:
256,192,70162,1,0,0:0:0:0:
256,192,70283,1,0,0:0:0:0:
256,192,70525,1,8,0:0:0:0:
256,192,71009,1,8,0:0:0:0:
256,192,71251,1,8,0:0:0:0:
256,192,71734,1,0,0:0:0:0:
256,192,71976,1,0,0:0:0:0:
256,192,72097,1,0,0:0:0:0:
256,192,72218,1,0,0:0:0:0:
256,192,72460,1,8,0:0:0:0:
256,192,72944,1,0,0:0:0:0:
256,192,73186,1,8,0:0:0:0:
256,192,73670,1,0,0:0:0:0:
256,192,73912,1,0,0:0:0:0:
256,192,74033,1,0,0:0:0:0:
256,192,74154,1,0,0:0:0:0:
256,192,74396,1,8,0:0:0:0:
256,176,74880,1,0,0:0:0:0:
240,192,75121,1,8,0:0:0:0:
256,192,75605,1,0,0:0:0:0:
256,192,76815,1,0,0:0:0:0:
256,192,77057,1,8,0:0:0:0:
256,192,77178,1,8,0:0:0:0:
256,192,77299,1,8,0:0:0:0:
256,192,77541,1,4,0:0:0:0:
256,192,77783,1,0,0:0:0:0:
256,192,77904,1,0,0:0:0:0:
256,192,78025,1,0,0:0:0:0:
256,192,78267,1,8,0:0:0:0:
256,192,78751,1,8,0:0:0:0:
256,192,78993,1,8,0:0:0:0:
256,192,79476,1,0,0:0:0:0:
256,192,79718,1,0,0:0:0:0:
256,192,79839,1,0,0:0:0:0:
256,192,79960,1,0,0:0:0:0:
256,192,80202,1,8,0:0:0:0:
256,192,80686,1,0,0:0:0:0:
256,192,80928,1,8,0:0:0:0:
256,192,81412,1,0,0:0:0:0:
256,192,81654,1,0,0:0:0:0:
256,192,81775,1,0,0:0:0:0:
256,192,81896,1,0,0:0:0:0:
256,192,82138,1,8,0:0:0:0:
256,192,82621,1,0,0:0:0:0:
256,192,82863,1,8,0:0:0:0:
256,192,83347,1,8,0:0:0:0:
256,192,83589,1,0,0:0:0:0:
256,192,83831,1,0,0:0:0:0:
256,192,84073,1,8,0:0:0:0:
256,192,84557,1,0,0:0:0:0:
256,192,84799,1,8,0:0:0:0:
256,192,84920,1,8,0:0:0:0:
256,192,85041,1,8,0:0:0:0:
256,192,85283,1,0,0:0:0:0:
256,192,85525,1,0,0:0:0:0:
256,192,85646,1,0,0:0:0:0:
256,192,85767,1,0,0:0:0:0:
256,192,86009,1,8,0:0:0:0:
256,192,86493,1,8,0:0:0:0:
256,192,86735,1,8,0:0:0:0:
256,192,87218,1,0,0:0:0:0:
256,192,87460,1,0,0:0:0:0:
256,192,87581,1,0,0:0:0:0:
256,192,87702,1,0,0:0:0:0:
256,192,87944,1,8,0:0:0:0:
256,192,88428,1,0,0:0:0:0:
256,192,88670,1,8,0:0:0:0:
256,192,89154,1,0,0:0:0:0:
256,192,89396,1,0,0:0:0:0:
256,192,89517,1,0,0:0:0:0:
256,192,89638,1,0,0:0:0:0:
256,192,89880,1,8,0:0:0:0:
256,192,90364,1,0,0:0:0:0:
256,192,90606,1,8,0:0:0:0:
256,192,91089,1,8,0:0:0:0:
256,192,92541,1,8,0:0:0:0:
256,192,93025,1,4,0:0:0:0:
256,192,93751,1,8,0:0:0:0:
256,192,93992,1,0,0:0:0:0:
256,192,94476,1,8,0:0:0:0:
256,192,94960,1,0,0:0:0:0:
256,192,95202,1,0,0:0:0:0:
256,192,95323,1,0,0:0:0:0:
256,192,95444,1,0,0:0:0:0:
256,192,95686,1,8,0:0:0:0:
256,192,96170,1,0,0:0:0:0:
256,192,96412,1,8,0:0:0:0:
256,192,96654,1,0,0:0:0:0:
256,192,96896,1,0,0:0:0:0:
256,192,97138,1,0,0:0:0:0:
256,192,97259,1,0,0:0:0:0:
256,192,97380,1,0,0:0:0:0:
256,192,97621,1,8,0:0:0:0:
256,192,98105,1,0,0:0:0:0:
256,192,98347,1,8,0:0:0:0:
256,192,98831,1,0,0:0:0:0:
256,192,99073,1,0,0:0:0:0:
256,192,99194,1,0,0:0:0:0:
256,192,99315,1,0,0:0:0:0:
256,192,99557,1,8,0:0:0:0:
256,192,100041,1,0,0:0:0:0:
256,192,100283,1,8,0:0:0:0:
256,192,100525,1,8,0:0:0:0:
256,192,100767,1,4,0:0:0:0:
256,192,101009,1,8,0:0:0:0:
256,192,101492,1,8,0:0:0:0:
256,192,101734,1,0,0:0:0:0:
256,192,101976,1,0,0:0:0:0:
256,192,102218,1,8,0:0:0:0:
256,192,102702,1,0,0:0:0:0:
256,192,102944,1,0,0:0:0:0:
256,192,103065,1,0,0:0:0:0:
256,192,103186,1,0,0:0:0:0:
256,192,103428,1,8,0:0:0:0:
256,192,103912,1,0,0:0:0:0:
256,192,104154,1,8,0:0:0:0:
256,192,104396,1,0,0:0:0:0:
256,192,104638,1,8,0:0:0:0:
256,192,104880,1,0,0:0:0:0:
256,192,105001,1,0,0:0:0:0:
256,192,105121,1,0,0:0:0:0:
256,192,105363,1,8,0:0:0:0:
256,192,105847,1,0,0:0:0:0:
256,192,106089,1,8,0:0:0:0:
256,192,106573,1,0,0:0:0:0:
256,192,107299,1,8,0:0:0:0:
256,192,108025,1,8,0:0:0:0:
256,192,108267,1,8,0:0:0:0:
256,192,108509,1,4,0:0:0:0:
256,192,108992,1,8,0:0:0:0:
256,192,109234,1,8,0:0:0:0:
256,192,109718,1,0,0:0:0:0:
256,192,109960,1,8,0:0:0:0:
256,192,110444,1,0,0:0:0:0:
256,192,110565,1,0,0:0:0:0:
256,192,110686,1,0,0:0:0:0:
256,192,110928,1,0,0:0:0:0:
256,192,111170,1,8,0:0:0:0:
256,192,111654,1,0,0:0:0:0:
256,192,111896,1,8,0:0:0:0:
256,192,112380,1,0,0:0:0:0:
256,192,112501,1,0,0:0:0:0:
256,192,112621,1,0,0:0:0:0:
256,192,112863,1,0,0:0:0:0:
256,192,113105,1,8,0:0:0:0:
256,192,113589,1,0,0:0:0:0:
256,192,113831,1,8,0:0:0:0:
256,192,114315,1,8,0:0:0:0:
256,192,114436,1,8,0:0:0:0:
256,192,114557,1,8,0:0:0:0:
256,192,114799,1,8,0:0:0:0:
256,192,115041,1,0,0:0:0:0:
256,192,115525,1,0,0:0:0:0:
256,192,115767,1,8,0:0:0:0:
256,192,116009,1,8,0:0:0:0:
256,192,116251,1,0,0:0:0:0:
256,192,116371,1,0,0:0:0:0:
256,192,116492,1,0,0:0:0:0:
256,192,116734,1,0,0:0:0:0:
256,192,116976,1,8,0:0:0:0:
256,192,117460,1,0,0:0:0:0:
256,192,117702,1,8,0:0:0:0:
256,192,117944,1,8,0:0:0:0:
256,192,118186,1,0,0:0:0:0:
256,192,118307,1,0,0:0:0:0:
256,192,118428,1,0,0:0:0:0:
256,192,118670,1,0,0:0:0:0:
256,192,118912,1,8,0:0:0:0:
256,192,119396,1,0,0:0:0:0:
256,192,119638,1,8,0:0:0:0:
256,192,119880,1,0,0:0:0:0:
256,192,120001,1,0,0:0:0:0:
256,192,120121,1,0,0:0:0:0:
256,192,120363,1,0,0:0:0:0:
256,192,120605,1,0,0:0:0:0:
256,192,120847,1,8,0:0:0:0:
256,192,121331,1,8,0:0:0:0:
256,192,121573,1,8,0:0:0:0:
256,192,122057,1,0,0:0:0:0:
256,192,122178,1,0,0:0:0:0:
256,192,122299,1,0,0:0:0:0:
256,192,122541,1,0,0:0:0:0:
256,192,122783,1,8,0:0:0:0:
256,192,123267,1,8,0:0:0:0:
256,192,123388,1,8,0:0:0:0:
256,192,123509,1,8,0:0:0:0:
256,192,123751,1,0,0:0:0:0:
256,192,123992,1,4,0:0:0:0:
