osu file format v13

[General]
AudioFilename: Feint - Promises.mp3
AudioLeadIn: 0
PreviewTime: 66291
Countdown: 0
SampleSet: Normal
StackLeniency: 0.7
Mode: 0
LetterboxInBreaks: 1
WidescreenStoryboard: 1

[Editor]
Bookmarks: 40085,44226,55257,60774,63533,66291,88360,99395,110429,121464,126981,129740,132498,154567,165602,175257,176636,197326,198705,220774
DistanceSpacing: 1
BeatDivisor: 2
GridSize: 4
TimelineZoom: 1.4

[Metadata]
Title:Promises
TitleUnicode:Promises
Artist:Feint
ArtistUnicode:Feint
Creator:-Famous-
Version:Normal
Source:
Tags:dnb drum and bass
BeatmapID:427893
BeatmapSetID:177816

[Difficulty]
HPDrainRate:3
CircleSize:3
OverallDifficulty:3
ApproachRate:4
SliderMultiplier:1
SliderTickRate:2

[Events]
//Background and Video events
0,0,"bg.jpg",0,0
//Break Periods
2,110629,118420
2,176836,186351
//Storyboard Layer 0 (Background)
//Storyboard Layer 1 (Fail)
//Storyboard Layer 2 (Pass)
//Storyboard Layer 3 (Foreground)
//Storyboard Sound Samples
//Background Colour Transformations
3,100,163,162,255

[TimingPoints]
85,344.827586206897,4,2,0,55,1,0
44222,-125,4,2,0,55,0,0
55257,-111.111111111111,4,2,0,55,0,0
63533,-100,4,1,0,45,0,0
66291,-100,4,1,1,55,0,1
86981,-100,4,1,1,55,0,0
121464,-100,4,2,0,55,0,0
129740,-100,4,1,0,45,0,0
132498,-100,4,1,1,55,0,1
153188,-100,4,1,1,55,0,0
176636,-100,4,1,1,45,0,0
198705,-100,4,1,0,45,0,0

[Colours]
Combo1 : 255,223,191
Combo2 : 255,83,0
Combo3 : 44,211,254
Combo4 : 42,42,42

[HitObjects]
256,192,40085,12,0,44222,0:0:0:0:
144,240,44567,6,0,L|84:240,1,40
76,164,45085,2,0,L|136:164,1,40,0|0,0:0|0:0,0:0:0:0:
148,92,45602,2,0,L|208:92,1,40,0|0,0:0|0:0,0:0:0:0:
268,108,46119,2,0,L|328:108,1,40
376,148,46636,1,0,0:0:0:0:
412,220,46981,6,0,P|400:280|164:280,1,320
144,244,48705,1,0,0:0:0:0:
172,168,49050,1,0,0:0:0:0:
120,104,49395,1,0,0:0:0:0:
164,36,49740,1,0,0:0:0:0:
244,28,50085,6,0,L|312:48,1,40
292,120,50602,2,0,L|336:136,1,40
384,192,51119,2,0,L|392:252,1,40
316,264,51636,2,0,L|310:224,1,40
248,176,52153,1,0,0:0:0:0:
168,172,52498,6,0,P|136:136|284:112,1,320
252,176,54222,1,0,0:0:0:0:
252,256,54567,1,0,0:0:0:0:
176,284,54912,1,0,0:0:0:0:
96,240,55257,2,0,P|112:196|92:148,1,89.9999972534181
136,76,55947,2,0,P|180:92|228:72,1,89.9999972534181
300,36,56636,2,0,P|346:20|391:39,1,89.9999972534181
344,112,57326,2,0,L|336:224,2,89.9999972534181
256,136,58360,5,0,0:0:0:0:
200,208,58705,1,0,0:0:0:0:
112,224,59050,1,0,0:0:0:0:
36,176,59395,1,0,0:0:0:0:
56,88,59740,2,0,P|108:64|176:76,2,89.9999972534181,0|0|0,0:0|0:0|0:0,0:0:0:0:
36,176,60774,6,0,L|48:252,3,44.999998626709
68,256,61464,2,0,L|144:300,3,44.999998626709
152,284,62153,2,0,L|204:232,3,44.999998626709
224,236,62843,2,0,L|292:248,3,44.999998626709
256,192,63533,12,0,64912,0:0:0:0:
172,216,66291,6,0,P|192:168|260:160,1,100,4|8,0:0|0:0,0:0:0:0:
280,176,66809,2,0,P|320:132|296:44,1,150,4|8,0:0|0:0,0:0:0:0:
204,20,67671,1,4,0:0:0:0:
108,52,68016,1,8,0:0:0:0:
40,124,68360,2,0,P|32:184|56:240,1,100,4|8,0:0|0:0,0:0:0:0:
108,296,69050,2,0,B|140:332|220:336,1,100,4|8,0:0|0:0,0:0:0:0:
248,344,69567,2,0,P|336:324|368:244,1,150,4|8,0:0|0:0,0:0:0:0:
376,176,70429,6,0,P|360:116|312:88,1,100,4|8,0:0|0:0,0:0:0:0:
232,88,71119,2,0,P|248:148|296:176,1,100,4|8,0:0|0:0,0:0:0:0:
296,256,71809,2,0,P|240:264|204:336,1,100,4|8,0:0|0:0,0:0:0:0:
184,344,72326,2,0,B|144:308|160:264|160:264|184:192|128:144,1,200,4|8,0:0|0:0,0:0:0:0:
80,100,73188,2,0,P|40:152|64:200,1,100,4|8,0:0|0:0,0:0:0:0:
144,232,73878,1,4,0:0:0:0:
224,200,74222,1,8,0:0:0:0:
256,112,74567,6,0,L|376:176,1,100,4|8,0:0|0:0,0:0:0:0:
412,136,75085,2,0,L|228:40,1,200,4|8,0:0|0:0,0:0:0:0:
136,52,75947,2,0,B|80:80|80:80|56:140,2,100,4|8|4,0:0|0:0|0:0,0:0:0:0:
220,80,76981,1,8,0:0:0:0:
248,164,77326,1,4,0:0:0:0:
204,240,77671,2,0,L|156:300,1,50,8|0,0:0|0:0,0:0:0:0:
36,196,78360,6,0,B|68:140|68:140|128:96,1,100,8|4,0:0|0:0,0:0:0:0:
192,64,79050,1,8,0:0:0:0:
272,112,79395,2,0,B|316:144|316:144|348:200,1,100,4|8,0:0|0:0,0:0:0:0:
268,268,80085,2,0,B|200:308|200:308|148:308,1,100,4|8,0:0|0:0,0:0:0:0:
112,304,80602,2,0,B|112:244|184:244|184:244|260:200,1,150,4|8,0:0|0:0,0:0:0:0:
312,136,81464,1,4,0:0:0:0:
232,72,81809,1,8,0:0:0:0:
152,132,82153,1,4,0:0:0:0:
232,188,82498,1,8,0:0:0:0:
172,264,82843,6,0,P|104:260|60:224,1,100,4|8,0:0|0:0,0:0:0:0:
80,192,83360,2,0,P|44:144|124:48,1,200,4|8,0:0|0:0,0:0:0:0:
160,136,84222,2,0,P|236:120|264:80,2,100,4|8|4,0:0|0:0|0:0,0:0:0:0:
76,196,85257,1,8,0:0:0:0:
92,288,85602,2,0,B|136:332|136:332|216:332,1,100,4|8,0:0|0:0,0:0:0:0:
240,332,86119,2,0,B|300:332|300:332|352:288|352:288|436:288,1,200,4|8,0:0|0:0,0:0:0:0:
256,192,86981,12,4,88360,0:0:0:0:
180,128,88705,6,0,P|156:152|144:188,1,50,8|4,0:0|0:0,0:0:0:0:
248,256,89222,1,8,0:0:0:0:
440,212,89740,2,0,B|416:132|332:120,1,150,4|8,0:0|0:0,0:0:0:0:
328,168,90257,2,0,P|276:108|312:56,1,150,0|8,0:0|0:0,0:0:0:0:
104,92,91119,5,4,0:0:0:0:
84,200,91464,1,8,0:0:0:0:
84,200,91636,1,4,0:0:0:0:
152,288,91981,2,0,P|228:304|352:288,1,200,8|4,0:0|0:0,0:0:0:0:
412,224,92843,1,8,0:0:0:0:
412,224,93015,1,4,0:0:0:0:
424,124,93360,1,8,0:0:0:0:
280,52,93878,6,0,B|244:60|244:60|208:152,1,100,4|8,0:0|0:0,0:0:0:0:
204,160,94395,1,4,0:0:0:0:
204,160,94740,1,8,0:0:0:0:
208,324,95257,2,0,B|244:316|244:316|280:224,1,100,4|8,0:0|0:0,0:0:0:0:
284,216,95774,1,4,0:0:0:0:
284,216,96119,1,8,0:0:0:0:
216,64,96636,5,8,0:0:0:0:
156,124,96981,2,0,L|196:180,1,50,8|4,0:0|0:0,0:0:0:0:
192,260,97498,2,0,B|128:332|128:332|88:308,1,100,8|4,0:0|0:0,0:0:0:0:
96,312,98016,1,8,0:0:0:0:
52,212,98360,2,0,L|64:140,1,50,4|8,0:0|0:0,0:0:0:0:
132,72,98878,2,0,L|172:124,3,50,4|8|4|8,0:0|0:0|0:0|0:0,0:0:0:0:
248,160,99740,5,8,0:0:0:0:
248,160,99912,1,12,0:0:0:0:
336,192,100257,2,0,P|328:120|224:72,1,150,8|4,0:0|0:0,0:0:0:0:
160,160,101119,2,0,P|164:192|184:220,1,50,8|4,0:0|0:0,0:0:0:0:
260,248,101636,2,0,P|224:296|108:232,1,200,8|4,0:0|0:0,0:0:0:0:
88,192,102498,5,8,0:0:0:0:
88,192,102671,1,4,0:0:0:0:
100,104,103016,2,0,B|160:112|172:176|172:176|180:240|236:244,1,200,8|4,0:0|0:0,0:0:0:0:
328,220,103878,2,0,P|308:184|256:160,1,100,8|4,0:0|0:0,0:0:0:0:
180,204,104395,1,8,0:0:0:0:
156,60,104912,5,4,0:0:0:0:
256,32,105257,1,8,0:0:0:0:
256,32,105429,1,4,0:0:0:0:
352,64,105774,2,0,P|380:136|344:260,1,200,8|4,0:0|0:0,0:0:0:0:
256,264,106636,1,8,0:0:0:0:
256,264,106809,1,4,0:0:0:0:
156,232,107153,1,8,0:0:0:0:
144,72,107671,6,0,L|264:72,1,100,4|8,0:0|0:0,0:0:0:0:
312,132,108188,2,0,L|192:132,1,100,4|8,0:0|0:0,0:0:0:0:
152,192,108705,2,0,L|272:192,1,100,4|8,0:0|0:0,0:0:0:0:
312,252,109222,2,0,L|192:252,1,100,4|8,0:0|0:0,0:0:0:0:
144,300,109740,2,0,L|72:300,2,50,4|8|4,0:0|0:0|0:0,0:0:0:0:
256,344,110429,1,8,0:0:0:0:
256,192,119740,12,0,121464,0:0:0:0:
352,184,121809,6,0,B|292:312,1,100
192,304,122498,2,0,B|242:195,2,100
96,308,123533,2,0,B|45:199,1,100
28,120,124222,1,0,0:0:0:0:
68,44,124567,2,0,B|88:16|88:16|152:32|184:88,1,150
200,132,125257,1,0,0:0:0:0:
236,208,125602,2,0,P|296:264|360:268,3,150
428,228,126981,6,0,L|452:160,3,50
440,120,127671,2,0,L|380:72,3,50
340,80,128360,2,0,L|280:124,3,50
240,120,129050,2,0,L|140:92,3,100
256,192,129740,12,0,131119,0:0:0:0:
328,88,132498,5,4,0:0:0:0:
384,192,132843,1,8,0:0:0:0:
384,192,133016,2,0,P|352:288|244:288,1,200,4|8,0:0|0:0,0:0:0:0:
176,284,133878,1,4,0:0:0:0:
112,204,134222,1,8,0:0:0:0:
116,112,134567,2,0,B|144:60|144:60|212:32,1,100,4|8,0:0|0:0,0:0:0:0:
296,120,135257,6,0,P|280:168|216:176,1,100,4|8,0:0|0:0,0:0:0:0:
240,128,135774,2,0,P|176:140|212:236,1,150,4|8,0:0|0:0,0:0:0:0:
304,272,136636,2,0,P|368:248|400:196,1,100,4|8,0:0|0:0,0:0:0:0:
392,108,137326,2,0,P|328:132|296:184,1,100,4|8,0:0|0:0,0:0:0:0:
232,256,138016,2,0,P|200:288|124:288,1,100,4|8,0:0|0:0,0:0:0:0:
92,268,138533,2,0,P|48:224|80:68,1,200,4|8,0:0|0:0,0:0:0:0:
112,64,139395,5,4,0:0:0:0:
196,80,139740,1,8,0:0:0:0:
256,144,140085,1,4,0:0:0:0:
340,168,140429,1,8,0:0:0:0:
416,128,140774,2,0,B|432:188|432:188|408:268,1,100,4|8,0:0|0:0,0:0:0:0:
384,272,141291,2,0,B|296:288|296:288|204:268,1,150,4|8,0:0|0:0,0:0:0:0:
164,184,142153,2,0,L|216:72,1,100,4|8,0:0|0:0,0:0:0:0:
297,75,142843,2,0,L|348:184,1,100,4|8,0:0|0:0,0:0:0:0:
332,280,143533,5,4,0:0:0:0:
256,332,143878,1,8,0:0:0:0:
256,332,144050,1,4,0:0:0:0:
180,280,144567,2,0,B|168:236|272:240|232:140,1,150,8|4,0:0|0:0,0:0:0:0:
228,88,145257,2,0,P|168:120|160:176,1,100,8|4,0:0|0:0,0:0:0:0:
160,168,145947,1,8,0:0:0:0:
96,256,146291,6,0,L|248:288,1,150,4|8,0:0|0:0,0:0:0:0:
256,280,146809,2,0,L|440:248,1,150,4|8,0:0|0:0,0:0:0:0:
328,176,147671,2,0,L|460:156,2,100,4|8|4,0:0|0:0|0:0,0:0:0:0:
328,176,148705,1,8,0:0:0:0:
228,160,149050,2,0,P|256:108|332:80,1,100,4|8,0:0|0:0,0:0:0:0:
292,32,149567,2,0,P|208:72|176:156,1,150,4|8,0:0|0:0,0:0:0:0:
200,232,150429,5,4,0:0:0:0:
272,284,150774,1,8,0:0:0:0:
360,264,151119,1,4,0:0:0:0:
404,188,151464,1,8,0:0:0:0:
380,104,151809,1,4,0:0:0:0:
304,64,152153,1,8,0:0:0:0:
304,64,152326,2,0,P|228:116|112:84,1,200,4|8,0:0|0:0,0:0:0:0:
256,192,153188,12,4,154567,0:0:0:0:
160,168,154912,6,0,B|172:208|172:208|200:244,1,50,8|4,0:0|0:0,0:0:0:0:
256,300,155429,2,0,L|256:104,1,150,8|4,0:0|0:0,0:0:0:0:
352,168,156291,2,0,B|340:208|340:208|312:244,1,50,8|4,0:0|0:0,0:0:0:0:
256,300,156809,2,0,B|120:268|120:268|80:204,1,200,8|4,0:0|0:0,0:0:0:0:
64,148,157671,1,8,0:0:0:0:
64,148,157843,1,4,0:0:0:0:
96,64,158188,1,8,0:0:0:0:
192,104,158705,6,0,P|180:164|152:224,1,100,4|8,0:0|0:0,0:0:0:0:
120,256,159222,2,0,P|174:232|233:221,1,100,4|8,0:0|0:0,0:0:0:0:
320,104,160085,2,0,P|332:164|360:224,1,100,4|8,0:0|0:0,0:0:0:0:
392,256,160602,2,0,P|338:232|279:221,1,100,4|8,0:0|0:0,0:0:0:0:
164,304,161464,5,4,0:0:0:0:
112,220,161809,2,4,P|108:188|116:152,1,50,8|4,0:0|0:0,0:0:0:0:
164,80,162326,1,4,0:0:0:0:
348,80,162843,1,4,0:0:0:0:
399,160,163188,2,4,P|404:190|368:280,1,100,8|4,0:0|0:0,0:0:0:0:
352,296,163705,1,4,0:0:0:0:
244,328,164050,6,0,L|168:316,1,50,4|8,0:0|0:0,0:0:0:0:
112,272,164567,2,0,L|96:196,1,50,4|8,0:0|0:0,0:0:0:0:
104,128,165085,2,0,L|160:40,3,100,4|8|4|8,0:0|0:0|0:0|0:0,0:0:0:0:
208,20,165947,1,8,0:0:0:0:
208,20,166119,2,0,P|232:92|204:176,1,150,4|8,0:0|0:0,0:0:0:0:
172,248,166981,1,4,0:0:0:0:
100,292,167326,1,8,0:0:0:0:
100,292,167498,2,0,P|140:328|240:300,1,150,4|8,0:0|0:0,0:0:0:0:
380,280,168360,6,0,P|356:224|372:168,1,100,4|8,0:0|0:0,0:0:0:0:
444,220,168878,2,0,P|456:160|436:104,1,100,4|8,0:0|0:0,0:0:0:0:
320,56,169740,1,4,0:0:0:0:
244,116,170085,1,8,0:0:0:0:
244,116,170257,1,4,0:0:0:0:
168,60,170602,2,0,L|116:120,3,50,8|4|8|4,0:0|0:0|0:0|0:0,0:0:0:0:
108,200,171464,6,0,L|108:280,1,50,8|4,0:0|0:0,0:0:0:0:
108,260,171981,1,8,0:0:0:0:
220,312,172498,2,0,B|264:268|264:268|328:268,1,100,4|8,0:0|0:0,0:0:0:0:
304,348,173016,2,0,B|361:348|361:348|405:304,1,100,4|8,0:0|0:0,0:0:0:0:
420,196,173878,6,0,B|388:140|388:140|412:76,1,100,4|8,0:0|0:0,0:0:0:0:
320,56,174395,2,0,B|264:76|264:76|172:44,1,150,4|8,0:0|0:0,0:0:0:0:
184,56,174912,1,4,0:0:0:0:
256,192,175257,12,0,176636,0:0:0:0:
204,256,187671,6,0,P|264:240|272:176,1,100,4|8,0:0|0:0,0:0:0:0:
240,184,188188,2,0,P|256:124|372:152,1,200,4|8,0:0|0:0,0:0:0:0:
412,192,189050,1,4,0:0:0:0:
428,280,189395,1,8,0:0:0:0:
368,348,189740,1,4,0:0:0:0:
272,328,190085,1,8,0:0:0:0:
216,252,190429,6,0,P|152:280|144:328,1,100,4|8,0:0|0:0,0:0:0:0:
156,364,190947,2,0,B|112:296|24:320|24:320|8:252,1,200,4|8,0:0|0:0,0:0:0:0:
0,200,191809,1,4,0:0:0:0:
12,112,192153,1,8,0:0:0:0:
72,48,192498,1,4,0:0:0:0:
160,32,192843,1,8,0:0:0:0:
244,68,193188,6,0,B|268:120|268:120|256:184,1,100,4|8,0:0|0:0,0:0:0:0:
224,192,193705,2,0,B|208:256|208:256|272:364,1,150,4|8,0:0|0:0,0:0:0:0:
356,372,194567,1,4,0:0:0:0:
440,344,194912,1,8,0:0:0:0:
468,260,195257,1,4,0:0:0:0:
448,168,195602,1,8,0:0:0:0:
396,92,195947,6,0,P|332:68|268:92,1,100,4|8,0:0|0:0,0:0:0:0:
240,116,196464,2,0,B|288:156|336:100|336:100|348:12,1,200,0|8,0:0|0:0,0:0:0:0:
256,192,197326,12,0,198705,0:0:0:0:
