osu file format v13

[General]
AudioFilename: Feint - Promises.mp3
AudioLeadIn: 0
PreviewTime: 66291
Countdown: 0
SampleSet: Normal
StackLeniency: 0.7
Mode: 0
LetterboxInBreaks: 1
WidescreenStoryboard: 0

[Editor]
Bookmarks: 40085,44226,55257,60774,63533,66291,88360,99395,110429,121464,126981,129740,132498,154567,165602,175257,176636,197326,198705,220774
DistanceSpacing: 1
BeatDivisor: 4
GridSize: 4
TimelineZoom: 1.4

[Metadata]
Title:Promises
TitleUnicode:Promises
Artist:Feint
ArtistUnicode:Feint
Creator:-Famous-
Version:Insane
Source:
Tags:dnb drum and bass
BeatmapID:427892
BeatmapSetID:177816

[Difficulty]
HPDrainRate:7
CircleSize:4
OverallDifficulty:7
ApproachRate:9
SliderMultiplier:1.8
SliderTickRate:1

[Events]
//Background and Video events
0,0,"bg.jpg",0,0
//Break Periods
2,110629,120864
//Storyboard Layer 0 (Background)
//Storyboard Layer 1 (Fail)
//Storyboard Layer 2 (Pass)
//Storyboard Layer 3 (Foreground)
//Storyboard Sound Samples
//Background Colour Transformations
3,100,163,162,255

[TimingPoints]
85,344.827586206897,4,2,0,55,1,0
55257,-133.333333333333,4,2,0,55,0,0
60774,-100,4,2,0,55,0,0
63533,-100,4,1,0,45,0,0
66291,-80,4,1,1,55,0,1
86981,-100,4,1,1,55,0,0
121464,-133.333333333333,4,2,0,55,0,0
126981,-100,4,2,0,55,0,0
129740,-100,4,1,0,45,0,0
132498,-80,4,1,1,55,0,1
153188,-100,4,1,1,55,0,0
176636,-100,4,1,1,45,0,0
198705,-100,4,1,0,45,0,0

[Colours]
Combo1 : 255,223,191
Combo2 : 255,83,0
Combo3 : 44,211,254
Combo4 : 42,42,42

[HitObjects]
256,192,40085,12,0,44222,0:0:0:0:
156,144,44395,5,0,0:0:0:0:
220,100,44567,2,0,P|264:92|320:116,1,90
344,168,44912,2,0,P|328:224|352:264,1,90
300,320,45257,1,0,0:0:0:0:
216,336,45429,1,0,0:0:0:0:
232,252,45602,1,0,0:0:0:0:
152,216,45774,1,0,0:0:0:0:
68,232,45947,6,0,P|76:172|52:124,1,90
152,128,46291,2,0,P|144:68|168:20,1,90
244,44,46636,2,0,P|252:104|228:152,1,90
264,216,46981,1,0,0:0:0:0:
276,248,47153,1,0,0:0:0:0:
308,236,47326,1,0,0:0:0:0:
296,204,47498,1,0,0:0:0:0:
192,176,47671,5,0,0:0:0:0:
256,324,47843,1,0,0:0:0:0:
392,264,48016,1,0,0:0:0:0:
328,128,48188,1,0,0:0:0:0:
208,60,48360,2,0,L|96:60,1,90
32,144,48705,2,0,L|144:144,2,90
192,228,49222,2,0,L|84:228,2,90
264,192,49740,5,0,0:0:0:0:
340,168,49912,2,0,P|340:216|300:264,1,90
264,192,50257,1,0,0:0:0:0:
205,139,50429,2,0,P|246:115|308:125,1,90
264,192,50774,1,0,0:0:0:0:
247,271,50947,2,0,P|205:247|183:188,2,90,0|0|0,0:0|0:0|0:0,0:0:0:0:
352,276,51464,2,0,L|444:276,2,90
308,204,51981,5,0,0:0:0:0:
352,136,52153,1,0,0:0:0:0:
312,64,52326,1,0,0:0:0:0:
240,32,52498,2,0,B|196:44|196:44|144:88,1,90
148,160,52843,2,0,B|192:148|192:148|244:104,2,90
84,208,53360,5,0,0:0:0:0:
72,284,53533,1,0,0:0:0:0:
128,336,53705,1,0,0:0:0:0:
192,288,53878,1,0,0:0:0:0:
264,316,54050,1,0,0:0:0:0:
336,292,54222,1,0,0:0:0:0:
404,328,54395,2,0,P|412:276|388:236,1,90
340,180,54740,2,0,P|316:124|332:76,2,90
236,212,55257,6,0,L|96:192,1,135.000005149842
52,96,55947,2,0,L|192:116,1,135.000005149842
252,244,56636,2,0,L|112:224,1,135.000005149842
92,132,57326,1,0,0:0:0:0:
168,144,57498,1,0,0:0:0:0:
240,160,57671,1,0,0:0:0:0:
308,176,57843,1,0,0:0:0:0:
352,236,58016,6,0,P|356:312|324:368,1,135.000005149842
248,328,58705,2,0,P|244:252|276:196,1,135.000005149842
380,248,59395,2,0,P|384:324|352:380,1,135.000005149842
212,348,60085,1,0,0:0:0:0:
184,284,60257,1,0,0:0:0:0:
180,216,60429,1,0,0:0:0:0:
204,152,60602,1,0,0:0:0:0:
252,96,60774,6,0,L|364:60,1,90
448,128,61119,2,0,L|336:164,1,90
272,196,61464,2,0,L|332:276,1,90
440,272,61809,2,0,L|380:192,1,90
332,128,62153,2,0,L|236:84,1,90
144,136,62498,2,0,L|240:180,1,90
264,244,62843,2,0,L|208:340,1,90
108,332,63188,2,0,L|164:236,1,90
160,168,63533,5,0,0:0:0:0:
140,136,63619,1,0,0:0:0:0:
136,100,63705,1,0,0:0:0:0:
152,72,63791,1,0,0:0:0:0:
184,56,63878,1,0,0:0:0:0:
216,64,63964,1,0,0:0:0:0:
248,80,64050,1,0,0:0:0:0:
280,72,64136,1,0,0:0:0:0:
304,48,64222,1,0,0:0:0:0:
336,44,64309,1,0,0:0:0:0:
368,56,64395,1,0,0:0:0:0:
388,84,64481,1,0,0:0:0:0:
392,116,64567,1,0,0:0:0:0:
376,144,64653,1,0,0:0:0:0:
388,176,64740,1,0,0:0:0:0:
408,200,64826,1,0,0:0:0:0:
400,232,64912,6,0,P|376:292|304:316,2,135
320,236,65602,1,0,0:0:0:0:
288,232,65688,1,0,0:0:0:0:
260,216,65774,1,0,0:0:0:0:
240,188,65860,1,0,0:0:0:0:
232,160,65947,1,0,0:0:0:0:
312,80,66119,5,0,0:0:0:0:
312,80,66291,1,0,0:0:0:0:
384,208,66464,1,0,0:0:0:0:
328,316,66636,1,8,0:0:0:0:
180,316,66809,2,0,P|140:276|124:196,1,112.5
328,316,67153,2,0,P|368:276|384:196,1,112.5,0|8,0:0|0:0,0:0:0:0:
380,116,67498,1,0,0:0:0:0:
256,48,67671,1,0,0:0:0:0:
132,116,67843,1,0,0:0:0:0:
128,240,68016,6,0,L|240:300,2,112.5,8|0|0,0:0|0:0|0:0,0:0:0:0:
128,240,68447,1,0,0:0:0:0:
128,240,68533,1,0,0:0:0:0:
384,240,68705,2,8,L|272:300,1,112.5
128,160,69050,1,0,0:0:0:0:
384,160,69222,1,0,0:0:0:0:
168,88,69395,1,8,0:0:0:0:
344,88,69567,1,0,0:0:0:0:
256,260,69740,1,0,0:0:0:0:
256,40,69912,1,0,0:0:0:0:
384,160,70085,1,8,0:0:0:0:
128,160,70257,6,0,P|100:208|128:284,1,112.5
325,338,70602,2,0,P|271:347|224:320,1,112.5,0|8,0:0|0:0,0:0:0:0:
384,224,70947,2,0,P|412:176|384:100,1,112.5
186,45,71291,2,0,P|240:36|288:64,1,112.5,0|8,0:0|0:0,0:0:0:0:
296,108,71550,1,0,0:0:0:0:
296,108,71636,1,8,0:0:0:0:
384,224,71809,6,0,P|320:276|160:316,1,225,0|8,0:0|0:0,0:0:0:0:
52,220,72326,2,0,P|116:168|276:128,1,225
388,128,72843,5,8,0:0:0:0:
252,128,73016,1,0,0:0:0:0:
256,24,73188,1,0,0:0:0:0:
256,132,73360,1,0,0:0:0:0:
124,128,73533,1,8,0:0:0:0:
260,128,73705,1,0,0:0:0:0:
256,232,73878,1,0,0:0:0:0:
256,232,73964,1,0,0:0:0:0:
256,232,74050,1,0,0:0:0:0:
124,232,74222,5,8,0:0:0:0:
388,232,74395,1,8,0:0:0:0:
388,232,74567,2,0,P|340:168|392:40,1,225,0|8,0:0|0:0,0:0:0:0:
124,232,75085,2,0,P|172:168|120:40,1,225,0|0,0:0|0:0,0:0:0:0:
44,144,75602,1,8,0:0:0:0:
48,280,75774,1,0,0:0:0:0:
172,328,75947,1,0,0:0:0:0:
172,328,76119,5,0,0:0:0:0:
128,192,76291,1,8,0:0:0:0:
172,56,76464,1,0,0:0:0:0:
340,56,76636,1,0,0:0:0:0:
340,56,76722,1,0,0:0:0:0:
340,56,76809,1,0,0:0:0:0:
384,192,76981,1,8,0:0:0:0:
340,328,77153,1,8,0:0:0:0:
256,356,77326,6,0,P|200:248|224:124,1,225,0|8,0:0|0:0,0:0:0:0:
300,148,77843,2,0,P|308:268|248:364,1,225
176,96,78360,1,8,0:0:0:0:
368,232,78533,1,0,0:0:0:0:
144,232,78705,1,0,0:0:0:0:
336,96,78878,1,0,0:0:0:0:
256,312,79050,1,8,0:0:0:0:
196,220,79222,5,0,0:0:0:0:
304,220,79395,1,0,0:0:0:0:
304,220,79481,1,0,0:0:0:0:
304,220,79567,1,0,0:0:0:0:
92,104,79740,2,8,L|232:104,1,112.5
420,104,80085,2,0,L|280:104,2,112.5,0|0|8,0:0|0:0|0:0,0:0:0:0:
368,196,80602,6,0,L|414:298,1,112.5
208,336,80947,2,0,L|219:224,1,112.5,0|8,0:0|0:0,0:0:0:0:
296,224,81291,2,0,L|308:336,1,112.5
97,298,81636,2,0,L|144:196,1,112.5,0|8,0:0|0:0,0:0:0:0:
256,128,81981,1,0,0:0:0:0:
136,56,82153,1,0,0:0:0:0:
376,56,82326,1,0,0:0:0:0:
256,128,82498,5,8,0:0:0:0:
256,128,82585,1,0,0:0:0:0:
256,128,82671,1,8,0:0:0:0:
392,188,82843,2,0,B|412:244|412:244|348:260|348:260|356:308|304:360,1,225,0|8,0:0|0:0,0:0:0:0:
120,188,83360,2,0,B|100:244|100:244|164:260|164:260|156:308|208:360,1,225
316,324,83878,2,0,L|404:236,1,112.5,8|0,0:0|0:0,0:0:0:0:
196,60,84222,2,0,L|108:148,1,112.5
388,132,84567,2,0,L|300:44,1,112.5,8|0,0:0|0:0,0:0:0:0:
124,252,84912,2,0,L|212:340,1,112.5
256,192,85257,5,8,0:0:0:0:
256,192,85343,1,0,0:0:0:0:
256,192,85429,1,8,0:0:0:0:
184,112,85602,1,0,0:0:0:0:
328,112,85774,1,0,0:0:0:0:
328,272,85947,1,8,0:0:0:0:
184,272,86119,1,0,0:0:0:0:
328,272,86291,1,0,0:0:0:0:
184,272,86464,6,0,B|128:248|128:248|96:180,1,112.5,0|8,0:0|0:0,0:0:0:0:
328,272,86809,2,0,B|384:248|384:248|416:180,1,112.5
336,76,87326,1,0,0:0:0:0:
304,56,87412,1,0,0:0:0:0:
256,48,87498,1,0,0:0:0:0:
208,56,87585,1,0,0:0:0:0:
176,76,87671,1,0,0:0:0:0:
184,168,87843,5,0,0:0:0:0:
208,248,88016,1,0,0:0:0:0:
304,248,88188,1,0,0:0:0:0:
340,168,88360,2,0,P|392:248|344:328,1,180,4|8,0:0|0:0,0:0:0:0:
268,344,88878,2,0,B|248:316|248:316|188:344|136:316|128:240,1,180,4|8,0:0|0:0,0:0:0:0:
140,172,89395,1,0,0:0:0:0:
232,112,89567,1,0,0:0:0:0:
348,144,89740,2,0,P|372:220|308:308,1,180
322,300,90257,1,4,0:0:0:0:
152,80,90602,5,8,0:0:0:0:
232,56,90774,1,4,0:0:0:0:
100,144,90947,1,8,0:0:0:0:
312,68,91119,2,0,P|400:80|428:180,1,180,4|8,0:0|0:0,0:0:0:0:
344,152,91636,2,0,P|368:220|488:224,1,180,4|8,0:0|0:0,0:0:0:0:
512,156,92153,1,0,0:0:0:0:
472,64,92326,1,0,0:0:0:0:
388,32,92498,6,0,P|344:24|288:36,1,90
264,120,92843,2,0,P|212:128|164:116,1,90,8|0,0:0|0:0,0:0:0:0:
144,36,93188,2,0,P|92:28|44:40,2,90,0|8|8,0:0|0:0|0:0,0:0:0:0:
264,120,93705,1,8,0:0:0:0:
168,216,93878,2,0,B|160:248|216:284|216:284|184:340|120:340,1,180,4|8,0:0|0:0,0:0:0:0:
344,216,94395,2,0,B|352:248|296:284|296:284|328:340|392:340,1,180,4|8,0:0|0:0,0:0:0:0:
440,284,94912,2,0,P|460:240|460:200,1,90
380,144,95257,6,0,B|344:136|308:92|308:92|344:48|412:36,1,180,4|8,0:0|0:0,0:0:0:0:
128,144,95774,2,0,B|164:136|200:92|200:92|164:48|96:36,1,180,4|8,0:0|0:0,0:0:0:0:
48,104,96291,2,0,B|36:148|36:148|56:208,1,90
4,268,96636,2,0,B|16:312|16:312|-4:372,1,90
96,368,96981,1,8,0:0:0:0:
180,320,97153,1,0,0:0:0:0:
276,336,97326,1,0,0:0:0:0:
352,280,97498,1,8,0:0:0:0:
404,352,97671,6,0,P|436:316|432:248,1,90
380,204,98016,2,0,P|424:184|496:196,2,90,8|0|0,0:0|0:0|0:0,0:0:0:0:
288,240,98533,1,0,0:0:0:0:
192,224,98705,2,0,B|152:196|152:196|120:128,1,90
168,52,99050,2,8,B|208:80|208:80|240:148,1,90
192,224,99395,6,8,P|168:288|88:368,1,180,4|0,0:0|0:0,0:0:0:0:
320,224,99912,2,8,P|344:288|424:368,1,180,4|0,0:0|0:0,0:0:0:0:
464,288,100429,1,0,0:0:0:0:
440,204,100602,1,0,0:0:0:0:
440,204,100774,2,0,P|404:136|432:40,1,180,4|8,0:0|0:0,0:0:0:0:
268,40,101291,2,0,P|288:120|256:212,1,180,4|8,0:0|0:0,0:0:0:0:
144,208,101809,6,0,P|136:156|156:104,1,90
248,80,102153,2,0,P|256:132|236:184,1,90,4|0,0:0|0:0,0:0:0:0:
200,260,102498,2,0,P|192:312|212:364,2,90,8|4|0,0:0|0:0|0:0,0:0:0:0:
280,208,103016,1,8,0:0:0:0:
380,216,103188,1,0,0:0:0:0:
440,148,103360,1,0,0:0:0:0:
432,64,103533,6,0,P|404:28|344:20,1,90,4|0,0:0|0:0,0:0:0:0:
276,56,103878,2,0,P|258:98|281:154,1,90,8|4,0:0|0:0,0:0:0:0:
344,184,104222,2,0,P|389:177|426:129,2,90,0|8|0,0:0|0:0|0:0,0:0:0:0:
260,204,104740,1,8,0:0:0:0:
292,284,104912,2,0,P|308:328|436:364,1,180,4|8,0:0|0:0,0:0:0:0:
220,284,105429,2,0,P|204:328|76:364,1,180,4|8,0:0|0:0,0:0:0:0:
36,296,105947,1,0,0:0:0:0:
88,224,106119,2,0,B|120:192|120:192|132:140,1,90,0|4,0:0|0:0,0:0:0:0:
424,240,106636,5,8,0:0:0:0:
424,240,106809,1,0,0:0:0:0:
424,240,106981,1,0,0:0:0:0:
368,164,107153,1,8,0:0:0:0:
276,176,107326,1,0,0:0:0:0:
208,128,107498,1,0,0:0:0:0:
132,160,107671,1,4,0:0:0:0:
132,160,107843,2,0,P|160:220|148:256,1,90,0|8,0:0|0:0,0:0:0:0:
280,280,108188,5,4,0:0:0:0:
280,280,108360,2,0,P|244:240|256:192,1,90,0|8,0:0|0:0,0:0:0:0:
352,120,108705,1,4,0:0:0:0:
352,120,108878,2,0,P|304:76|256:92,1,90,0|8,0:0|0:0,0:0:0:0:
192,168,109222,1,4,0:0:0:0:
192,168,109395,2,0,P|148:192|96:172,1,90,0|8,0:0|0:0,0:0:0:0:
144,48,109740,1,4,0:0:0:0:
144,48,109912,2,0,L|260:64,1,90,0|8,0:0|0:0,0:0:0:0:
396,248,110257,2,0,L|280:232,1,90,8|0,0:0|0:0,0:0:0:0:
112,240,121464,6,0,B|128:168|96:108,1,135.000005149842,0|0,0:0|0:0,0:0:0:0:
236,56,122153,2,0,B|264:160|264:160|296:184,1,135.000005149842,0|0,0:0|0:0,0:0:0:0:
420,248,122843,2,0,B|404:204|416:176|416:176|428:152|412:96,1,135.000005149842,0|0,0:0|0:0,0:0:0:0:
236,56,123533,1,0,0:0:0:0:
216,124,123705,1,0,0:0:0:0:
196,188,123878,1,0,0:0:0:0:
176,252,124050,1,0,0:0:0:0:
152,320,124222,6,0,B|232:320|232:320|312:296,1,135.000005149842
400,212,124912,2,0,B|348:184|348:184|376:104,1,135.000005149842
256,44,125602,2,0,B|224:108|224:108|164:164,1,135.000005149842
56,168,126291,1,0,0:0:0:0:
96,228,126464,1,0,0:0:0:0:
156,264,126636,1,0,0:0:0:0:
224,280,126809,1,0,0:0:0:0:
292,280,126981,6,0,P|344:272|380:248,1,90
392,160,127326,2,0,P|340:168|304:192,1,90
224,232,127671,2,0,P|180:244|120:220,1,90
180,160,128016,2,0,P|192:108|172:64,1,90
96,32,128360,2,0,P|84:84|104:128,1,90
128,196,128705,2,0,P|140:248|120:292,1,90
72,352,129050,2,0,P|120:372|180:352,1,90
248,336,129395,2,0,P|290:307|308:256,1,90
360,188,129740,5,0,0:0:0:0:
392,172,129826,1,0,0:0:0:0:
424,176,129912,1,0,0:0:0:0:
460,156,129998,1,0,0:0:0:0:
472,128,130085,1,0,0:0:0:0:
464,96,130171,1,0,0:0:0:0:
440,76,130257,1,0,0:0:0:0:
408,84,130343,1,0,0:0:0:0:
384,64,130429,1,0,0:0:0:0:
352,60,130516,1,0,0:0:0:0:
320,64,130602,1,0,0:0:0:0:
296,88,130688,1,0,0:0:0:0:
264,88,130774,1,0,0:0:0:0:
232,96,130860,1,0,0:0:0:0:
208,76,130947,1,0,0:0:0:0:
176,68,131033,1,0,0:0:0:0:
144,76,131119,6,0,P|112:124|152:224,2,135
204,148,131809,1,0,0:0:0:0:
228,168,131895,1,0,0:0:0:0:
264,180,131981,1,0,0:0:0:0:
296,184,132067,1,0,0:0:0:0:
328,176,132153,1,0,0:0:0:0:
416,112,132326,5,0,0:0:0:0:
416,112,132498,1,0,0:0:0:0:
256,60,132671,1,0,0:0:0:0:
96,112,132843,1,8,0:0:0:0:
96,272,133016,1,0,0:0:0:0:
256,324,133189,1,0,0:0:0:0:
416,272,133360,1,0,0:0:0:0:
416,152,133533,6,0,L|296:112,1,112.5,8|0,0:0|0:0,0:0:0:0:
216,304,133878,2,0,L|323:269,1,112.5
220,136,134222,2,0,L|100:96,1,112.5,8|0,0:0|0:0,0:0:0:0:
20,288,134567,2,0,L|127:253,1,112.5
24,120,134912,1,8,0:0:0:0:
24,120,134998,1,0,0:0:0:0:
24,120,135085,1,8,0:0:0:0:
168,228,135257,5,0,0:0:0:0:
236,24,135429,1,0,0:0:0:0:
312,232,135602,1,8,0:0:0:0:
124,88,135774,1,0,0:0:0:0:
356,88,135947,2,0,B|396:136|396:136|416:208,1,112.5
324,296,136291,2,0,B|284:248|284:248|264:176,1,112.5,8|0,0:0|0:0,0:0:0:0:
256,80,136636,5,0,0:0:0:0:
116,80,136809,1,0,0:0:0:0:
120,236,136981,1,8,0:0:0:0:
256,236,137153,1,0,0:0:0:0:
392,296,137326,1,0,0:0:0:0:
120,296,137498,1,0,0:0:0:0:
256,152,137671,1,8,0:0:0:0:
256,152,137757,1,0,0:0:0:0:
256,152,137843,1,8,0:0:0:0:
80,48,138016,6,0,B|72:108|96:152|96:152|116:196|104:276,1,225,0|8,0:0|0:0,0:0:0:0:
325,244,138533,2,0,B|265:236|221:260|221:260|177:280|97:268,1,225,0|0,0:0|0:0,0:0:0:0:
172,128,139050,1,8,0:0:0:0:
340,128,139222,1,0,0:0:0:0:
120,204,139395,1,0,0:0:0:0:
392,204,139567,1,0,0:0:0:0:
256,56,139740,1,8,0:0:0:0:
256,232,139912,2,0,L|256:352,2,112.5
256,56,140429,5,8,0:0:0:0:
256,56,140516,1,0,0:0:0:0:
256,56,140602,1,8,0:0:0:0:
256,192,140774,1,0,0:0:0:0:
136,136,140947,2,0,P|116:192|152:260,1,112.5,0|8,0:0|0:0,0:0:0:0:
256,316,141291,1,0,0:0:0:0:
256,192,141464,1,0,0:0:0:0:
376,136,141636,2,0,P|396:192|360:260,1,112.5,0|8,0:0|0:0,0:0:0:0:
256,312,141981,1,0,0:0:0:0:
136,92,142153,5,0,0:0:0:0:
136,92,142326,1,0,0:0:0:0:
376,92,142498,1,8,0:0:0:0:
376,92,142671,1,0,0:0:0:0:
256,312,142843,1,0,0:0:0:0:
256,312,142929,1,0,0:0:0:0:
256,312,143016,1,0,0:0:0:0:
428,256,143188,1,8,0:0:0:0:
84,256,143360,1,8,0:0:0:0:
256,68,143533,6,0,B|304:128|304:128|320:232|320:232|376:284,1,225,0|8,0:0|0:0,0:0:0:0:
256,68,144050,2,0,B|208:128|208:128|192:232|192:232|136:284,1,225
48,152,144567,2,0,B|68:92|68:92|128:64,1,112.5,8|0,0:0|0:0,0:0:0:0:
256,44,144912,1,0,0:0:0:0:
399,72,145085,1,0,0:0:0:0:
256,144,145257,1,8,0:0:0:0:
113,72,145429,1,0,0:0:0:0:
399,72,145602,1,0,0:0:0:0:
256,256,145774,6,0,L|256:128,1,112.5,0|8,0:0|0:0,0:0:0:0:
256,120,146033,1,0,0:0:0:0:
256,96,146119,1,8,0:0:0:0:
396,192,146291,6,0,L|376:320,1,112.5
116,192,146636,2,0,L|136:320,1,112.5,8|0,0:0|0:0,0:0:0:0:
256,368,146981,2,0,L|256:248,1,112.5
256,96,147326,1,8,0:0:0:0:
188,316,147498,1,0,0:0:0:0:
376,180,147671,1,0,0:0:0:0:
136,180,147843,1,0,0:0:0:0:
324,316,148016,2,0,L|292:192,1,112.5,8|0,0:0|0:0,0:0:0:0:
216,208,148360,2,0,L|184:332,1,112.5
256,144,148705,5,8,0:0:0:0:
256,144,148791,1,0,0:0:0:0:
256,144,148878,1,8,0:0:0:0:
344,264,149050,2,0,P|312:128|248:56,1,225,0|8,0:0|0:0,0:0:0:0:
175,266,149567,2,0,P|207:130|267:58,1,225
360,96,150085,5,8,0:0:0:0:
396,204,150257,1,0,0:0:0:0:
360,304,150429,1,0,0:0:0:0:
256,48,150602,1,0,0:0:0:0:
152,304,150774,1,8,0:0:0:0:
116,204,150946,1,0,0:0:0:0:
152,96,151118,1,0,0:0:0:0:
256,336,151291,1,0,0:0:0:0:
256,192,151464,5,8,0:0:0:0:
256,192,151550,1,0,0:0:0:0:
256,192,151636,1,8,0:0:0:0:
300,76,151809,2,0,P|348:104|376:156,1,112.5
212,308,152153,2,0,P|164:280|136:228,1,112.5,8|0,0:0|0:0,0:0:0:0:
372,236,152498,2,0,P|344:284|292:312,1,112.5
140,148,152843,2,0,P|168:100|220:72,2,112.5,8|0|0,0:0|0:0|0:0,0:0:0:0:
176,308,153533,5,0,0:0:0:0:
208,328,153619,1,0,0:0:0:0:
256,336,153705,1,0,0:0:0:0:
304,328,153792,1,0,0:0:0:0:
336,308,153878,1,0,0:0:0:0:
380,224,154050,2,0,P|328:212|272:236,2,90
452,164,154567,6,0,B|400:116|320:120|320:120|296:80,1,180,4|8,0:0|0:0,0:0:0:0:
60,164,155085,2,0,B|112:116|192:120|192:120|216:80,1,180,4|8,0:0|0:0,0:0:0:0:
256,152,155602,2,0,L|256:268,1,90
216,312,155947,2,0,P|140:264|204:200,1,180,4|8,0:0|0:0,0:0:0:0:
296,312,156464,2,0,P|372:264|308:200,1,180,4|8,0:0|0:0,0:0:0:0:
256,152,156981,1,0,0:0:0:0:
256,44,157153,1,0,0:0:0:0:
348,68,157326,6,0,B|376:104|376:104|348:172|400:240,1,180,4|8,0:0|0:0,0:0:0:0:
164,68,157843,2,0,B|136:104|136:104|164:172|112:240,1,180,4|8,0:0|0:0,0:0:0:0:
156,312,158360,2,0,P|200:264|208:204,1,90
356,312,158705,2,0,P|312:264|304:204,1,90,4|0,0:0|0:0,0:0:0:0:
256,152,159050,1,8,0:0:0:0:
256,152,159222,1,4,0:0:0:0:
352,148,159395,2,0,P|344:112|284:64,1,90,0|8,0:0|0:0,0:0:0:0:
203,73,159740,2,0,P|171:105|160:148,1,90,0|8,0:0|0:0,0:0:0:0:
212,216,160085,6,0,P|124:228|76:152,1,180,4|8,0:0|0:0,0:0:0:0:
300,216,160602,2,0,P|388:228|436:152,1,180,4|8,0:0|0:0,0:0:0:0:
160,148,161119,1,0,0:0:0:0:
352,148,161291,1,0,0:0:0:0:
352,148,161464,2,0,B|364:220|364:220|400:252|400:252|412:316,1,180,4|8,0:0|0:0,0:0:0:0:
160,148,161981,2,0,B|148:220|148:220|112:252|112:252|100:316,1,180,4|8,0:0|0:0,0:0:0:0:
24,272,162498,5,0,0:0:0:0:
4,168,162671,1,0,0:0:0:0:
72,88,162843,1,4,0:0:0:0:
72,88,163015,2,0,B|112:104|112:104|180:84,1,90,0|8,0:0|0:0,0:0:0:0:
248,56,163360,1,4,0:0:0:0:
248,56,163532,2,0,B|260:100|260:100|244:168,1,90,0|8,0:0|0:0,0:0:0:0:
180,232,163877,5,4,0:0:0:0:
180,232,164050,2,0,P|212:248|276:240,1,90,0|8,0:0|0:0,0:0:0:0:
344,152,164394,1,4,0:0:0:0:
344,152,164567,2,0,P|364:192|356:248,1,90,0|8,0:0|0:0,0:0:0:0:
284,324,164912,1,4,0:0:0:0:
284,324,165085,2,0,L|252:220,2,90,0|8|8,0:0|0:0|0:0,0:0:0:0:
184,308,165602,6,0,P|128:296|96:264,1,90,4|0,0:0|0:0,0:0:0:0:
120,200,165947,1,8,0:0:0:0:
76,136,166119,1,4,0:0:0:0:
100,64,166291,1,0,0:0:0:0:
168,28,166464,1,8,0:0:0:0:
236,64,166636,1,0,0:0:0:0:
312,68,166809,1,0,0:0:0:0:
344,136,166981,6,0,P|348:204|384:228,1,90,4|0,0:0|0:0,0:0:0:0:
304,264,167326,2,0,P|272:232|216:224,1,90,8|4,0:0|0:0,0:0:0:0:
232,304,167671,2,0,P|192:328|172:368,2,90,0|8|0,0:0|0:0|0:0,0:0:0:0:
308,340,168188,2,0,P|360:352|412:336,1,90,0|4,0:0|0:0,0:0:0:0:
448,288,168533,1,0,0:0:0:0:
472,212,168705,1,8,0:0:0:0:
448,136,168878,1,4,0:0:0:0:
380,96,169050,6,0,P|368:152|404:204,1,90,0|8,0:0|0:0,0:0:0:0:
356,256,169395,2,0,P|312:216|296:160,1,90
296,116,169740,2,0,P|313:59|357:21,2,90,4|0|8,0:0|0:0|0:0,0:0:0:0:
232,164,170257,2,0,P|184:180|136:176,1,90,4|0,0:0|0:0,0:0:0:0:
88,116,170602,2,0,P|136:100|184:104,1,90,8|0,0:0|0:0,0:0:0:0:
296,116,170947,5,0,0:0:0:0:
272,204,171119,2,0,P|264:252|280:304,1,90,4|0,0:0|0:0,0:0:0:0:
204,348,171464,1,8,0:0:0:0:
128,320,171636,1,4,0:0:0:0:
140,244,171809,1,0,0:0:0:0:
112,168,171981,1,8,0:0:0:0:
128,96,172153,1,0,0:0:0:0:
176,32,172326,6,0,L|272:20,1,90,0|4,0:0|0:0,0:0:0:0:
360,104,172671,2,0,L|264:116,2,90,0|8|4,0:0|0:0|0:0,0:0:0:0:
432,140,173188,1,0,0:0:0:0:
468,212,173360,1,8,0:0:0:0:
388,208,173533,1,0,0:0:0:0:
332,264,173705,1,0,0:0:0:0:
288,336,173878,6,0,P|256:296|256:240,1,90,4|0,0:0|0:0,0:0:0:0:
224,92,174222,2,0,P|256:132|256:188,2,90,8|4|0,0:0|0:0|0:0,0:0:0:0:
140,96,174740,1,0,0:0:0:0:
176,164,174912,1,4,0:0:0:0:
144,232,175085,1,0,0:0:0:0:
156,304,175257,1,8,0:0:0:0:
256,192,175343,12,0,176636,0:0:0:0:
256,96,176809,6,0,P|312:104|340:144,1,90,0|8,0:0|0:0,0:0:0:0:
176,252,177153,2,0,P|155:200|175:156,1,90
352,244,177498,2,0,P|317:288|268:292,2,90,0|8|0,0:0|0:0|0:0,0:0:0:0:
256,192,178016,1,0,0:0:0:0:
176,108,178188,1,0,0:0:0:0:
176,276,178360,1,8,0:0:0:0:
336,276,178533,1,0,0:0:0:0:
336,108,178705,1,0,0:0:0:0:
176,108,178878,1,0,0:0:0:0:
340,112,179050,5,8,0:0:0:0:
340,112,179136,1,0,0:0:0:0:
340,112,179222,1,8,0:0:0:0:
408,200,179395,2,0,L|444:312,1,90
344,360,179740,2,0,L|308:248,1,90,8|0,0:0|0:0,0:0:0:0:
168,360,180085,2,0,L|204:248,1,90
104,200,180429,2,0,L|68:312,2,90,8|0|0,0:0|0:0|0:0,0:0:0:0:
104,44,180947,5,0,0:0:0:0:
28,124,181119,1,8,0:0:0:0:
104,200,181291,1,0,0:0:0:0:
176,124,181464,1,0,0:0:0:0:
248,40,181636,1,0,0:0:0:0:
364,40,181808,1,8,0:0:0:0:
364,40,181894,1,0,0:0:0:0:
364,40,181980,1,8,0:0:0:0:
440,120,182153,6,0,B|404:152|404:152|344:172,1,90
256,192,182498,1,8,0:0:0:0:
176,276,182671,2,0,B|184:320|184:320|224:360,1,90
328,372,183016,1,0,0:0:0:0:
412,308,183188,2,0,B|416:260|416:260|440:200,1,90,8|0,0:0|0:0,0:0:0:0:
464,132,183533,1,0,0:0:0:0:
396,52,183705,2,0,B|352:40|352:40|280:44,1,90,0|8,0:0|0:0,0:0:0:0:
200,84,184050,1,0,0:0:0:0:
80,56,184222,5,0,0:0:0:0:
80,56,184308,1,0,0:0:0:0:
80,56,184394,1,0,0:0:0:0:
32,168,184567,2,8,L|72:264,1,90
240,168,184912,2,0,L|200:264,1,90
136,352,185257,2,0,L|136:232,2,90,8|0|0,0:0|0:0|0:0,0:0:0:0:
244,312,185774,1,0,0:0:0:0:
352,344,185947,1,8,0:0:0:0:
440,284,186119,1,0,0:0:0:0:
440,284,186291,6,0,L|440:188,1,90
336,112,186636,2,0,L|336:202,1,90,8|0,0:0|0:0,0:0:0:0:
256,260,186980,1,0,0:0:0:0:
256,260,187066,1,0,0:0:0:0:
256,260,187153,1,0,0:0:0:0:
152,196,187326,1,8,0:0:0:0:
360,196,187498,1,8,0:0:0:0:
256,152,187671,1,0,0:0:0:0:
164,68,187843,6,0,L|64:68,2,90,0|8|0,0:0|0:0|0:0,0:0:0:0:
348,68,188360,2,0,L|448:68,2,90,0|0|8,0:0|0:0|0:0,0:0:0:0:
184,176,188878,2,0,B|164:216|164:216|112:272,2,90
328,176,189395,2,0,B|348:216|348:216|400:272,1,90
464,312,189740,2,0,L|512:312,2,45
368,368,190085,6,8,P|328:384|280:364,1,90
216,280,190429,2,0,P|176:264|128:284,1,90
40,320,190774,2,0,P|32:280|44:232,1,90,8|0,0:0|0:0,0:0:0:0:
88,136,191119,2,0,P|99:92|91:48,2,90,0|0|8,0:0|0:0|0:0,0:0:0:0:
164,232,191636,2,0,P|206:244|250:235,1,90
296,124,191981,2,0,P|253:111|209:120,1,90,0|8,0:0|0:0,0:0:0:0:
250,234,192326,1,0,0:0:0:0:
372,200,192498,1,0,0:0:0:0:
384,104,192671,1,0,0:0:0:0:
272,40,192844,5,8,0:0:0:0:
272,40,192929,1,0,0:0:0:0:
272,40,193015,1,8,0:0:0:0:
148,88,193188,2,0,P|176:136|224:164,1,90
284,208,193533,1,8,0:0:0:0:
256,380,193705,2,0,P|283:331|283:276,1,90
284,208,194050,1,0,0:0:0:0:
456,152,194222,2,0,P|400:152|352:179,1,90,8|0,0:0|0:0,0:0:0:0:
284,208,194567,1,0,0:0:0:0:
284,208,194740,5,0,0:0:0:0:
284,208,194912,2,0,L|176:228,1,90,8|0,0:0|0:0,0:0:0:0:
64,144,195257,2,0,L|152:127,1,90
256,100,195601,1,8,0:0:0:0:
256,100,195687,1,0,0:0:0:0:
256,100,195773,1,8,0:0:0:0:
400,172,195947,6,0,L|304:172,1,90
112,172,196291,2,0,L|208:172,1,90,8|0,0:0|0:0,0:0:0:0:
400,272,196636,2,0,L|304:272,1,90
112,272,196980,2,0,L|208:272,1,90,8|0,0:0|0:0,0:0:0:0:
256,192,197326,12,4,198705,0:0:0:0:
