osu file format v13

[General]
AudioFilename: Feint - Promises.mp3
AudioLeadIn: 0
PreviewTime: 66291
Countdown: 0
SampleSet: Soft
StackLeniency: 0.7
Mode: 0
LetterboxInBreaks: 1
WidescreenStoryboard: 1

[Editor]
Bookmarks: 40085,44226,55257,60774,63533,66291,88360,99395,110429,121464,126981,132498,154567,176636,187671,198705,220774
DistanceSpacing: 1.2
BeatDivisor: 4
GridSize: 4
TimelineZoom: 1.3

[Metadata]
Title:Promises
TitleUnicode:Promises
Artist:Feint
ArtistUnicode:Feint
Creator:-Famous-
Version:Hard
Source:
Tags:dnb drum and bass
BeatmapID:427891
BeatmapSetID:177816

[Difficulty]
HPDrainRate:5
CircleSize:4
OverallDifficulty:6
ApproachRate:7
SliderMultiplier:1.4
SliderTickRate:1

[Events]
//Background and Video events
0,0,"bg.jpg",0,0
//Break Periods
2,110629,119185
2,176836,186771
//Storyboard Layer 0 (Background)
//Storyboard Layer 1 (Fail)
//Storyboard Layer 2 (Pass)
//Storyboard Layer 3 (Foreground)
//Storyboard Sound Samples
//Background Colour Transformations
3,100,163,162,255

[TimingPoints]
85,344.827586206897,4,2,0,45,1,0
66291,-100,4,1,1,55,0,1
86981,-100,4,1,1,55,0,0
121464,-100,4,2,0,45,0,0
132498,-100,4,1,1,55,0,1
153188,-100,4,1,1,55,0,0

[HitObjects]
256,192,40085,12,0,44222,0:0:0:0:
36,164,44567,6,0,B|36:236|96:288,1,140
324,304,45257,2,0,B|324:232|264:180,1,140
24,200,45947,2,0,B|24:272|84:324,1,140
308,328,46636,2,0,B|308:256|248:204,1,140
176,172,47153,2,0,L|148:104,1,70
200,44,47498,2,0,L|276:92,1,70
320,136,47843,2,0,L|244:192,2,70
400,120,48360,6,0,P|432:136|460:164,1,70
484,228,48705,1,0,0:0:0:0:
472,300,48878,1,0,0:0:0:0:
416,348,49050,2,0,P|372:352|340:344,1,70
296,284,49395,2,0,P|252:280|220:288,1,70
180,344,49740,2,0,B|108:324|108:324|36:264,1,140
36,80,50429,2,0,B|108:100|108:100|180:160,1,140
168,320,51119,2,0,B|96:300|96:300|24:240,1,140
24,56,51808,2,0,B|96:76|96:76|168:136,1,140
252,284,52498,5,0,0:0:0:0:
332,248,52671,1,0,0:0:0:0:
400,196,52843,1,0,0:0:0:0:
360,116,53016,1,0,0:0:0:0:
300,52,53188,2,0,P|276:92|280:144,1,70
278,221,53533,2,0,P|272:255|252:284,2,70,0|0|0,0:0|0:0|0:0,0:0:0:0:
216,168,54050,2,0,L|128:168,2,70
296,168,54567,5,0,0:0:0:0:
328,248,54740,1,0,0:0:0:0:
288,324,54912,1,0,0:0:0:0:
208,336,55085,1,0,0:0:0:0:
136,312,55257,2,0,L|136:164,1,140
260,56,55947,2,0,L|260:196,1,140
384,308,56636,2,0,L|384:160,1,140
504,48,57326,2,0,L|504:188,2,140
336,24,58360,5,0,0:0:0:0:
180,84,58705,1,0,0:0:0:0:
320,176,59050,1,0,0:0:0:0:
172,260,59395,2,0,P|224:320|308:352,1,140
426,262,60085,2,0,P|374:202|290:170,1,140
232,264,60774,6,0,L|152:264,1,70
108,180,61119,2,0,L|192:180,1,70
244,284,61464,2,0,L|164:284,1,70
120,200,61809,2,0,L|204:200,1,70
272,176,62153,5,0,0:0:0:0:
252,96,62326,1,0,0:0:0:0:
344,80,62498,1,0,0:0:0:0:
420,80,62671,1,0,0:0:0:0:
484,120,62843,2,0,P|496:160|484:200,1,70
408,156,63188,2,0,P|404:196|420:236,1,70
364,328,63533,6,0,L|320:344,3,35
292,336,63878,2,0,L|228:320,3,35
216,332,64222,2,0,L|156:344,3,35
144,328,64567,2,0,L|92:292,4,35
44,256,65171,6,0,P|32:200|60:128,1,105
104,88,65602,1,0,0:0:0:0:
104,88,65688,1,0,0:0:0:0:
104,88,65774,1,0,0:0:0:0:
196,72,65947,1,0,0:0:0:0:
196,72,66119,1,0,0:0:0:0:
284,96,66291,2,0,P|252:176|180:212,1,140,4|8,0:0|0:0,0:0:0:0:
136,228,66809,2,0,P|176:276|316:252,1,210,4|8,0:0|0:0,0:0:0:0:
372,200,67498,6,0,P|380:148|368:108,1,70
304,84,67843,2,0,P|295:118|300:152,1,70,0|8,0:0|0:0,0:0:0:0:
264,220,68188,1,0,0:0:0:0:
196,256,68360,1,0,0:0:0:0:
120,236,68533,1,0,0:0:0:0:
68,184,68705,2,0,P|56:144|68:96,1,70,8|0,0:0|0:0,0:0:0:0:
96,48,69050,2,0,B|140:48|156:124|244:100,1,140,4|8,0:0|0:0,0:0:0:0:
176,172,69567,2,0,P|248:192|312:80,1,210,4|8,0:0|0:0,0:0:0:0:
360,28,70257,5,0,0:0:0:0:
432,8,70429,1,0,0:0:0:0:
492,52,70602,1,0,0:0:0:0:
512,128,70774,2,0,P|504:172|472:200,1,70,8|0,0:0|0:0,0:0:0:0:
464,264,71119,2,0,L|480:328,2,35
396,216,71464,1,8,0:0:0:0:
416,144,71636,1,0,0:0:0:0:
372,80,71809,2,0,B|352:68|352:68|320:188,1,140,4|8,0:0|0:0,0:0:0:0:
260,264,72326,2,0,B|200:220|200:220|240:168|240:168|264:84,1,210,4|8,0:0|0:0,0:0:0:0:
212,32,73016,6,0,B|192:68|192:68|152:96,1,70
76,72,73360,2,0,B|96:36|96:36|136:8,2,70,0|8|0,0:0|0:0|0:0,0:0:0:0:
84,156,73878,2,0,P|108:196|148:212,1,70
212,228,74222,2,0,P|248:228|288:204,1,70,8|0,0:0|0:0,0:0:0:0:
340,164,74567,2,0,P|320:116|244:128,1,140,4|8,0:0|0:0,0:0:0:0:
272,196,75085,2,0,P|224:216|188:84,1,210,4|8,0:0|0:0,0:0:0:0:
228,52,75774,5,0,0:0:0:0:
304,84,75947,1,0,0:0:0:0:
384,64,76119,1,0,0:0:0:0:
448,116,76291,1,8,0:0:0:0:
420,188,76464,1,0,0:0:0:0:
464,252,76636,1,0,0:0:0:0:
464,252,76722,1,0,0:0:0:0:
464,252,76809,1,0,0:0:0:0:
424,320,76981,2,0,P|384:332|324:328,1,70,8|0,0:0|0:0,0:0:0:0:
276,328,77326,6,0,B|240:264|240:264|252:180,1,140,4|8,0:0|0:0,0:0:0:0:
328,200,77843,2,0,B|316:252|316:252|152:276,1,210,4|8,0:0|0:0,0:0:0:0:
120,208,78533,2,0,L|204:196,1,70
228,124,78878,2,0,L|158:133,2,70,0|8|0,0:0|0:0|0:0,0:0:0:0:
308,112,79395,2,0,L|392:100,2,70,0|0|8,0:0|0:0|0:0,0:0:0:0:
228,124,79912,1,0,0:0:0:0:
160,164,80085,2,0,P|188:200|296:196,1,140,4|8,0:0|0:0,0:0:0:0:
344,168,80602,2,0,P|300:136|192:232,1,210,4|8,0:0|0:0,0:0:0:0:
208,288,81291,5,0,0:0:0:0:
264,340,81464,1,0,0:0:0:0:
340,356,81636,1,0,0:0:0:0:
416,336,81809,1,8,0:0:0:0:
476,284,81981,2,0,P|488:244|472:196,1,70
440,156,82326,1,0,0:0:0:0:
376,112,82498,1,8,0:0:0:0:
352,104,82585,1,0,0:0:0:0:
328,104,82671,1,0,0:0:0:0:
252,132,82843,6,0,B|272:168|272:168|332:204|332:204|348:232,1,140,4|8,0:0|0:0,0:0:0:0:
294,285,83360,2,0,B|280:260|280:260|220:224|220:224|160:112,1,210,4|8,0:0|0:0,0:0:0:0:
224,68,84050,2,0,L|260:132,1,70
204,188,84395,2,0,L|252:136,2,70,0|8|0,0:0|0:0|0:0,0:0:0:0:
192,264,84912,1,0,0:0:0:0:
128,308,85085,1,0,0:0:0:0:
56,296,85257,2,0,P|24:264|24:208,1,70,8|0,0:0|0:0,0:0:0:0:
96,224,85602,6,0,P|128:264|116:352,1,140,4|8,0:0|0:0,0:0:0:0:
56,296,86119,2,0,P|96:276|260:292,1,210,4|8,0:0|0:0,0:0:0:0:
316,336,86809,1,0,0:0:0:0:
392,344,86981,1,0,0:0:0:0:
440,236,87326,2,0,L|488:228,2,35
360,256,87671,2,0,L|284:264,2,70
420,204,88188,1,0,0:0:0:0:
412,128,88360,6,0,B|360:120|300:172|244:148,1,140,4|8,0:0|0:0,0:0:0:0:
208,88,88878,2,0,B|232:105|292:53|344:61,2,140,4|8|0,0:0|0:0|0:0,0:0:0:0:
136,120,89740,1,4,0:0:0:0:
88,252,90085,1,8,0:0:0:0:
88,252,90257,2,0,P|144:300|220:320,1,140,4|8,0:0|0:0,0:0:0:0:
284,320,90774,1,0,0:0:0:0:
356,288,90947,1,0,0:0:0:0:
400,220,91119,6,0,B|348:204|348:204|316:216|316:216|252:196,1,140,4|8,0:0|0:0,0:0:0:0:
184,116,91636,2,0,B|234:131|234:131|266:119|266:119|316:136,1,140,4|8,0:0|0:0,0:0:0:0:
392,116,92153,1,0,0:0:0:0:
352,44,92326,1,0,0:0:0:0:
272,28,92498,2,0,P|192:40|124:84,1,140,4|8,0:0|0:0,0:0:0:0:
96,128,93016,2,0,P|100:168|132:196,1,70,4|0,0:0|0:0,0:0:0:0:
204,208,93360,2,0,P|200:168|168:140,2,70,8|0|0,0:0|0:0|0:0,0:0:0:0:
144,272,93878,6,0,B|208:292|208:292|304:268,1,140,4|8,0:0|0:0,0:0:0:0:
340,208,94395,2,0,B|272:192|272:192|176:216,2,140,4|8|0,0:0|0:0|0:0,0:0:0:0:
424,156,95257,2,0,L|288:112,1,140,0|8,0:0|0:0,0:0:0:0:
220,112,95774,2,0,L|83:153,1,140,4|8,0:0|0:0,0:0:0:0:
40,212,96291,2,0,L|80:284,1,70
164,272,96636,2,0,L|130:210,2,70,4|0|8,0:0|0:0|0:0,0:0:0:0:
244,300,97153,5,4,0:0:0:0:
320,304,97326,1,0,0:0:0:0:
388,272,97498,1,8,0:0:0:0:
428,208,97671,2,0,P|432:164|424:132,1,70,4|0,0:0|0:0,0:0:0:0:
376,84,98016,1,8,0:0:0:0:
300,96,98188,2,0,P|304:144|336:172,1,70,4|0,0:0|0:0,0:0:0:0:
312,236,98533,1,8,0:0:0:0:
232,256,98705,2,0,P|180:244|160:208,3,70,0|4|8|8,0:0|0:0|0:0|0:0,0:0:0:0:
228,176,99395,6,0,P|168:152|100:192,1,140,4|8,0:0|0:0,0:0:0:0:
44,236,99912,2,0,P|108:260|172:233,1,140,4|8,0:0|0:0,0:0:0:0:
228,176,100429,1,0,0:0:0:0:
300,144,100602,1,0,0:0:0:0:
368,180,100774,2,0,P|416:216|424:300,1,140,4|8,0:0|0:0,0:0:0:0:
356,256,101291,2,0,P|432:212|436:148,1,140,4|8,0:0|0:0,0:0:0:0:
416,96,101809,1,0,0:0:0:0:
352,60,101981,1,0,0:0:0:0:
272,56,102153,6,0,L|124:80,1,140,4|8,0:0|0:0,0:0:0:0:
48,132,102671,2,0,L|212:164,1,140,4|8,0:0|0:0,0:0:0:0:
272,216,103188,2,0,L|124:240,1,140,4|8,0:0|0:0,0:0:0:0:
48,292,103705,2,0,L|212:324,1,140,4|8,0:0|0:0,0:0:0:0:
264,324,104222,1,4,0:0:0:0:
340,312,104395,1,8,0:0:0:0:
400,264,104567,6,0,P|420:200|392:112,1,140,8|4,0:0|0:0,0:0:0:0:
280,48,105257,1,8,0:0:0:0:
280,48,105429,2,0,B|264:92|264:92|280:140|280:140|272:188,1,140,4|8,0:0|0:0,0:0:0:0:
224,240,105947,1,0,0:0:0:0:
156,276,106119,2,0,P|100:280|72:256,1,70,0|4,0:0|0:0,0:0:0:0:
28,104,106636,2,0,P|84:100|112:124,1,70,8|4,0:0|0:0,0:0:0:0:
168,144,106981,2,0,P|200:154|234:145,2,70,0|8|0,0:0|0:0|0:0,0:0:0:0:
128,80,107498,1,0,0:0:0:0:
180,24,107671,1,4,0:0:0:0:
256,24,107843,6,0,P|268:60|260:96,1,70,0|8,0:0|0:0,0:0:0:0:
220,156,108188,1,4,0:0:0:0:
196,228,108360,2,0,P|192:272|212:304,1,70,0|8,0:0|0:0,0:0:0:0:
272,328,108705,1,4,0:0:0:0:
348,332,108878,2,0,L|424:320,1,70,0|8,0:0|0:0,0:0:0:0:
464,260,109222,1,4,0:0:0:0:
388,248,109395,2,0,L|320:236,1,70,0|8,0:0|0:0,0:0:0:0:
272,152,109740,2,0,L|344:168,3,70,4|0|8|8,0:0|0:0|0:0|0:0,0:0:0:0:
340,167,110429,1,0,0:0:0:0:
256,192,120085,12,0,121464,0:0:0:0:
256,192,121809,5,0,0:0:0:0:
320,144,122153,2,0,P|340:192|288:268,1,140
192,240,122843,2,0,P|172:192|224:116,1,140
304,256,123533,2,0,P|256:276|180:224,1,140
208,128,124223,2,0,P|256:108|332:160,2,140
152,224,125257,1,0,0:0:0:0:
192,328,125602,1,0,0:0:0:0:
320,340,125947,1,0,0:0:0:0:
408,280,126291,2,0,B|433:194|433:194|412:144,1,140
284,116,126981,6,0,L|272:196,1,70
188,208,127326,2,0,L|198:138,1,70,0|0,0:0|0:0,0:0:0:0:
248,128,127671,2,0,L|236:208,1,70
152,220,128016,2,0,L|162:150,1,70,0|0,0:0|0:0,0:0:0:0:
188,80,128360,1,0,0:0:0:0:
248,32,128533,1,0,0:0:0:0:
324,20,128705,1,0,0:0:0:0:
400,36,128878,1,0,0:0:0:0:
464,80,129050,6,0,B|480:116|480:116|480:172,1,70
416,196,129395,2,0,B|400:160|400:160|400:104,1,70
360,48,129740,2,0,L|304:36,3,35
296,48,130085,2,0,L|244:68,3,35
236,88,130429,2,0,L|224:140,3,35
204,152,130774,2,0,L|160:184,3,35
124,284,131378,2,0,P|180:304|240:296,1,105
312,264,131809,5,0,0:0:0:0:
312,264,131895,1,0,0:0:0:0:
312,264,131981,1,0,0:0:0:0:
360,184,132153,1,0,0:0:0:0:
360,184,132326,1,0,0:0:0:0:
360,96,132498,6,0,P|304:124|276:200,1,140
216,256,133016,2,0,B|188:176|120:180|120:180|68:180|32:132,1,210
44,76,133705,2,0,P|96:84|124:104,1,70
180,120,134050,2,0,P|228:132|264:128,1,70
324,116,134395,1,0,0:0:0:0:
388,80,134567,1,0,0:0:0:0:
448,32,134740,2,0,P|464:68|460:116,1,70
440,168,135085,1,0,0:0:0:0:
384,216,135257,6,0,P|312:240|232:244,1,140
156,200,135774,2,0,B|196:132|340:204|360:108,1,210
364,56,136464,1,0,0:0:0:0:
292,20,136636,1,0,0:0:0:0:
224,56,136809,1,0,0:0:0:0:
152,44,136981,1,0,0:0:0:0:
84,76,137153,2,0,P|48:108|32:136,2,70
148,132,137671,5,0,0:0:0:0:
148,132,137757,1,0,0:0:0:0:
148,132,137843,1,0,0:0:0:0:
108,200,138016,2,0,B|160:220|160:220|192:184|264:200,1,140
304,236,138533,2,0,B|264:284|212:272|212:272|160:316|96:268,1,210
64,216,139222,2,0,P|44:180|52:140,2,70
144,204,139740,2,0,P|160:168|192:148,1,70
256,120,140085,2,0,P|283:98|296:66,2,70
176,132,140602,1,0,0:0:0:0:
128,72,140774,6,0,P|180:44|272:76,1,140
228,224,141291,2,0,P|268:264|420:260,1,210
424,88,141981,2,0,P|368:84|340:100,1,70
264,160,142326,2,0,P|320:164|348:148,2,70
208,104,142843,2,0,L|200:64,2,35
160,168,143188,1,0,0:0:0:0:
80,156,143360,1,0,0:0:0:0:
56,80,143533,6,0,B|116:76|116:76|200:144,1,140
264,136,144050,2,0,B|248:216|172:220|172:220|112:168,1,210
104,100,144740,5,0,0:0:0:0:
180,108,144912,1,0,0:0:0:0:
240,64,145085,1,0,0:0:0:0:
312,52,145257,1,0,0:0:0:0:
380,88,145429,1,0,0:0:0:0:
404,160,145602,2,0,P|408:208|388:244,1,70
348,280,145947,1,0,0:0:0:0:
272,292,146119,1,0,0:0:0:0:
204,264,146291,6,0,P|160:216|144:120,1,140
184,64,146809,2,0,P|208:104|120:224,1,210
56,208,147498,2,0,P|76:168|108:148,1,70
164,120,147843,1,0,0:0:0:0:
248,132,148016,1,0,0:0:0:0:
316,172,148188,2,0,P|352:184|384:180,1,70
444,140,148533,1,0,0:0:0:0:
476,68,148705,2,0,P|480:48|480:20,2,35
396,80,149050,6,0,B|328:72|328:72|256:92,1,140
196,152,149567,2,0,B|240:168|240:168|200:256|256:324,1,210
312,276,150257,2,0,B|284:240|308:200,1,70
372,236,150602,1,0,0:0:0:0:
432,192,150774,2,0,B|460:228|436:268,1,70
372,236,151119,1,0,0:0:0:0:
332,176,151291,1,0,0:0:0:0:
364,116,151464,1,0,0:0:0:0:
328,52,151636,1,0,0:0:0:0:
256,32,151809,6,0,B|240:92|288:120|288:120|256:176,1,140
196,132,152326,2,0,B|168:92|184:24|184:24|56:32,1,210
16,64,153016,2,0,B|40:92|40:92|84:116,1,70
116,176,153533,1,0,0:0:0:0:
116,208,153619,1,0,0:0:0:0:
116,240,153705,1,0,0:0:0:0:
112,320,153878,6,0,L|184:320,1,70
256,320,154222,1,0,0:0:0:0:
336,320,154395,2,0,L|336:232,1,70,0|4,0:0|0:0,0:0:0:0:
336,64,154912,2,0,L|336:152,1,70,8|4,0:0|0:0,0:0:0:0:
224,192,155429,2,0,B|56:192,1,140,8|0,0:0|0:0,0:0:0:0:
32,120,155947,2,0,L|176:120,1,140,4|8,0:0|0:0,0:0:0:0:
224,48,156464,2,0,B|56:48,1,140,8|0,0:0|0:0,0:0:0:0:
32,120,156981,1,0,0:0:0:0:
84,192,157154,1,0,0:0:0:0:
168,244,157326,6,0,P|236:256|316:220,1,140,4|8,0:0|0:0,0:0:0:0:
368,172,157843,2,0,P|300:160|220:196,1,140,4|8,0:0|0:0,0:0:0:0:
204,256,158360,1,0,0:0:0:0:
240,324,158533,1,0,0:0:0:0:
320,332,158705,2,0,P|352:260|296:196,1,140,4|8,0:0|0:0,0:0:0:0:
248,192,159223,2,0,P|252:232|276:264,1,70,4|0,0:0|0:0,0:0:0:0:
240,324,159567,2,0,P|204:328|172:316,2,70,8|0|0,0:0|0:0|0:0,0:0:0:0:
320,332,160085,6,0,B|480:332,1,140,4|8,0:0|0:0,0:0:0:0:
488,244,160602,2,0,B|424:224|408:132,2,140,4|8|0,0:0|0:0|0:0,0:0:0:0:
380,268,161464,2,0,P|320:224|240:232,1,140,0|8,0:0|0:0,0:0:0:0:
292,300,161981,2,0,P|212:292|172:236,1,140,4|8,0:0|0:0,0:0:0:0:
136,176,162498,2,0,P|100:140|56:132,1,70
12,168,162843,2,0,P|40:200|76:208,2,70,4|0|8,0:0|0:0|0:0,0:0:0:0:
16,92,163360,5,4,0:0:0:0:
84,60,163533,1,0,0:0:0:0:
160,68,163705,1,8,0:0:0:0:
216,128,163878,2,0,P|224:160|204:200,1,70,4|0,0:0|0:0,0:0:0:0:
176,256,164223,1,8,0:0:0:0:
176,256,164395,2,0,P|180:304|212:332,1,70,4|0,0:0|0:0,0:0:0:0:
268,348,164740,1,8,0:0:0:0:
268,348,164912,2,0,P|320:344|348:316,3,70,0|4|8|8,0:0|0:0|0:0|0:0,0:0:0:0:
280,276,165602,6,0,P|220:252|152:292,1,140,4|8,0:0|0:0,0:0:0:0:
100,200,166119,2,0,P|160:232|224:205,1,140,4|8,0:0|0:0,0:0:0:0:
256,140,166636,1,0,0:0:0:0:
208,84,166809,1,0,0:0:0:0:
148,140,166981,2,0,P|152:200|180:288,1,140,4|8,0:0|0:0,0:0:0:0:
232,332,167498,2,0,P|256:244|248:188,1,140,4|8,0:0|0:0,0:0:0:0:
228,128,168016,1,0,0:0:0:0:
252,56,168188,1,0,0:0:0:0:
328,24,168360,6,0,B|324:92|324:92|344:188,1,140,4|8,0:0|0:0,0:0:0:0:
412,168,168878,2,0,B|396:224|396:224|296:248,1,140,4|8,0:0|0:0,0:0:0:0:
292,176,169395,2,0,B|231:186|231:186|168:240,1,140,4|8,0:0|0:0,0:0:0:0:
124,296,169912,2,0,B|96:268|96:268|96:200|96:200|136:156,1,140,4|8,0:0|0:0,0:0:0:0:
184,144,170429,1,4,0:0:0:0:
256,164,170602,1,8,0:0:0:0:
308,224,170774,6,0,P|212:232|160:188,1,140,8|4,0:0|0:0,0:0:0:0:
120,88,171464,1,8,0:0:0:0:
120,88,171636,2,0,B|164:64|192:168|272:96,1,140,4|8,0:0|0:0,0:0:0:0:
320,116,172154,1,0,0:0:0:0:
380,168,172326,2,0,P|372:220|340:248,1,70,0|4,0:0|0:0,0:0:0:0:
224,296,172843,2,0,L|140:316,1,70,8|4,0:0|0:0,0:0:0:0:
92,248,173188,2,0,L|168:232,2,70,0|8|0,0:0|0:0|0:0,0:0:0:0:
20,216,173705,1,0,0:0:0:0:
4,144,173878,1,4,0:0:0:0:
32,76,174050,6,0,P|80:96|96:136,1,70,0|8,0:0|0:0,0:0:0:0:
140,168,174395,1,4,0:0:0:0:
184,232,174567,2,0,P|216:256|272:248,1,70,0|8,0:0|0:0,0:0:0:0:
312,228,174912,1,4,0:0:0:0:
348,160,175085,2,0,L|264:104,1,70,0|8,0:0|0:0,0:0:0:0:
224,92,175429,1,4,0:0:0:0:
148,104,175602,2,0,L|76:136,1,70,0|8,0:0|0:0,0:0:0:0:
40,196,175947,1,4,0:0:0:0:
52,272,176119,2,0,P|80:308|120:324,3,70,0|8|8|8,0:0|0:0|0:0|0:0,0:0:0:0:
304,292,187671,6,0,P|324:244|320:148,1,140,4|8,0:0|0:0,0:0:0:0:
256,108,188188,2,8,P|256:176|376:228,1,210,4|8,0:0|0:0,0:0:0:0:
432,180,188878,1,0,0:0:0:0:
440,104,189050,1,0,0:0:0:0:
396,44,189222,1,0,0:0:0:0:
320,28,189395,2,0,L|248:32,1,70,8|0,0:0|0:0,0:0:0:0:
216,108,189740,2,0,L|285:104,2,70,0|0|8,0:0|0:0|0:0,0:0:0:0:
136,116,190257,1,0,0:0:0:0:
56,124,190429,6,0,P|64:172|144:236,1,140,4|8,0:0|0:0,0:0:0:0:
104,268,190947,2,0,P|144:308|288:288,1,210,4|8,0:0|0:0,0:0:0:0:
308,216,191636,2,0,P|260:224|228:240,1,70
172,256,191981,1,0,0:0:0:0:
96,252,192153,1,8,0:0:0:0:
48,192,192326,1,0,0:0:0:0:
68,120,192498,2,0,L|84:76,2,35
120,172,192843,2,8,P|160:176|216:152,1,70
168,96,193188,6,0,P|236:96|288:168,1,140,4|8,0:0|0:0,0:0:0:0:
220,180,193705,2,0,P|256:216|348:116,1,210,4|8,0:0|0:0,0:0:0:0:
304,80,194395,1,0,0:0:0:0:
236,108,194567,1,0,0:0:0:0:
220,180,194740,1,0,0:0:0:0:
236,252,194912,6,0,P|236:296|216:336,1,70,8|0,0:0|0:0,0:0:0:0:
164,272,195257,2,0,P|128:256|104:216,1,70
180,196,195602,2,0,P|204:160|240:140,1,70,8|0,0:0|0:0,0:0:0:0:
300,116,195947,2,0,P|316:172|308:272,1,140,4|8,0:0|0:0,0:0:0:0:
384,280,196464,2,0,P|392:152|356:48,1,210,4|8,0:0|0:0,0:0:0:0:
300,40,197153,1,8,0:0:0:0:
256,192,197326,12,0,198705,0:0:0:0:
