osu file format v13

[General]
AudioFilename: Feint - Promises.mp3
AudioLeadIn: 0
PreviewTime: 66291
Countdown: 0
SampleSet: Normal
StackLeniency: 0.7
Mode: 0
LetterboxInBreaks: 1
WidescreenStoryboard: 1

[Editor]
Bookmarks: 40085,44226,55257,60774,63533,66291,88360,110429,121464,126981,132498,154567,176636,187671,198705,220774
DistanceSpacing: 0.9
BeatDivisor: 1
GridSize: 4
TimelineZoom: 1

[Metadata]
Title:Promises
TitleUnicode:Promises
Artist:Feint
ArtistUnicode:Feint
Creator:-Famous-
Version:Easy
Source:
Tags:dnb drum and bass
BeatmapID:427890
BeatmapSetID:177816

[Difficulty]
HPDrainRate:2
CircleSize:2
OverallDifficulty:2
ApproachRate:2
SliderMultiplier:0.599999999999999
SliderTickRate:1

[Events]
//Background and Video events
0,0,"bg.jpg",0,0
//Break Periods
2,110629,119904
//Storyboard Layer 0 (Background)
//Storyboard Layer 1 (Fail)
//Storyboard Layer 2 (Pass)
//Storyboard Layer 3 (Foreground)
//Storyboard Sound Samples
//Background Colour Transformations
3,100,163,162,255

[TimingPoints]
85,344.827586206897,4,2,0,45,1,0
55257,-100,4,2,0,45,0,0
66291,-100,4,1,1,55,0,1
86981,-100,4,1,1,55,0,0
132498,-100,4,1,1,55,0,1
153188,-100,4,1,1,55,0,0

[HitObjects]
256,192,40085,12,0,44222,0:0:0:0:
164,160,44912,5,0,0:0:0:0:
256,140,45602,1,0,0:0:0:0:
348,168,46291,1,0,0:0:0:0:
408,244,46981,6,0,P|324:304|188:300,1,240
148,280,48705,2,0,P|128:192|160:104,1,180
236,52,50429,1,0,0:0:0:0:
332,64,51119,1,0,0:0:0:0:
384,144,51809,1,0,0:0:0:0:
360,236,52498,6,0,B|236:268|256:124|100:168,1,240
100,184,54222,2,0,P|120:288|232:328,1,180
272,340,55947,1,0,0:0:0:0:
364,320,56636,1,0,0:0:0:0:
416,240,57326,1,0,0:0:0:0:
428,144,58016,6,0,P|356:148|220:40,1,240
180,40,59740,2,0,P|136:116|196:228,1,180
192,236,61119,2,0,P|216:280|208:320,1,59.9999999999999
228,336,61809,2,0,P|257:339|287:335,1,59.9999999999999
332,320,62498,2,0,P|356:300|368:260,1,59.9999999999999,0|0,0:0|0:0,0:0:0:0:
368,224,63188,1,0,0:0:0:0:
256,192,63533,12,8,66291,0:0:0:0:
400,64,66981,6,0,P|424:196|304:204,1,240,4|8,0:0|0:0,0:0:0:0:
324,132,69050,2,0,P|260:168|284:312,1,240,4|8,0:0|0:0,0:0:0:0:
376,336,71119,1,4,0:0:0:0:
464,300,71809,6,0,B|442:222|442:222|468:112|384:64,1,240,4|8,0:0|0:0,0:0:0:0:
308,60,73878,1,4,0:0:0:0:
216,80,74567,2,0,B|208:160|256:196|256:196|296:232|296:324,1,240,4|8,0:0|0:0,0:0:0:0:
208,340,76636,1,4,0:0:0:0:
116,312,77326,6,0,P|72:224|128:76,1,240,4|8,0:0|0:0,0:0:0:0:
200,64,79395,1,4,0:0:0:0:
292,92,80085,2,0,P|331:202|285:310,1,240,4|8,0:0|0:0,0:0:0:0:
196,340,82153,1,4,0:0:0:0:
108,304,82843,6,0,B|100:244|272:196|232:100,1,240,4|8,0:0|0:0,0:0:0:0:
308,52,84912,1,4,0:0:0:0:
400,76,85602,2,0,P|412:168|372:320,1,240,4|8,0:0|0:0,0:0:0:0:
116,276,88360,6,0,P|80:188|92:144,1,120,4|8,0:0|0:0,0:0:0:0:
136,88,89740,2,0,P|172:176|160:220,1,120,4|8,0:0|0:0,0:0:0:0:
224,276,91119,1,4,0:0:0:0:
320,292,91809,1,8,0:0:0:0:
412,264,92498,6,0,B|372:184|372:184|392:116|392:116|348:32,1,240,4|8,0:0|0:0,0:0:0:0:
260,32,94567,2,0,B|204:48|204:48|136:32,1,120,4|8,0:0|0:0,0:0:0:0:
56,76,95947,2,0,B|72:136|72:136|48:208,1,120,4|8,0:0|0:0,0:0:0:0:
84,284,97326,5,4,0:0:0:0:
160,344,98016,1,8,0:0:0:0:
256,336,98705,1,4,0:0:0:0:
352,352,99395,6,0,B|392:304|357:244|357:244|330:191|376:128,1,240,8|4,0:0|0:0,0:0:0:0:
324,48,101464,1,8,0:0:0:0:
232,76,102153,1,4,0:0:0:0:
140,44,102843,2,0,P|128:104|208:168,1,120,8|4,0:0|0:0,0:0:0:0:
248,188,104222,1,8,0:0:0:0:
256,192,104912,12,0,110429,0:0:0:0:
392,216,121464,5,0,0:0:0:0:
328,284,122153,1,0,0:0:0:0:
232,296,122843,1,0,0:0:0:0:
148,252,123533,1,0,0:0:0:0:
96,172,124222,6,0,P|184:112|344:124,1,240
356,136,125947,2,0,P|384:204|328:336,1,180
320,332,127326,2,0,L|260:340,1,59.9999999999999
212,336,128016,2,0,L|136:308,1,59.9999999999999,0|0,0:0|0:0,0:0:0:0:
116,288,128705,2,0,L|88:232,2,59.9999999999999
256,192,129740,12,8,132498,0:0:0:0:
280,96,133188,6,0,B|164:128|164:128|36:228,1,240,4|8,0:0|0:0,0:0:0:0:
108,288,135257,2,0,B|202:214|202:214|318:182,1,240,4|8,0:0|0:0,0:0:0:0:
412,208,137326,1,4,0:0:0:0:
496,160,138016,6,0,P|432:88|264:128,1,240,4|8,0:0|0:0,0:0:0:0:
200,108,140085,1,4,0:0:0:0:
116,64,140774,2,0,P|100:144|176:304,1,240,4|8,0:0|0:0,0:0:0:0:
248,316,142843,1,4,0:0:0:0:
332,268,143533,6,0,B|408:224|384:112|384:112|316:52,1,240,4|8,0:0|0:0,0:0:0:0:
244,48,145602,1,4,0:0:0:0:
148,52,146292,2,0,B|164:148|268:144|268:144|312:176|280:260,1,240,4|8,0:0|0:0,0:0:0:0:
252,296,148360,1,4,0:0:0:0:
160,324,149050,6,0,P|60:244|40:104,1,240,4|8,0:0|0:0,0:0:0:0:
88,60,151119,1,4,0:0:0:0:
188,24,151809,2,0,P|260:40|236:184,1,240,4|8,0:0|0:0,0:0:0:0:
72,300,154567,6,0,P|56:244|88:168,1,120,0|8,0:0|0:0,0:0:0:0:
164,128,155947,2,0,P|180:184|148:260,1,120,0|8,0:0|0:0,0:0:0:0:
228,328,157326,2,0,P|288:340|376:304,1,120,4|8,0:0|0:0,0:0:0:0:
416,244,158705,2,0,P|360:120|424:48,1,240,4|8,0:0|0:0,0:0:0:0:
312,32,160774,6,0,B|256:44|256:44|156:28,1,120,4|8,0:0|0:0,0:0:0:0:
100,84,162154,2,0,P|152:124|248:124,1,120,4|8,0:0|0:0,0:0:0:0:
296,192,163533,1,4,0:0:0:0:
308,300,164222,2,0,P|236:280|188:200,1,120,8|4,0:0|0:0,0:0:0:0:
204,140,165602,6,0,P|116:188|144:336,1,240,8|4,0:0|0:0,0:0:0:0:
220,356,167671,1,8,0:0:0:0:
328,340,168360,1,4,0:0:0:0:
416,276,169050,2,0,B|452:196|392:112,2,120,8|4|8,0:0|0:0|0:0,0:0:0:0:
256,192,171119,12,4,176636,0:0:0:0:
120,44,178016,6,0,P|140:172|72:248,1,240,4|8,0:0|0:0,0:0:0:0:
68,356,180085,1,8,0:0:0:0:
172,332,180774,2,0,B|351:350|351:350|428:328,1,240,4|8,0:0|0:0,0:0:0:0:
468,244,182843,1,8,0:0:0:0:
436,140,183533,6,0,P|296:136|200:60,1,240,4|8,0:0|0:0,0:0:0:0:
112,52,185602,1,8,0:0:0:0:
48,140,186291,2,0,B|84:236|84:236|168:352,2,240,8|4|8,0:0|0:0|0:0,0:0:0:0:
112,52,189740,5,8,0:0:0:0:
220,72,190429,2,0,P|296:160|208:200,1,240,4|8,0:0|0:0,0:0:0:0:
120,256,192498,1,8,0:0:0:0:
40,332,193188,6,0,P|128:352|280:280,1,240,4|8,0:0|0:0,0:0:0:0:
368,320,195257,1,8,0:0:0:0:
440,240,195947,2,0,P|360:188|372:56,2,240,4|8|4,0:0|0:0|0:0,0:0:0:0:
