osu file format v14

[General]
AudioFilename: Feint-Phosphor (Feat. Miyoki).mp3
AudioLeadIn: 0
PreviewTime: 53090
Countdown: 0
SampleSet: Normal
StackLeniency: 0.7
Mode: 0
LetterboxInBreaks: 0
WidescreenStoryboard: 0

[Editor]
Bookmarks: 15590,49340
DistanceSpacing: 1.5
BeatDivisor: 4
GridSize: 4
TimelineZoom: 1.7

[Metadata]
Title:Phosphor (Feat. Miyoki)
TitleUnicode:Phosphor (Feat. Miyoki)
Artist:Feint
ArtistUnicode:Feint
Creator:Secretpipe
Version:Insane
Source:
Tags:edm Kyubey
BeatmapID:622571
BeatmapSetID:255737

[Difficulty]
HPDrainRate:7
CircleSize:4
OverallDifficulty:8
ApproachRate:8.2
SliderMultiplier:2
SliderTickRate:1

[Events]
//Background and Video events
0,0,"BG.jpg",0,0
//Break Periods
2,45790,48620
//Storyboard Layer 0 (Background)
//Storyboard Layer 1 (Fail)
//Storyboard Layer 2 (Pass)
//Storyboard Layer 3 (Foreground)
//Storyboard Sound Samples

[TimingPoints]
590,468.75,4,2,0,45,1,0
30590,-133.333333333333,4,2,0,45,0,0
53090,-100,4,1,0,55,0,0
60590,-90.9090909090909,4,1,0,60,0,1
90590,-90.9090909090909,4,1,0,60,0,0

[Colours]
Combo1 : 168,224,234
Combo2 : 126,120,254
Combo3 : 226,154,241
Combo4 : 2,80,142

[HitObjects]
204,256,15590,6,0,L|105:268,1,100,0|0,3:0|0:0,0:0:0:0:
76,244,15941,1,2,3:0:0:0:
40,352,16175,1,2,0:0:0:0:
112,160,16527,2,0,P|156:172|224:152,1,100,0|0,3:0|0:0,0:0:0:0:
236,144,16879,1,2,0:0:0:0:
204,256,17113,1,0,0:0:0:0:
160,40,17465,6,0,L|259:28,1,100,0|0,3:0|0:0,0:0:0:0:
300,24,17816,1,2,3:0:0:0:
376,104,18050,1,2,0:0:0:0:
424,264,18402,2,0,L|312:248,1,100
292,272,18754,1,2,0:0:0:0:
352,360,18988,1,0,0:0:0:0:
192,320,19340,6,0,P|180:276|204:208,1,100
216,192,19691,1,2,3:0:0:0:
192,76,19925,1,2,0:0:0:0:
332,160,20277,2,0,L|480:188,2,150,0|2|0,0:0|0:0|0:0,0:0:0:0:
292,272,21215,6,0,P|249:296|199:297,1,100,0|0,3:0|0:0,0:0:0:0:
164,268,21566,1,2,3:0:0:0:
224,180,21800,1,2,0:0:0:0:
84,80,22152,2,0,L|72:200,1,100
68,220,22504,1,2,0:0:0:0:
164,268,22738,1,0,0:0:0:0:
300,188,23090,6,0,L|399:194,1,100,0|0,3:0|0:0,0:0:0:0:
436,216,23441,1,2,3:0:0:0:
472,104,23675,1,2,0:0:0:0:
280,104,24027,2,0,P|233:118|184:110,1,100,0|0,3:0|0:0,0:0:0:0:
144,84,24379,1,2,0:0:0:0:
224,24,24613,1,0,0:0:0:0:
300,188,24965,6,0,L|399:176,1,100,0|0,3:0|0:0,0:0:0:0:
428,152,25316,1,2,3:0:0:0:
504,228,25550,1,2,0:0:0:0:
348,312,25902,2,0,P|316:280|248:276,1,100
232,296,26254,1,2,0:0:0:0:
196,184,26488,1,0,0:0:0:0:
68,332,26840,6,0,L|80:233,1,100,0|0,3:0|0:0,0:0:0:0:
72,192,27191,1,2,3:0:0:0:
196,184,27425,1,2,0:0:0:0:
112,56,27777,2,0,L|288:80,2,150,0|2|0,0:0|0:0|0:0,0:0:0:0:
44,136,28715,2,0,P|88:160|144:152,1,100
168,132,29066,1,0,3:0:0:0:
248,216,29300,1,0,3:0:0:0:
252,68,29652,6,0,L|401:59,2,150,0|2|0,3:0|3:0|3:0,0:0:0:0:
168,132,30590,6,0,B|142:88|77:82|31:120|24:200|62:245|128:251|170:216|170:216|182:235|183:259|183:259|213:241|250:248|272:281,1,450.000017166138,4|2,1:0|0:0,0:0:0:0:
262,268,32465,5,2,0:0:0:0:
262,268,32933,1,2,0:0:0:0:
262,268,33402,1,2,0:0:0:0:
262,268,33871,1,2,0:0:0:0:
280,288,34340,6,0,P|272:252|280:215,1,75.0000028610231,2|0,0:0|0:0,0:0:0:0:
356,256,34808,2,0,P|364:292|356:328,1,75.0000028610231,2|0,0:0|0:0,0:0:0:0:
167,222,35277,2,0,L|280:216,2,112.500004291535,2|0|0,0:0|0:0|0:0,0:0:0:0:
84,200,36215,5,2,0:0:0:0:
108,280,36449,1,0,0:0:0:0:
167,222,36683,2,0,P|184:168|156:88,1,112.500004291535,2|0,0:0|0:0,0:0:0:0:
156,96,37152,1,2,0:0:0:0:
228,60,37386,1,0,0:0:0:0:
264,132,37621,2,0,L|352:116,1,75.0000028610231,2|0,0:0|0:0,0:0:0:0:
416,104,38090,5,0,0:0:0:0:
448,176,38324,2,0,P|472:232|452:292,1,112.500004291535,2|0,0:0|0:0,0:0:0:0:
320,240,39027,1,0,0:0:0:0:
256,296,39261,2,0,L|120:276,1,112.500004291535,2|0,0:0|0:0,0:0:0:0:
16,208,39965,2,0,L|96:204,1,75.0000028610231
140,144,40433,1,2,0:0:0:0:
216,140,40668,1,0,0:0:0:0:
176,76,40902,2,0,P|140:68|104:76,1,75.0000028610231,2|0,0:0|0:0,0:0:0:0:
140,144,41371,2,0,P|148:180|140:216,1,75.0000028610231,2|0,0:0|0:0,0:0:0:0:
88,280,41840,5,2,0:0:0:0:
256,136,42308,1,2,0:0:0:0:
424,280,42777,1,2,0:0:0:0:
256,136,43246,1,2,0:0:0:0:
452,72,43715,2,0,L|372:60,1,75.0000028610231,2|0,0:0|0:0,0:0:0:0:
330,125,44183,2,0,L|255:136,1,75.0000028610231,2|0,0:0|0:0,0:0:0:0:
196,80,44652,2,2,L|116:68,1,75.0000028610231,2|0,0:0|0:0,0:0:0:0:
64,128,45121,1,2,0:0:0:0:
80,208,45355,1,0,0:0:0:0:
100,288,45590,5,4,1:0:0:0:
112,144,49340,5,0,0:0:0:0:
188,96,49574,2,0,P|200:156|172:224,1,112.500004291535
36,196,50277,2,0,P|24:136|52:68,1,112.500004291535
188,96,50980,1,0,0:0:0:0:
264,88,51215,1,0,0:0:0:0:
324,140,51449,2,0,L|440:128,1,112.500004291535
402,278,52152,2,0,L|286:266,1,112.500004291535
256,192,52738,1,0,0:0:0:0:
400,180,53090,6,0,P|408:236|398:293,1,100,4|0,0:0|0:0,0:0:0:0:
256,192,53558,2,0,P|248:136|257:78,1,100,2|0,0:3|0:0,0:0:0:0:
280,328,54027,2,0,P|224:336|166:326,1,100,2|0,0:3|0:0,0:0:0:0:
356,88,54496,2,0,P|412:80|469:89,1,100,2|0,0:3|0:0,0:0:0:0:
256,192,54965,5,2,0:3:0:0:
148,104,55199,1,0,0:0:0:0:
120,292,55433,1,2,0:3:0:0:
8,180,55668,1,0,0:0:0:0:
256,192,55902,1,2,0:3:0:0:
476,336,56136,1,0,0:0:0:0:
272,356,56371,1,2,0:3:0:0:
476,116,56605,1,0,0:0:0:0:
264,120,56840,6,0,L|223:88,3,50,2|0|0|0,0:3|0:0|0:0|0:0,0:0:0:0:
344,120,57308,2,0,L|322:73,3,50,2|0|0|0,0:3|0:0|0:0|0:0,0:0:0:0:
416,160,57777,2,0,L|409:65,3,50,2|0|0|0,0:3|0:0|0:0|0:0,0:0:0:0:
480,216,58246,2,0,L|488:165,3,50,2|0|0|0,0:3|0:0|0:0|0:0,0:0:0:0:
460,300,58715,5,2,0:3:0:0:
430,313,58832,1,0,0:0:0:0:
397,318,58949,1,0,0:0:0:0:
365,314,59066,1,0,0:0:0:0:
328,308,59183,1,2,0:3:0:0:
296,304,59300,1,0,0:0:0:0:
263,309,59417,1,0,0:0:0:0:
233,322,59534,1,0,0:0:0:0:
192,336,59652,6,0,P|172:294|190:222,1,100,8|2,0:0|0:3,0:0:0:0:
208,172,60121,2,0,P|219:119|198:69,1,100,8|2,0:0|0:3,0:0:0:0:
116,128,60590,5,4,0:0:0:0:
312,112,60824,1,2,3:0:0:0:
448,172,61058,2,0,P|440:248|456:288,1,110.000003356934,8|2,0:0|3:0,0:0:0:0:
488,332,61410,2,0,P|408:313|326:317,1,165.000005035401,8|2,0:0|0:3,0:0:0:0:
220,352,61996,1,8,0:0:0:0:
80,220,62230,1,2,3:0:0:0:
56,336,62465,5,4,0:2:0:0:
228,224,62699,1,2,3:0:0:0:
308,148,62933,2,0,P|340:228|312:300,2,165.000005035401,8|8|2,0:0|0:0|0:3,0:0:0:0:
204,124,63871,1,8,0:0:0:0:
204,124,63988,1,4,0:3:0:0:
24,232,64340,6,0,L|133:235,1,110.000003356934,4|2,0:2|3:0,0:0:0:0:
268,240,64808,1,8,0:0:0:0:
444,328,65160,1,8,0:0:0:0:
404,136,65511,2,0,P|412:80|372:16,1,110.000003356934,2|8,0:3|0:0,0:0:0:0:
336,92,65863,1,0,0:0:0:0:
184,200,66215,6,0,P|165:253|192:323,1,110.000003356934,4|2,0:2|3:0,0:0:0:0:
336,92,66683,1,8,0:0:0:0:
72,140,66918,1,2,3:0:0:0:
72,140,67035,1,8,0:0:0:0:
72,140,67152,1,0,3:0:0:0:
216,372,67386,1,2,0:3:0:0:
212,168,67621,1,8,0:0:0:0:
64,324,67855,1,2,3:0:0:0:
312,240,68090,5,4,0:0:0:0:
228,60,68324,1,2,3:0:0:0:
312,240,68558,2,0,P|377:226|353:147,2,165.000005035401,8|8|2,0:0|0:0|0:3,0:0:0:0:
184,200,69496,1,8,0:0:0:0:
88,80,69730,1,2,3:0:0:0:
8,212,69965,1,4,0:2:0:0:
228,60,70199,1,2,3:0:0:0:
380,92,70433,6,0,B|357:172|417:157|377:252,1,165.000005035401,8|8,0:0|0:0,0:0:0:0:
336,324,70902,1,0,0:0:0:0:
220,312,71136,2,0,P|160:308|96:320,1,110.000003356934,2|8,0:3|0:0,0:0:0:0:
32,344,71488,1,4,0:3:0:0:
20,172,71840,6,0,P|27:117|23:62,1,110.000003356934,4|2,0:2|3:0,0:0:0:0:
128,112,72308,2,0,P|121:195|133:278,2,165.000005035401,8|8|2,0:0|0:0|0:3,0:0:0:0:
264,28,73246,1,8,0:0:0:0:
264,28,73363,1,0,0:0:0:0:
260,183,73715,6,0,P|266:239|247:298,1,110.000003356934,4|2,0:2|3:0,0:0:0:0:
160,232,74183,1,8,0:0:0:0:
200,116,74418,2,0,P|253:104|307:112,1,110.000003356934,2|0,3:0|3:0,0:0:0:0:
460,144,74886,1,2,0:3:0:0:
332,36,75121,1,0,0:0:0:0:
294,29,75238,1,0,0:0:0:0:
256,28,75355,1,0,0:0:0:0:
217,30,75472,1,0,0:0:0:0:
179,38,75589,1,0,0:0:0:0:
32,88,75824,5,2,3:0:0:0:
168,220,76058,2,0,P|272:201|355:231,2,165.000005035401,8|8|2,0:0|0:0|0:3,0:0:0:0:
16,292,76996,1,8,0:0:0:0:
248,296,77230,1,2,3:0:0:0:
348,236,77465,6,0,P|361:288|350:342,1,110.000003356934,4|2,0:2|3:0,0:0:0:0:
451,359,77933,2,0,P|467:279|448:200,1,165.000005035401,8|8,0:0|0:0,0:0:0:0:
408,132,78402,1,0,0:0:0:0:
264,112,78636,1,2,0:3:0:0:
150,209,78871,1,8,0:0:0:0:
48,184,79105,1,2,3:0:0:0:
120,108,79340,6,0,P|147:155|151:209,1,110.000003356934,4|2,0:2|3:0,0:0:0:0:
232,264,79808,2,0,P|308:237|389:245,2,165.000005035401,8|8|2,0:0|0:0|0:3,0:0:0:0:
144,328,80746,1,8,0:0:0:0:
320,348,80980,1,2,3:0:0:0:
304,148,81215,6,0,L|304:36,1,110.000003356934,4|2,0:2|3:0,0:0:0:0:
228,116,81683,2,0,B|232:184|232:184|184:164|124:200,1,165.000005035401,8|8,0:0|0:0,0:0:0:0:
72,216,82152,1,0,0:0:0:0:
16,352,82386,1,2,0:3:0:0:
188,320,82621,1,8,0:0:0:0:
360,244,82855,1,2,3:0:0:0:
368,44,83090,5,4,0:0:0:0:
480,256,83324,1,2,3:0:0:0:
416,156,83558,2,0,B|321:116|336:176|251:152,1,165.000005035401,8|8,0:0|0:0,0:0:0:0:
184,144,84027,1,0,0:0:0:0:
44,116,84261,1,2,0:3:0:0:
208,24,84496,1,8,0:0:0:0:
156,248,84730,1,2,3:0:0:0:
104,340,84965,6,0,P|160:352|232:320,1,110.000003356934,4|2,0:2|3:0,0:0:0:0:
272,248,85433,2,0,P|257:180|295:94,2,165.000005035401,8|8|2,0:0|0:0|0:3,0:0:0:0:
316,348,86371,1,8,0:0:0:0:
388,264,86605,1,2,3:0:0:0:
340,164,86840,2,0,P|363:123|421:98,1,110.000003356934,4|2,0:2|3:0,0:0:0:0:
296,8,87308,2,0,P|230:56|206:133,1,165.000005035401,8|8,0:0|0:0,0:0:0:0:
208,204,87777,1,0,0:0:0:0:
204,316,88011,1,2,0:3:0:0:
80,208,88246,1,8,0:0:0:0:
32,364,88480,1,2,3:0:0:0:
204,316,88715,6,0,P|260:328|332:296,1,110.000003356934,4|2,0:2|3:0,0:0:0:0:
308,84,89183,2,0,P|252:72|180:104,1,110.000003356934,8|2,0:0|3:0,0:0:0:0:
116,140,89535,1,8,0:0:0:0:
204,316,89886,1,2,0:3:0:0:
256,192,90121,5,8,0:0:0:0:
256,192,90238,1,8,2:1:0:0:
256,192,90355,1,8,3:1:0:0:
256,192,90472,1,8,2:1:0:0:
256,192,90589,1,4,0:0:0:0:
