osu file format v13

[General]
AudioFilename: Feint+-+My+Sunset+(Original+Mix)(music.nur.kz).mp3
AudioLeadIn: 0
PreviewTime: 83320
Countdown: 1
SampleSet: Normal
StackLeniency: 0.7
Mode: 0
LetterboxInBreaks: 1
WidescreenStoryboard: 1

[Editor]
Bookmarks: 67788,84729,169082,225906,271082
DistanceSpacing: 1.2
BeatDivisor: 4
GridSize: 4
TimelineZoom: 3.250001

[Metadata]
Title:My Sunset (Original Mix)
TitleUnicode:My Sunset (Original Mix)
Artist:Feint
ArtistUnicode:Feint
Creator:ntaig
Version:Insane
Source:
Tags:
BeatmapID:443286
BeatmapSetID:184021

[Difficulty]
HPDrainRate:6
CircleSize:4
OverallDifficulty:7
ApproachRate:9
SliderMultiplier:1.4
SliderTickRate:1

[Events]
//Background and Video events
0,0,"mountain-fantasy-landscape-osu.jpg",0,0
//Break Periods
2,15753,67188
2,71518,84129
2,90400,225306
//Storyboard Layer 0 (Background)
//Storyboard Layer 1 (Fail)
//Storyboard Layer 2 (Pass)
//Storyboard Layer 3 (Foreground)
//Storyboard Sound Samples
//Background Colour Transformations
3,100,163,162,255

[TimingPoints]
24,352.941176470588,4,1,0,30,1,0
67788,-133.333333333333,4,1,0,30,0,0
69200,-100,4,1,0,30,0,0
87553,-133.333333333333,4,1,0,30,0,0

[Colours]
Combo1 : 149,151,66
Combo2 : 83,123,198
Combo3 : 63,112,88
Combo4 : 148,78,104

[HitObjects]
356,344,24,5,0,0:0:0:0:
440,200,376,1,0,0:0:0:0:
348,60,729,2,0,L|264:64,1,70
300,144,1082,2,0,L|216:152,1,70
152,176,1435,2,0,B|124:208|128:240|128:240|132:264|164:300,1,140
240,332,1965,1,0,0:0:0:0:
332,300,2141,1,0,0:0:0:0:
408,224,2318,1,0,0:0:0:0:
448,112,2494,2,0,P|416:76|388:68,1,70
312,52,2847,1,0,0:0:0:0:
152,104,3200,5,0,0:0:0:0:
68,252,3553,2,0,L|108:316,1,70
160,248,3906,2,0,L|212:296,1,70
320,344,4259,2,0,B|388:360|452:316|456:280,1,140
468,220,4788,1,0,0:0:0:0:
408,144,4965,1,0,0:0:0:0:
324,84,5141,1,0,0:0:0:0:
216,36,5318,2,0,P|172:60|160:100,1,70,0|0,0:0|0:0,0:0:0:0:
152,160,5671,1,0,0:0:0:0:
324,84,6023,5,0,0:0:0:0:
452,192,6376,1,0,0:0:0:0:
344,320,6729,1,0,0:0:0:0:
176,328,7082,2,0,B|148:304|128:288|112:244|132:192,1,140
180,140,7612,1,0,0:0:0:0:
248,88,7788,1,0,0:0:0:0:
324,52,7965,1,0,0:0:0:0:
404,32,8141,2,0,P|432:72|440:100,2,70,0|0|0,0:0|0:0|0:0,0:0:0:0:
360,272,8847,5,0,0:0:0:0:
196,300,9200,1,0,0:0:0:0:
56,208,9553,1,0,0:0:0:0:
164,80,9906,1,0,0:0:0:0:
248,80,10082,1,0,0:0:0:0:
132,156,10259,1,0,0:0:0:0:
272,156,10435,1,0,0:0:0:0:
104,228,10612,1,0,0:0:0:0:
288,232,10788,2,0,P|332:224|360:208,1,70,0|0,0:0|0:0,0:0:0:0:
440,140,11141,1,0,0:0:0:0:
360,60,11318,2,0,P|308:40|212:44,1,140
72,132,12023,6,0,P|68:180|80:204,1,70
156,228,12376,2,0,P|168:260|192:288,1,70,0|0,0:0|0:0,0:0:0:0:
268,324,12729,1,0,0:0:0:0:
424,264,13082,1,0,0:0:0:0:
344,216,13259,1,0,0:0:0:0:
420,160,13435,1,0,0:0:0:0:
348,108,13612,1,0,0:0:0:0:
272,60,13788,2,0,P|232:88|212:116,2,70,0|0|0,0:0|0:0|0:0,0:0:0:0:
260,336,14494,1,0,0:0:0:0:
424,264,14847,5,0,0:0:0:0:
360,152,15200,2,0,P|316:112|284:100,1,70
180,64,15553,1,0,0:0:0:0:
68,112,67788,6,0,P|108:72|172:56,1,105.000004005432
328,56,68494,2,0,P|388:84|420:124,1,105.000004005432
420,264,69200,2,0,P|384:296|296:328,1,140
180,300,69729,1,0,0:0:0:0:
224,204,69906,1,0,0:0:0:0:
144,136,70082,1,0,0:0:0:0:
216,56,70259,1,0,0:0:0:0:
436,164,70612,2,0,P|408:248|372:284,1,140,0|0,0:0|0:0,0:0:0:0:
100,192,71318,5,0,0:0:0:0:
52,100,84729,5,0,0:0:0:0:
136,40,85082,1,0,0:0:0:0:
104,176,85435,1,0,0:0:0:0:
204,108,85788,1,0,0:0:0:0:
156,260,86141,1,0,0:0:0:0:
284,188,86494,1,0,0:0:0:0:
224,344,86847,1,0,0:0:0:0:
364,272,87200,1,0,0:0:0:0:
404,144,87553,2,0,L|424:76,2,52.5000020027161,0|0|0,0:0|0:0|0:0,0:0:0:0:
320,120,88082,1,0,0:0:0:0:
236,72,88259,1,0,0:0:0:0:
144,48,88435,1,0,0:0:0:0:
48,96,88612,2,0,L|32:148,2,52.5000020027161,0|0|0,0:0|0:0|0:0,0:0:0:0:
172,100,89053,1,0,0:0:0:0:
112,104,89141,1,0,0:0:0:0:
68,120,89229,1,0,0:0:0:0:
40,148,89318,1,0,0:0:0:0:
32,192,89406,1,0,0:0:0:0:
36,224,89494,1,0,0:0:0:0:
56,256,89582,1,0,0:0:0:0:
76,280,89671,1,0,0:0:0:0:
100,304,89759,1,0,0:0:0:0:
124,320,89847,1,0,0:0:0:0:
160,344,89935,1,0,0:0:0:0:
184,352,90023,1,0,0:0:0:0:
212,360,90112,1,0,0:0:0:0:
240,360,90200,1,0,0:0:0:0:
256,192,225906,12,0,226965,0:0:0:0:
