osu file format v14

[General]
AudioFilename: Feint - My Sunset - Original Mix.mp3
AudioLeadIn: 0
PreviewTime: 180718
Countdown: 0
SampleSet: Normal
StackLeniency: 0.7
Mode: 0
LetterboxInBreaks: 1
WidescreenStoryboard: 1

[Editor]
Bookmarks: 84721,90368,112955,135544,146837,169427,180721,203308,225897,228721,248484,271074,282367,293662
DistanceSpacing: 1.1
BeatDivisor: 4
GridSize: 4
TimelineZoom: 2.3

[Metadata]
Title:My Sunset
TitleUnicode:My Sunset
Artist:Feint
ArtistUnicode:Feint
Creator:Hordon
Version:Normal
Source:
Tags:dnb drum and bass
BeatmapID:669001
BeatmapSetID:247290

[Difficulty]
HPDrainRate:4
CircleSize:3
OverallDifficulty:3
ApproachRate:4
SliderMultiplier:1
SliderTickRate:1

[Events]
//Background and Video events
0,0,"Konachan.com - 202225 mks nobody original scenic sunset.jpg",0,0
//Break Periods
2,135742,145516
2,155507,156810
//Storyboard Layer 0 (Background)
//Storyboard Layer 1 (Fail)
//Storyboard Layer 2 (Pass)
//Storyboard Layer 3 (Foreground)
//Storyboard Sound Samples

[TimingPoints]
64954,352.941176470588,4,2,0,60,1,0
67778,-133.333333333333,4,1,1,60,0,0
79072,-133.333333333333,4,1,1,60,0,0
85953,-133.333333333333,4,1,1,70,0,0
88953,-100,4,1,1,40,0,0
89307,-100,4,1,1,50,0,0
89660,-100,4,1,1,60,0,0
90013,-100,4,1,1,70,0,0
90365,-100,4,1,1,70,0,1
90454,-100,4,1,1,70,0,0
146836,-166.666666666667,4,1,1,70,0,0
146837,-166.666666666667,4,2,0,30,0,0
147365,-166.666666666667,4,2,0,20,0,0
149484,-166.666666666667,4,2,0,30,0,0
150190,-166.666666666667,4,2,0,20,0,0
158043,-166.666666666667,4,2,0,15,0,0
158659,-166.666666666667,4,2,0,15,0,0
160601,-166.666666666667,4,2,0,15,0,0
161483,-166.666666666667,4,2,0,15,0,0
163424,-166.666666666667,4,2,0,15,0,0
167837,-166.666666666667,4,1,1,20,0,0
169424,-133.333333333333,4,1,1,20,0,0
180718,-100,4,1,1,80,0,0
225719,-133.333333333333,4,1,1,80,0,0
225896,-100,4,1,1,30,0,0
226071,-166.666666666667,4,2,0,40,0,0
226424,-166.666666666667,4,2,0,30,0,0
226777,-166.666666666667,4,2,0,20,0,0
227130,-166.666666666667,4,2,0,40,0,0
227924,-166.666666666667,4,2,0,20,0,0
228719,-100,4,1,1,70,0,0
248483,-100,4,1,1,70,0,1
269659,-100,4,1,1,40,0,0
270012,-100,4,1,1,50,0,0
270365,-100,4,1,1,60,0,0
270718,-100,4,1,1,70,0,0
271071,-100,4,1,1,70,0,1
271248,-100,4,1,1,70,0,0
293659,-100,4,1,1,70,0,1
294012,-100,4,1,1,70,0,0

[Colours]
Combo1 : 255,0,0
Combo2 : 255,128,128
Combo3 : 255,128,64
Combo4 : 255,128,0

[HitObjects]
256,192,64954,12,0,67778,0:0:0:0:
60,72,68484,5,0,0:0:0:0:
60,72,69190,1,0,0:0:0:0:
60,72,69895,2,0,P|112:128|192:148,1,150.000005722046,0|4,0:0|0:2,0:0:0:0:
180,148,71306,5,0,0:0:0:0:
180,148,72013,1,0,0:0:0:0:
180,148,72718,2,0,P|252:144|325:179,1,150.000005722046,0|4,0:0|0:2,0:0:0:0:
321,176,74130,5,0,0:0:0:0:
321,176,74837,1,0,0:0:0:0:
321,176,75542,2,0,P|392:244|452:256,1,150.000005722046,0|4,0:0|0:2,0:0:0:0:
440,255,76954,5,0,0:0:0:0:
440,255,77659,2,0,L|396:336,1,75.0000028610231,0|0,0:0|2:0,0:0:0:0:
404,320,78365,2,0,L|316:336,1,75.0000028610231,0|2,0:0|2:0,0:0:0:0:
360,256,79072,5,4,0:2:0:0:
348,240,79425,1,0,2:0:0:0:
336,224,79778,1,0,0:0:0:0:
324,208,80131,1,0,2:0:0:0:
264,264,80483,6,0,B|212:336|116:320|116:320,1,150.000005722046,0|0,0:2|0:0,0:0:0:0:
132,321,81542,1,2,2:2:0:0:
100,244,81895,5,4,0:2:0:0:
112,228,82248,1,0,2:0:0:0:
124,212,82601,1,0,0:0:0:0:
136,196,82954,1,0,2:0:0:0:
212,164,83306,6,0,B|264:236|360:220|360:220,1,150.000005722046,0|0,0:2|0:0,0:0:0:0:
343,221,84365,1,2,2:2:0:0:
412,172,84719,5,4,0:2:0:0:
412,172,85072,1,0,0:0:0:0:
436,92,85425,1,0,0:0:0:0:
436,92,85778,1,0,0:0:0:0:
364,48,86130,2,0,L|288:68,1,75.0000028610231,0|0,0:0|0:0,0:0:0:0:
272,148,86836,2,0,L|192:168,1,75.0000028610231,0|0,0:0|0:0,0:0:0:0:
256,192,87542,12,0,90012,0:0:0:0:
216,44,90365,6,0,B|188:92|128:88|128:88,1,100,12|2,0:0|0:2,0:0:0:0:
20,100,91072,2,0,P|56:136|68:200,1,100,0|2,0:0|0:2,0:0:0:0:
72,292,91778,6,0,P|112:256|172:248,1,100,8|2,0:0|0:2,0:0:0:0:
204,272,92306,2,0,P|244:332|321:339,1,150,0|2,0:0|0:2,0:0:0:0:
392,260,93189,6,0,B|348:224|292:240|292:240,1,100,8|2,0:0|0:2,0:0:0:0:
224,156,93896,2,0,P|271:135|336:138,1,100,0|2,0:0|0:2,0:0:0:0:
360,32,94602,6,0,P|388:68|456:88,1,100,8|2,0:0|0:2,0:0:0:0:
456,140,95130,2,0,P|468:212|412:268,1,150,0|2,0:0|0:2,0:0:0:0:
368,284,95837,1,2,0:2:0:0:
312,276,96013,6,0,P|244:280|176:332,2,150,8|0|2,0:0|0:0|0:2,0:0:0:0:
236,196,97425,2,0,P|236:248|212:304,1,100,8|2,0:0|0:2,0:0:0:0:
168,276,97954,2,0,P|105:308|21:300,1,150,0|2,0:0|0:2,0:0:0:0:
74,190,98837,6,0,L|126:94,1,100,8|2,0:0|0:2,0:0:0:0:
276,52,99718,2,0,L|248:112,1,50,8|2,0:0|0:2,0:0:0:0:
256,208,100248,2,0,P|288:248|352:276,3,100,8|2|2|2,0:0|0:2|0:2|0:2,0:0:0:0:
368,168,101660,6,0,B|436:180|468:120|468:120,1,100,12|2,0:0|0:2,0:0:0:0:
485,28,102366,2,0,P|433:25|388:55,1,100,0|2,0:0|0:2,0:0:0:0:
368,168,103071,6,0,P|328:136|264:132,1,100,8|2,0:0|0:2,0:0:0:0:
261,180,103601,2,0,P|225:220|177:228,1,100,0|8,0:0|0:0,0:0:0:0:
128,216,104130,1,2,0:2:0:0:
40,148,104484,6,0,P|20:108|28:40,2,100,8|2|0,0:0|0:2|0:0,0:0:0:0:
144,116,105542,1,2,0:2:0:0:
232,184,105895,6,0,P|276:188|328:236,1,100,8|2,0:0|0:2,0:0:0:0:
316,164,106424,2,0,P|388:160|440:104,1,150,0|2,0:0|0:2,0:0:0:0:
448,52,107131,1,2,0:2:0:0:
408,88,107307,6,0,B|388:140|316:136,1,100,8|2,0:0|0:2,0:0:0:0:
348,288,108190,1,8,0:0:0:0:
348,288,108366,2,0,B|354:283|290:360|156:324,1,200,2|2,0:2|0:2,0:0:0:0:
108,344,109248,2,0,B|102:349|97:259|180:208,1,150,0|2,0:0|0:2,0:0:0:0:
68,172,110131,6,0,P|48:128|48:84,2,75,8|2|2,0:0|0:2|0:2,0:0:0:0:
168,124,111012,2,0,P|200:120|224:128,1,50,8|2,0:0|0:2,0:0:0:0:
324,156,111543,5,8,0:0:0:0:
304,264,111895,1,2,0:2:0:0:
412,284,112248,1,2,0:2:0:0:
432,176,112601,1,2,0:2:0:0:
324,156,112954,6,0,B|264:144|228:196|228:196,1,100,12|2,0:0|0:2,0:0:0:0:
128,160,113659,2,0,P|152:116|208:88,1,100,0|2,0:0|0:2,0:0:0:0:
296,48,114365,6,0,P|316:88|368:120,1,100,8|2,0:0|0:2,0:0:0:0:
416,108,114895,2,0,P|444:172|408:260,1,150,0|2,0:0|0:2,0:0:0:0:
412,356,115778,6,0,B|344:356|328:292|328:292,1,100,8|2,0:0|0:2,0:0:0:0:
236,256,116483,2,0,P|276:208|328:204,1,100,0|2,0:0|0:2,0:0:0:0:
400,136,117189,6,0,P|348:128|304:88,1,100,8|2,0:0|0:2,0:0:0:0:
328,48,117719,2,0,P|292:92|200:112,1,150,0|2,0:0|0:2,0:0:0:0:
148,104,118424,1,2,0:2:0:0:
104,136,118602,6,0,P|48:196|44:280,2,150,8|0|2,0:0|0:0|0:2,0:0:0:0:
134,241,120012,2,0,P|77:244|32:266,1,100,8|2,0:0|0:2,0:0:0:0:
67,309,120543,2,0,P|117:351|210:351,1,150,0|2,0:0|0:2,0:0:0:0:
292,284,121424,6,0,L|396:304,1,100,8|2,0:0|0:2,0:0:0:0:
492,176,122307,2,0,L|432:168,1,50,8|2,0:0|0:2,0:0:0:0:
332,164,122837,2,0,P|296:124|296:64,3,100,8|2|2|2,0:0|0:2|0:2|0:2,0:0:0:0:
400,84,124249,6,0,B|452:64|496:96|496:96,1,100,12|2,0:0|0:2,0:0:0:0:
424,179,124954,2,0,L|436:287,1,100,0|2,0:0|0:2,0:0:0:0:
344,336,125660,6,0,L|328:220,1,100,8|2,0:0|0:2,0:0:0:0:
312,288,126190,2,0,L|296:176,1,100,0|8,0:0|0:0,0:0:0:0:
268,144,126719,1,2,0:2:0:0:
188,220,127071,6,0,P|144:248|84:244,2,100,8|2|0,0:0|0:2|0:0,0:0:0:0:
268,144,128131,1,2,0:2:0:0:
348,220,128484,6,0,P|388:248|460:248,1,100,8|2,0:0|0:2,0:0:0:0:
468,208,129013,2,0,P|492:148|468:52,1,150,0|2,0:0|0:2,0:0:0:0:
428,44,129718,1,2,0:2:0:0:
392,84,129896,6,0,B|352:128|276:104|276:104,1,100,8|2,0:0|0:2,0:0:0:0:
320,272,130777,1,8,0:0:0:0:
320,272,130954,2,0,B|326:267|262:344|128:308,1,200,2|2,0:2|0:2,0:0:0:0:
92,344,131837,2,0,B|86:349|32:288|52:208,1,150,0|2,0:0|0:2,0:0:0:0:
132,132,132718,6,0,P|152:168|152:220,2,75,8|2|2,0:0|0:2|0:2,0:0:0:0:
228,84,133601,2,0,P|220:52|220:28,1,50,8|2,0:0|0:2,0:0:0:0:
328,52,134130,5,8,0:0:0:0:
488,176,134837,1,2,0:2:0:0:
296,260,135542,5,4,0:0:0:0:
144,272,146836,6,0,L|84:288,3,59.9999981689454,2|0|0|0,0:0|0:0|0:0|0:0,0:0:0:0:
376,192,149659,6,0,L|436:208,3,59.9999981689454,2|0|0|0,0:0|0:0|0:0|0:0,0:0:0:0:
116,116,152484,5,2,0:0:0:0:
136,156,153895,1,0,0:0:0:0:
156,196,155307,1,2,0:0:0:0:
144,92,158130,6,0,L|120:24,3,59.9999981689454,4|0|0|0,0:0|0:0|0:0|0:0,0:0:0:0:
296,240,160954,6,0,L|276:304,3,59.9999981689454
336,40,163778,5,4,0:0:0:0:
352,80,165190,1,0,0:0:0:0:
368,120,166601,1,0,0:0:0:0:
436,284,168012,6,0,B|436:332|384:356|328:340|312:292|328:240|364:228|400:240,1,239.999992675781,0|12,0:0|0:0,0:0:0:0:
395,238,169778,1,0,0:3:0:0:
324,136,170306,2,0,L|352:176,1,37.5000014305115,8|0,0:0|0:3,0:0:0:0:
276,208,170836,2,0,L|200:192,1,75.0000028610231,8|0,0:0|0:0,0:0:0:0:
80,172,171719,2,0,L|52:216,1,37.5000014305115,8|0,0:0|0:0,0:0:0:0:
80,284,172248,6,0,L|168:304,1,75.0000028610231,12|0,0:0|0:0,0:0:0:0:
268,348,173130,2,0,L|248:300,1,37.5000014305115,4|8,0:3|0:0,0:0:0:0:
308,252,173659,2,0,L|356:180,1,75.0000028610231,8|0,0:0|0:0,0:0:0:0:
472,160,174543,2,0,L|424:152,1,37.5000014305115,8|0,0:0|0:0,0:0:0:0:
392,84,175071,5,12,0:0:0:0:
392,84,175424,1,0,0:0:0:0:
186,221,176483,2,0,L|217:342,2,112.500004291535,8|0|0,0:0|0:0|0:0,0:0:0:0:
256,192,177895,12,0,180366,0:0:0:0:
296,340,180718,6,0,B|324:292|384:296|384:296,1,100,12|2,0:0|0:2,0:0:0:0:
492,284,181425,2,0,P|456:248|444:184,1,100,0|2,0:0|0:2,0:0:0:0:
440,92,182131,6,0,P|400:128|340:136,1,100,8|2,0:0|0:2,0:0:0:0:
308,112,182659,2,0,P|268:52|191:45,1,150,0|2,0:0|0:2,0:0:0:0:
120,124,183542,6,0,B|164:160|220:144|220:144,1,100,8|2,0:0|0:2,0:0:0:0:
288,228,184249,2,0,P|241:249|176:246,1,100,0|2,0:0|0:2,0:0:0:0:
152,352,184954,6,0,P|124:316|56:296,1,100,8|2,0:0|0:2,0:0:0:0:
56,244,185483,2,0,P|44:172|100:116,1,150,0|2,0:0|0:2,0:0:0:0:
144,100,186190,1,2,0:2:0:0:
200,108,186366,6,0,P|268:104|336:52,2,150,8|0|2,0:0|0:0|0:2,0:0:0:0:
276,188,187778,2,0,P|276:136|300:80,1,100,8|2,0:0|0:2,0:0:0:0:
342,114,188307,2,0,P|409:75|492:86,1,150,0|2,0:0|0:2,0:0:0:0:
440,196,189190,6,0,L|388:292,1,100,8|2,0:0|0:2,0:0:0:0:
236,332,190071,2,0,L|264:272,1,50,8|2,0:0|0:2,0:0:0:0:
256,176,190601,2,0,P|224:136|160:108,3,100,8|2|2|2,0:0|0:2|0:2|0:2,0:0:0:0:
144,216,192013,6,0,B|76:204|44:264|44:264,1,100,4|2,0:0|0:2,0:0:0:0:
42,358,192719,2,0,P|103:350|134:316,1,100,0|2,0:0|0:2,0:0:0:0:
144,216,193424,6,0,P|184:248|248:252,1,100,8|2,0:0|0:2,0:0:0:0:
251,203,193954,2,0,P|287:163|335:155,1,100,0|8,0:0|0:0,0:0:0:0:
384,168,194483,1,2,0:2:0:0:
472,236,194837,6,0,P|492:276|484:344,2,100,8|2|0,0:0|0:2|0:0,0:0:0:0:
368,268,195895,1,2,0:2:0:0:
280,200,196248,6,0,P|236:196|184:148,1,100,8|2,0:0|0:2,0:0:0:0:
196,220,196777,2,0,P|124:224|72:280,1,150,0|2,0:0|0:2,0:0:0:0:
64,332,197484,1,2,0:2:0:0:
104,296,197660,6,0,B|124:244|196:248,1,100,8|2,0:0|0:2,0:0:0:0:
164,96,198543,1,8,0:0:0:0:
164,96,198719,2,0,B|158:101|222:24|356:60,1,200,2|2,0:2|0:2,0:0:0:0:
404,40,199601,2,0,B|410:35|410:125|332:176,1,150,0|2,0:0|0:2,0:0:0:0:
444,212,200484,6,0,P|464:256|464:300,2,75,8|0|0,0:0|0:0|0:0,0:0:0:0:
344,260,201365,2,0,P|312:264|288:256,1,50,8|2,0:0|0:2,0:0:0:0:
188,228,201896,5,8,0:0:0:0:
208,120,202248,1,2,0:2:0:0:
100,100,202601,1,2,0:2:0:0:
80,208,202954,1,2,0:2:0:0:
188,228,203306,6,0,B|248:240|284:188|284:188,1,100,12|2,0:0|0:2,0:0:0:0:
384,224,204012,2,0,P|360:268|304:296,1,100,0|2,0:0|0:2,0:0:0:0:
216,336,204718,6,0,P|196:296|144:264,1,100,8|2,0:0|0:2,0:0:0:0:
96,276,205247,2,0,P|68:212|104:124,1,150,0|2,0:0|0:2,0:0:0:0:
100,28,206130,6,0,B|168:28|184:92|184:92,1,100,8|2,0:0|0:2,0:0:0:0:
276,128,206836,2,0,P|236:176|184:180,1,100,0|2,0:0|0:2,0:0:0:0:
112,248,207542,6,0,P|164:256|208:296,1,100,8|2,0:0|0:2,0:0:0:0:
184,336,208071,2,0,P|220:292|312:272,1,150,0|2,0:0|0:2,0:0:0:0:
364,280,208776,1,0,0:0:0:0:
408,248,208954,6,0,P|464:188|468:104,2,150,8|0|2,0:0|0:0|0:2,0:0:0:0:
376,144,210365,2,0,P|428:144|480:116,1,100,8|2,0:0|0:2,0:0:0:0:
450,72,210895,2,0,P|398:28|318:44,1,150,0|2,0:0|0:2,0:0:0:0:
220,100,211777,6,0,L|116:80,1,100,8|2,0:0|0:2,0:0:0:0:
20,208,212659,2,0,L|80:216,1,50,8|2,0:0|0:2,0:0:0:0:
180,220,213189,6,0,P|216:260|216:320,3,100,8|2|2|2,0:0|0:2|0:2|0:2,0:0:0:0:
112,300,214601,6,0,B|60:320|16:288|16:288,1,100,12|2,0:0|0:2,0:0:0:0:
86,202,215307,2,0,L|74:94,1,100,0|2,0:0|0:2,0:0:0:0:
168,48,216012,6,0,L|184:164,1,100,8|2,0:0|0:2,0:0:0:0:
200,96,216542,2,0,L|216:208,1,100,0|8,0:0|0:0,0:0:0:0:
244,240,217071,1,2,0:2:0:0:
324,164,217424,6,0,P|368:136|428:140,2,100,8|2|0,0:0|0:2|0:0,0:0:0:0:
244,240,218483,1,2,0:2:0:0:
164,164,218836,6,0,P|124:136|52:136,1,100,8|2,0:0|0:2,0:0:0:0:
44,176,219365,2,0,P|20:236|44:332,1,150,0|2,0:0|0:2,0:0:0:0:
84,340,220070,1,0,0:0:0:0:
120,300,220248,6,0,B|160:256|236:280|236:280,1,100,8|2,0:0|0:2,0:0:0:0:
192,112,221129,1,0,0:0:0:0:
192,112,221307,2,0,B|186:117|250:40|384:76,1,200,2|2,0:2|0:2,0:0:0:0:
420,40,222189,2,0,B|426:35|480:96|460:176,1,150,0|2,0:0|0:2,0:0:0:0:
380,252,223071,6,0,P|360:216|360:164,2,75,8|0|0,0:0|0:0|0:0,0:0:0:0:
228,300,223953,2,0,P|220:332|220:356,1,50,8|2,0:0|0:2,0:0:0:0:
256,192,224307,12,0,225719,0:2:0:0:
398,104,225895,6,0,L|328:80,3,75.0000028610231,4|0|2|2,0:0|0:0|0:0|0:0,0:0:0:0:
265,57,227307,5,0,0:0:0:0:
136,86,228013,1,0,0:0:0:0:
100,141,228366,2,0,P|88:173|88:205,1,59.9999981689454,0|12,0:0|0:0,0:0:0:0:
244,252,229425,6,0,B|256:308|220:352,1,100,0|2,0:0|0:2,0:0:0:0:
140,276,230130,2,0,B|116:216|164:172|164:172,1,100,8|2,0:0|0:2,0:0:0:0:
256,136,230837,2,0,B|316:144|348:192|348:192,1,100,0|2,0:0|0:2,0:0:0:0:
368,232,231366,1,2,0:2:0:0:
366,287,231543,6,0,P|418:295|470:259,1,100,12|2,0:0|0:2,0:0:0:0:
436,168,232248,2,0,P|388:160|332:196,1,100,0|2,0:0|0:2,0:0:0:0:
274,268,232954,6,0,B|246:308|198:337|124:311,1,150,8|0,0:0|0:0,0:0:0:0:
113,269,233660,2,0,B|57:245|61:180,1,100,0|2,0:0|0:2,0:0:0:0:
98,87,234366,6,0,P|139:114|155:160,1,100,8|2,0:0|0:2,0:0:0:0:
204,134,234895,2,0,P|250:158|310:147,1,100,0|8,0:0|0:0,0:0:0:0:
346,130,235424,1,2,0:2:0:0:
446,174,235778,6,0,P|450:118|419:60,2,100,8|2|2,0:0|0:2|0:2,0:0:0:0:
401,206,236659,2,0,P|396:235|406:262,2,50,8|2|0,0:0|0:2|0:0,0:0:0:0:
346,218,237189,6,0,B|295:257|314:324|314:324,1,100,12|2,0:0|0:2,0:0:0:0:
200,310,237895,2,0,B|279:275|357:332|357:332,1,150,0|0,0:0|0:0,0:0:0:0:
398,333,238601,6,0,B|454:303|459:234|459:234,1,100,8|2,0:0|0:2,0:0:0:0:
455,199,239130,1,0,0:0:0:0:
421,154,239307,2,0,B|364:136|354:69|354:69,1,100,0|2,0:0|0:2,0:0:0:0:
268,148,240012,6,0,B|204:146|173:197|173:197,1,100,8|2,0:0|0:2,0:0:0:0:
138,85,240718,2,0,B|203:151|173:238|173:238,1,150,0|0,0:0|0:0,0:0:0:0:
134,262,241425,5,8,0:0:0:0:
68,173,241778,1,2,0:2:0:0:
138,88,242130,2,0,L|187:46,2,50,0|8|2,0:0|0:0|0:2,0:0:0:0:
199,179,242837,6,0,B|220:237|290:233|290:233,1,100,12|2,0:0|0:2,0:0:0:0:
386,235,243542,2,0,P|361:158|295:134,1,150,0|0,0:0|0:0,0:0:0:0:
307,79,244248,6,0,P|379:100|426:176,1,150,8|0,0:0|0:0,0:0:0:0:
433,322,245306,1,2,0:2:0:0:
340,261,245660,2,0,B|251:253|205:334|205:334,1,150,8|0,0:0|0:0,0:0:0:0:
118,187,246719,1,2,0:2:0:0:
227,184,247072,6,0,P|273:173|311:128,2,100,8|2|2,0:0|0:2|0:2,0:0:0:0:
173,172,247953,2,0,P|146:177|114:190,2,50,8|2|0,0:0|0:2|0:0,0:0:0:0:
165,226,248483,5,12,0:0:0:0:
196,331,248837,1,2,0:2:0:0:
296,287,249190,2,0,P|367:282|446:318,1,150,0|0,0:0|0:0,0:0:0:0:
430,257,249895,6,0,L|453:156,1,100,8|2,0:0|0:2,0:0:0:0:
360,98,250601,2,0,L|373:155,2,50,0|8|2,0:0|0:0|0:2,0:0:0:0:
261,48,251306,6,0,P|217:74|147:79,1,100,8|2,0:0|0:2,0:0:0:0:
68,127,252013,2,0,P|112:174|197:183,1,150,0|0,0:0|0:0,0:0:0:0:
239,214,252719,6,0,L|262:318,1,100,8|2,0:0|0:2,0:0:0:0:
218,347,253248,1,0,0:0:0:0:
189,299,253425,2,0,L|244:207,1,100,0|2,0:0|0:2,0:0:0:0:
335,158,254130,5,8,0:0:0:0:
235,106,254484,1,2,0:2:0:0:
333,56,254837,2,0,P|397:71|439:140,1,150,0|0,0:0|0:0,0:0:0:0:
403,180,255542,6,0,P|409:237|379:278,1,100,8|2,0:0|0:2,0:0:0:0:
281,302,256248,2,0,P|285:334|297:359,2,50,0|8|2,0:0|0:0|0:2,0:0:0:0:
260,193,256953,6,0,P|200:196|151:227,1,100,8|2,0:0|0:2,0:0:0:0:
207,316,257660,2,0,P|129:324|70:272,1,150,0|0,0:0|0:0,0:0:0:0:
69,227,258365,6,0,P|45:184|53:120,3,100,8|2|2|2,0:0|0:2|0:2|0:2,0:0:0:0:
132,65,259777,6,0,P|143:94|144:123,3,50,12|0|2|0,0:0|0:2|0:2|0:0,0:0:0:0:
154,167,260484,2,0,P|206:184|243:218,1,100,0|2,0:0|0:2,0:0:0:0:
346,185,261190,6,0,L|414:101,1,100,8|0,0:0|0:0,0:0:0:0:
376,63,261718,1,0,0:0:0:0:
326,86,261895,2,0,L|348:195,1,100,0|2,0:0|0:2,0:0:0:0:
450,217,262601,6,0,L|402:307,1,100,8|2,0:0|0:2,0:0:0:0:
352,320,263130,2,0,P|296:352|204:344,1,150,0|2,0:0|0:2,0:0:0:0:
158,258,264013,6,0,P|87:268|28:333,2,150,0|0|2,0:0|0:0|0:2,0:0:0:0:
154,148,265424,6,0,P|124:152|94:167,3,50,8|0|2|0,0:0|0:0|0:2|0:0,0:0:0:0:
139,115,266131,2,0,P|178:134|247:130,1,100,0|2,0:0|0:2,0:0:0:0:
329,78,266837,6,0,P|344:132|394:158,1,100,8|2,0:0|0:2,0:0:0:0:
388,101,267365,1,0,0:0:0:0:
438,123,267542,2,0,P|432:72|379:37,1,100,0|2,0:0|0:2,0:0:0:0:
330,129,268248,6,0,L|324:244,1,100,8|2,0:0|0:2,0:0:0:0:
223,359,269130,2,0,L|228:297,1,50,8|2,0:0|0:2,0:0:0:0:
123,285,269659,5,8,0:0:0:0:
147,177,270012,1,2,0:2:0:0:
231,106,270365,1,2,0:2:0:0:
345,91,270718,1,2,0:2:0:0:
448,128,271072,6,0,L|475:228,3,100,12|2|2|2,0:0|0:2|2:0|0:2,0:0:0:0:
409,313,272483,2,0,L|365:154,1,150,8|0,0:0|0:0,0:0:0:0:
345,118,273189,1,0,0:0:0:0:
258,50,273542,1,2,0:2:0:0:
173,119,273895,6,0,L|141:226,3,100,8|2|2|2,0:0|0:2|2:0|0:2,0:0:0:0:
42,256,275306,2,0,L|86:107,1,150,8|0,0:0|0:0,0:0:0:0:
98,58,276012,1,0,0:0:0:0:
183,127,276365,1,2,0:2:0:0:
184,237,276718,5,8,0:0:0:0:
280,183,277071,1,2,0:2:0:0:
283,293,277425,1,2,2:0:0:0:
283,293,277778,1,2,0:2:0:0:
382,339,278131,6,0,P|435:261|424:192,2,150,8|2|2,0:0|2:0|0:2,0:0:0:0:
331,240,279543,2,0,B|284:209|287:146|287:146,3,100,8|2|2|2,0:0|0:2|2:0|0:2,0:0:0:0:
341,58,280954,5,8,0:0:0:0:
341,58,281307,1,2,0:2:0:0:
427,124,281659,2,0,P|406:152|376:163,2,50,2|8|2,2:0|0:0|0:2,0:0:0:0:
320,154,282366,6,0,B|297:320|254:352|127:340|127:340,1,300,8|0,0:0|0:0,0:0:0:0:
37,292,283777,2,0,P|68:251|130:238,1,100,8|2,0:0|0:2,0:0:0:0:
80,130,284483,2,0,L|70:63,2,50,2|8|2,2:0|1:0|0:2,0:0:0:0:
192,154,285189,6,0,B|215:320|258:352|385:340|385:340,1,300,8|0,0:0|0:0,0:0:0:0:
475,292,286600,2,0,P|444:251|382:238,1,100,8|2,0:0|0:2,0:0:0:0:
432,130,287306,2,0,L|442:63,2,50,2|8|2,2:0|1:0|0:2,0:0:0:0:
353,52,288012,5,8,0:0:0:0:
195,229,289424,1,8,0:0:0:0:
331,322,289954,1,0,0:0:0:0:
363,160,290484,1,0,0:0:0:0:
257,130,290837,5,4,0:0:0:0:
256,192,290925,12,4,293660,0:0:0:0:
