osu file format v14

[General]
AudioFilename: Feint - My Sunset - Original Mix.mp3
AudioLeadIn: 0
PreviewTime: 180718
Countdown: 0
SampleSet: Normal
StackLeniency: 0.4
Mode: 0
LetterboxInBreaks: 1
WidescreenStoryboard: 1

[Editor]
Bookmarks: 84721,90368,112955,135544,146837,169427,180721,203308,225897,228721,248484,271074,282367,293662
DistanceSpacing: 1.1
BeatDivisor: 4
GridSize: 4
TimelineZoom: 2.3

[Metadata]
Title:My Sunset
TitleUnicode:My Sunset
Artist:Feint
ArtistUnicode:Feint
Creator:Hordon
Version:Insane
Source:
Tags:dnb drum and bass
BeatmapID:569311
BeatmapSetID:247290

[Difficulty]
HPDrainRate:8
CircleSize:4
OverallDifficulty:8
ApproachRate:9
SliderMultiplier:1.6
SliderTickRate:1

[Events]
//Background and Video events
0,0,"Konachan.com - 202225 mks nobody original scenic sunset.jpg",0,0
//Break Periods
2,135743,146237
2,148095,149060
2,150919,151884
//Storyboard Layer 0 (Background)
//Storyboard Layer 1 (Fail)
//Storyboard Layer 2 (Pass)
//Storyboard Layer 3 (Foreground)
//Storyboard Sound Samples

[TimingPoints]
64954,352.941176470588,4,2,0,60,1,0
67778,-100,4,1,1,60,0,0
85953,-100,4,1,1,70,0,0
88953,-166.666666666667,4,1,1,40,0,0
89307,-166.666666666667,4,1,1,50,0,0
89660,-166.666666666667,4,1,1,60,0,0
90013,-166.666666666667,4,1,1,70,0,0
90365,-166.666666666667,4,1,1,70,0,1
90454,-100,4,1,1,70,0,0
146837,-166.666666666667,4,2,0,30,0,0
147365,-166.666666666667,4,2,0,20,0,0
149484,-166.666666666667,4,2,0,30,0,0
150190,-166.666666666667,4,2,0,20,0,0
156543,-166.666666666667,4,1,1,20,0,0
156806,-166.666666666667,4,2,0,30,0,0
156984,-166.666666666667,4,1,1,20,0,0
157159,-166.666666666667,4,2,0,30,0,0
157337,-166.666666666667,4,1,1,20,0,0
157512,-166.666666666667,4,2,0,30,0,0
157690,-166.666666666667,4,1,1,20,0,0
157865,-166.666666666667,4,2,0,30,0,0
158043,-166.666666666667,4,2,0,15,0,0
167837,-166.666666666667,4,1,1,20,0,0
168102,-166.666666666667,4,2,0,30,0,0
168277,-166.666666666667,4,1,1,20,0,0
168453,-166.666666666667,4,2,0,30,0,0
168630,-166.666666666667,4,1,1,20,0,0
168806,-166.666666666667,4,2,0,30,0,0
168984,-166.666666666667,4,1,1,20,0,0
169159,-166.666666666667,4,2,0,30,0,0
169424,-166.666666666667,4,1,1,20,0,0
180718,-100,4,1,1,80,0,0
225896,-100,4,1,1,30,0,0
226071,-166.666666666667,4,2,0,40,0,0
226424,-166.666666666667,4,2,0,30,0,0
226777,-166.666666666667,4,2,0,20,0,0
227130,-166.666666666667,4,2,0,40,0,0
227484,-166.666666666667,4,2,0,30,0,0
227924,-166.666666666667,4,2,0,20,0,0
228719,-100,4,1,1,70,0,0
248483,-100,4,1,1,70,0,1
269659,-100,4,1,1,40,0,0
270012,-100,4,1,1,50,0,0
270365,-100,4,1,1,60,0,0
270718,-100,4,1,1,70,0,0
271071,-100,4,1,1,70,0,1
271248,-100,4,1,1,70,0,0
293659,-100,4,1,1,70,0,1
294012,-100,4,1,1,70,0,0

[Colours]
Combo1 : 255,0,0
Combo2 : 255,128,128
Combo3 : 255,128,64
Combo4 : 255,128,0

[HitObjects]
256,192,64954,12,0,67778,0:0:0:0:
92,316,68484,5,0,0:0:0:0:
92,316,69190,1,0,0:0:0:0:
56,204,69543,1,2,2:0:0:0:
92,316,69719,1,0,0:0:0:0:
92,316,69895,1,0,0:0:0:0:
251,248,70248,1,2,2:0:0:0:
424,284,70601,5,4,0:2:0:0:
424,284,71307,1,0,0:0:0:0:
424,284,72013,1,0,0:0:0:0:
456,172,72366,1,2,2:0:0:0:
424,284,72542,1,0,0:0:0:0:
424,284,72719,1,0,0:0:0:0:
260,190,73072,1,2,2:0:0:0:
79,195,73425,5,4,0:2:0:0:
79,195,74131,1,0,0:0:0:0:
79,195,74837,1,0,0:0:0:0:
43,83,75190,1,2,2:0:0:0:
79,195,75366,1,0,0:0:0:0:
79,195,75543,1,0,0:0:0:0:
248,124,75895,1,2,2:0:0:0:
439,147,76248,5,4,0:2:0:0:
439,147,76954,1,0,0:0:0:0:
439,147,77660,1,0,0:0:0:0:
439,147,77837,1,2,2:0:0:0:
470,37,78013,1,0,0:0:0:0:
470,37,78190,1,2,2:0:0:0:
439,147,78366,1,0,0:0:0:0:
259,68,78719,1,2,2:0:0:0:
77,89,79072,5,4,0:2:0:0:
56,166,79425,1,0,2:0:0:0:
121,212,79778,1,0,0:0:0:0:
140,134,80131,1,0,2:0:0:0:
122,211,80484,6,0,B|121:306|208:345|208:345,1,160,0|0,0:2|2:0,0:0:0:0:
80,320,81013,2,0,B|168:316|220:224|220:224,1,160,0|0,1:2|2:0,0:0:0:0:
232,156,81543,2,0,B|276:148|320:184|320:184,1,80,0|0,1:2|2:0,0:0:0:0:
435,295,81895,5,4,0:2:0:0:
456,218,82248,1,0,2:0:0:0:
391,172,82601,1,0,0:0:0:0:
372,250,82954,1,0,2:0:0:0:
390,173,83307,6,0,B|391:78|304:39|304:39,1,160,0|0,0:2|2:0,0:0:0:0:
424,64,83836,2,0,B|336:80|292:160|292:160,1,160,0|0,1:2|2:0,0:0:0:0:
276,232,84365,2,0,B|232:240|188:204|188:204,1,80,0|0,1:2|2:0,0:0:0:0:
72,68,84719,5,4,0:2:0:0:
268,28,85072,1,0,0:0:0:0:
120,152,85425,1,0,0:0:0:0:
260,116,85778,1,0,0:0:0:0:
176,76,86131,5,0,0:0:0:0:
108,256,86484,1,0,0:0:0:0:
324,176,86837,1,0,0:0:0:0:
256,356,87190,1,0,0:0:0:0:
472,266,87543,5,0,0:0:0:0:
441,183,87719,1,0,0:0:0:0:
376,248,87895,1,0,0:0:0:0:
344,132,88072,1,0,0:0:0:0:
280,248,88248,1,0,0:0:0:0:
232,124,88425,1,0,0:0:0:0:
192,276,88601,1,0,0:0:0:0:
120,144,88778,1,0,0:0:0:0:
84,333,88954,37,0,0:0:0:0:
103,319,89043,1,0,0:0:0:0:
124,306,89131,1,0,0:0:0:0:
145,296,89219,1,0,0:0:0:0:
168,288,89307,5,0,0:0:0:0:
191,281,89395,1,0,0:0:0:0:
215,277,89484,1,0,0:0:0:0:
238,274,89572,1,0,0:0:0:0:
262,274,89660,21,0,0:0:0:0:
286,275,89748,1,0,0:0:0:0:
310,279,89837,1,0,0:0:0:0:
333,284,89925,1,0,0:0:0:0:
356,292,90013,37,0,0:0:0:0:
378,301,90101,1,0,0:0:0:0:
399,313,90190,1,0,0:0:0:0:
419,326,90278,1,0,0:0:0:0:
438,340,90365,5,12,0:0:0:0:
489,268,90543,1,0,0:0:0:0:
485,179,90719,1,2,0:2:0:0:
412,227,90895,1,0,0:0:0:0:
412,227,90984,1,0,0:0:0:0:
412,227,91072,1,0,0:0:0:0:
499,227,91248,1,8,0:0:0:0:
490,139,91425,1,2,0:2:0:0:
419,190,91601,1,0,0:0:0:0:
345,51,91778,6,0,L|407:102,1,80,8|0,0:0|0:0,0:0:0:0:
235,183,92131,1,2,0:2:0:0:
327,148,92307,2,0,L|191:33,1,160,0|8,0:0|0:0,0:0:0:0:
234,183,92837,1,2,0:2:0:0:
328,147,93013,1,2,0:2:0:0:
310,252,93190,6,0,P|311:297|277:347,1,80,8|0,0:0|0:0,0:0:0:0:
219,283,93543,1,2,0:2:0:0:
130,289,93719,1,0,0:0:0:0:
130,289,93807,1,0,0:0:0:0:
130,289,93895,2,0,P|150:335|184:357,1,80,0|8,0:0|0:0,0:0:0:0:
245,384,94248,1,2,0:2:0:0:
218,283,94425,1,0,0:0:0:0:
142,198,94601,6,0,B|91:184|61:229|61:229,1,80,8|0,0:0|0:0,0:0:0:0:
26,295,94954,1,2,0:2:0:0:
12,169,95131,2,0,B|68:100|168:120|168:120,1,160,0|8,0:0|0:0,0:0:0:0:
240,158,95660,1,2,0:2:0:0:
386,96,95837,1,2,0:2:0:0:
274,48,96013,6,0,L|356:216,1,160,8|2,0:0|0:2,0:0:0:0:
430,171,96543,2,0,L|481:274,1,80
381,268,96895,1,8,0:0:0:0:
294,286,97072,1,2,0:2:0:0:
353,350,97248,1,0,0:0:0:0:
316,199,97425,6,0,P|268:200|228:224,1,80,8|0,0:0|0:0,0:0:0:0:
295,286,97778,1,2,0:2:0:0:
193,277,97954,2,0,P|179:318|178:362,2,80,0|0|8,0:0|0:0|0:0,0:0:0:0:
317,198,98484,1,2,0:2:0:0:
262,74,98660,1,2,0:2:0:0:
215,183,98837,5,8,0:0:0:0:
181,101,99013,1,0,0:0:0:0:
118,39,99190,1,2,0:2:0:0:
61,106,99366,5,0,0:0:0:0:
87,123,99454,1,0,0:0:0:0:
103,150,99543,1,0,0:0:0:0:
134,232,99719,1,8,0:0:0:0:
61,282,99895,1,2,0:2:0:0:
32,198,100072,1,0,0:0:0:0:
136,232,100248,5,8,0:0:0:0:
164,316,100425,1,0,0:0:0:0:
144,236,100601,1,2,0:2:0:0:
172,320,100778,1,0,0:0:0:0:
256,344,100954,1,2,0:2:0:0:
340,320,101131,1,8,0:0:0:0:
364,236,101307,1,2,0:2:0:0:
340,320,101484,1,0,0:0:0:0:
256,256,101660,6,0,B|248:236|256:212|264:192|256:160,1,80,12|0,0:0|0:0,0:0:0:0:
256,88,102013,1,2,0:2:0:0:
344,76,102190,1,0,0:0:0:0:
344,76,102278,1,0,0:0:0:0:
344,76,102366,2,0,P|320:28|280:8,1,80,0|8,0:0|0:0,0:0:0:0:
212,16,102719,2,0,P|184:44|176:100,1,80,2|0,0:2|0:0,0:0:0:0:
116,172,103071,6,0,L|8:188,1,80,8|0,0:0|0:0,0:0:0:0:
200,160,103425,1,2,0:2:0:0:
32,196,103601,2,0,L|116:184,1,80
168,252,103954,1,8,0:0:0:0:
196,168,104131,1,2,0:2:0:0:
32,196,104307,1,2,0:2:0:0:
132,336,104483,6,0,P|192:344|260:276,1,160,8|2,0:0|0:2,0:0:0:0:
316,344,105013,1,0,0:0:0:0:
332,316,105101,1,0,0:0:0:0:
336,284,105190,1,0,0:0:0:0:
320,196,105366,1,8,0:0:0:0:
360,116,105543,2,0,P|392:140|408:188,1,80,2|0,0:2|0:0,0:0:0:0:
424,264,105895,6,0,L|524:272,1,80,8|0,0:0|0:0,0:0:0:0:
336,284,106248,1,2,0:2:0:0:
408,176,106425,2,0,L|488:184,1,80
320,196,106778,1,8,0:0:0:0:
388,40,106954,1,2,0:2:0:0:
236,160,107131,1,2,0:2:0:0:
304,12,107307,6,0,B|291:53|316:103|316:103|320:104,1,80,8|0,0:0|0:0,0:0:0:0:
365,161,107660,2,0,B|386:210|446:210|446:210,1,80,2|0,0:2|0:0,0:0:0:0:
511,188,108013,1,0,0:0:0:0:
453,121,108190,1,8,0:0:0:0:
346,253,108366,2,0,B|340:248|404:325|494:286,1,160,2|8,0:2|0:0,0:0:0:0:
512,189,108895,1,0,0:0:0:0:
430,215,109072,1,2,0:2:0:0:
370,70,109248,5,0,0:0:0:0:
370,70,109337,1,0,0:0:0:0:
370,70,109425,1,0,0:0:0:0:
224,36,109601,1,8,0:0:0:0:
320,152,109778,1,2,0:2:0:0:
172,116,109954,1,2,0:2:0:0:
236,184,110131,6,0,L|208:288,2,80,8|0|2,0:0|0:0|0:2,0:0:0:0:
304,276,110660,1,0,0:0:0:0:
296,308,110748,1,0,0:0:0:0:
288,340,110837,1,0,0:0:0:0:
196,336,111013,1,8,0:0:0:0:
100,352,111190,2,0,L|124:264,1,80,2|0,0:2|0:0,0:0:0:0:
52,220,111543,5,8,0:0:0:0:
52,220,111719,1,0,0:0:0:0:
100,80,111895,1,2,0:2:0:0:
100,80,112072,1,0,0:0:0:0:
256,96,112248,5,2,0:2:0:0:
388,47,112425,1,8,0:0:0:0:
255,130,112601,1,2,0:2:0:0:
124,46,112778,1,0,0:0:0:0:
256,18,112954,6,0,B|342:53|356:158|356:158,1,160,12|2,0:0|0:2,0:0:0:0:
344,228,113484,1,0,0:0:0:0:
344,228,113572,1,0,0:0:0:0:
344,228,113660,1,0,0:0:0:0:
428,200,113837,1,8,0:0:0:0:
484,268,114013,2,0,P|451:316|407:328,1,80,2|0,0:2|0:0,0:0:0:0:
344,228,114366,6,0,P|344:272|364:312,1,80,8|0,0:0|0:0,0:0:0:0:
428,200,114719,1,2,0:2:0:0:
360,136,114895,1,0,0:0:0:0:
272,168,115072,1,0,0:0:0:0:
256,260,115248,1,8,0:0:0:0:
232,350,115425,2,0,P|196:333|176:300,1,80,2|2,0:2|0:2,0:0:0:0:
215,177,115778,6,0,P|292:170|344:228,1,160,8|2,0:0|0:2,0:0:0:0:
332,316,116307,1,0,0:0:0:0:
300,328,116395,1,0,0:0:0:0:
268,340,116484,1,0,0:0:0:0:
176,300,116660,1,8,0:0:0:0:
84,344,116837,1,2,0:2:0:0:
176,300,117013,1,0,0:0:0:0:
196,196,117190,5,8,0:0:0:0:
96,172,117366,1,0,0:0:0:0:
72,272,117543,1,2,0:2:0:0:
124,180,117719,1,0,0:0:0:0:
224,204,117895,5,0,0:0:0:0:
200,304,118072,1,8,0:0:0:0:
100,280,118248,2,0,L|16:256,1,80,2|2,0:2|0:2,0:0:0:0:
28,152,118601,6,0,L|188:192,1,160,8|2,0:0|0:2,0:0:0:0:
256,136,119131,1,0,0:0:0:0:
256,136,119219,1,0,0:0:0:0:
256,136,119307,1,0,0:0:0:0:
292,56,119484,1,8,0:0:0:0:
204,64,119660,2,0,P|176:88|172:144,1,80,2|0,0:2|0:0,0:0:0:0:
348,128,120013,6,0,P|324:204|252:232,1,160,8|2,0:0|0:2,0:0:0:0:
164,132,120543,2,0,P|188:56|260:28,1,160,0|8,0:0|0:0,0:0:0:0:
256,136,121072,1,2,0:2:0:0:
368,40,121248,1,2,0:2:0:0:
365,147,121425,5,8,0:0:0:0:
448,172,121601,1,0,0:0:0:0:
506,237,121778,1,2,0:2:0:0:
445,301,121954,5,0,0:0:0:0:
434,270,122043,1,0,0:0:0:0:
408,252,122131,1,0,0:0:0:0:
321,234,122307,1,8,0:0:0:0:
238,263,122484,1,2,0:2:0:0:
307,317,122660,1,0,0:0:0:0:
273,235,122837,5,8,0:0:0:0:
152,196,123013,1,0,0:0:0:0:
200,267,123190,5,2,0:2:0:0:
80,304,123366,1,0,0:0:0:0:
172,376,123543,5,2,0:2:0:0:
284,356,123719,1,8,0:0:0:0:
175,368,123895,1,2,0:2:0:0:
80,304,124072,1,0,0:0:0:0:
200,267,124248,6,0,B|257:200|231:98|231:98,1,160,12|2,0:0|0:2,0:0:0:0:
152,81,124778,1,0,0:0:0:0:
152,81,124866,1,0,0:0:0:0:
152,81,124954,2,0,B|166:119|161:170|161:170,1,80,0|8,0:0|0:0,0:0:0:0:
128,241,125307,2,0,B|112:278|75:303|75:303|75:304,1,80,2|0,0:2|0:0,0:0:0:0:
43,219,125660,5,8,0:0:0:0:
67,134,125837,1,0,0:0:0:0:
151,159,126013,1,2,0:2:0:0:
128,243,126190,1,0,0:0:0:0:
196,300,126366,5,0,0:0:0:0:
268,244,126543,1,8,0:0:0:0:
240,160,126719,1,2,0:2:0:0:
244,316,126895,1,2,0:2:0:0:
371,244,127071,6,0,P|408:254|448:285,1,80,8|0,0:0|0:0,0:0:0:0:
512,233,127425,2,0,P|483:200|428:174,1,80,2|0,0:2|0:0,0:0:0:0:
422,169,127690,1,0,0:0:0:0:
389,164,127778,1,0,0:0:0:0:
322,106,127954,1,8,0:0:0:0:
405,77,128131,2,0,P|447:82|496:114,1,80,2|0,0:2|0:0,0:0:0:0:
332,24,128484,6,0,B|232:28|204:112|204:112,1,160,8|2,0:0|0:2,0:0:0:0:
128,152,129013,2,0,P|120:104|128:73,2,80,0|0|8,0:0|0:0|0:0,0:0:0:0:
168,232,129543,1,2,0:2:0:0:
332,308,129719,1,2,0:2:0:0:
248,275,129895,6,0,L|216:348,1,80,8|0,0:0|0:0,0:0:0:0:
244,188,130248,1,2,0:2:0:0:
168,232,130425,1,0,0:0:0:0:
156,260,130513,1,0,0:0:0:0:
144,288,130601,1,0,0:0:0:0:
72,340,130778,1,8,0:0:0:0:
60,252,130954,1,2,0:2:0:0:
144,288,131131,1,0,0:0:0:0:
232,324,131307,6,0,L|324:344,1,80,8|0,0:0|0:0,0:0:0:0:
396,328,131660,1,2,0:2:0:0:
432,168,131837,2,0,L|428:248,1,80
396,328,132190,1,8,0:0:0:0:
336,176,132366,1,2,0:2:0:0:
200,88,132543,1,2,0:2:0:0:
344,20,132719,5,8,0:0:0:0:
200,88,133072,1,2,0:2:0:0:
344,20,133601,5,8,0:0:0:0:
200,88,133778,1,2,0:2:0:0:
200,88,133954,1,2,0:2:0:0:
304,112,134131,5,8,0:0:0:0:
352,196,134307,1,0,0:0:0:0:
332,288,134484,1,2,0:2:0:0:
256,348,134660,1,0,0:0:0:0:
184,284,134837,5,2,0:2:0:0:
332,288,135013,1,8,0:0:0:0:
160,196,135190,1,2,0:2:0:0:
352,196,135366,1,0,0:2:0:0:
256,144,135543,5,4,0:0:0:0:
62,314,146837,5,2,0:0:0:0:
133,265,147190,1,0,0:0:0:0:
230,252,147543,1,0,0:0:0:0:
344,282,147895,1,0,0:0:0:0:
468,195,149660,5,2,0:0:0:0:
397,146,150013,1,0,0:0:0:0:
300,133,150366,1,0,0:0:0:0:
186,163,150719,1,0,0:0:0:0:
121,76,152484,5,2,0:0:0:0:
175,178,153895,1,0,0:0:0:0:
207,333,155307,1,2,0:0:0:0:
305,333,156719,6,0,L|317:265,1,47.9999985351563,0|0,0:0|0:0,0:0:0:0:
392,197,157072,2,0,L|384:261,1,47.9999985351563,0|0,0:0|0:0,0:0:0:0:
262,203,157425,2,0,L|314:211,1,47.9999985351563,0|0,1:0|0:0,0:0:0:0:
392,197,157778,2,0,L|448:205,1,47.9999985351563,0|0,1:0|0:0,0:0:0:0:
499,142,158131,5,4,0:0:0:0:
457,38,158484,1,0,0:0:0:0:
342,85,158837,1,0,0:0:0:0:
392,196,159190,1,0,0:0:0:0:
421,113,159543,6,0,P|459:140|476:203,1,95.9999970703126,0|2,0:0|0:0,0:0:0:0:
392,196,160072,1,0,0:0:0:0:
376,288,160248,2,0,P|345:277|326:252,1,47.9999985351563,2|0,0:0|0:0,0:0:0:0:
302,190,160601,1,2,0:0:0:0:
13,242,160954,5,0,0:0:0:0:
55,346,161307,1,0,0:0:0:0:
170,299,161660,1,0,0:0:0:0:
120,188,162013,1,0,0:0:0:0:
91,271,162366,6,0,P|49:242|34:180,1,95.9999970703126,0|2,0:0|0:0,0:0:0:0:
120,188,162895,1,0,0:0:0:0:
140,96,163072,2,0,P|170:106|189:131,1,47.9999985351563,0|2,0:0|0:0,0:0:0:0:
213,193,163425,1,2,0:0:0:0:
408,64,163778,5,4,0:0:0:0:
332,184,165190,1,0,0:0:0:0:
324,340,166601,1,0,0:0:0:0:
192,340,168013,6,0,L|180:272,1,47.9999985351563
105,204,168366,2,0,L|113:268,1,47.9999985351563
235,210,168719,2,0,L|183:218,1,47.9999985351563
105,204,169072,2,0,L|49:212,1,47.9999985351563
8,148,169424,5,12,0:0:0:0:
56,292,169778,1,0,0:3:0:0:
8,148,170307,1,8,0:0:0:0:
80,116,170484,2,0,L|100:40,1,71.9999978027344,0|0,0:3|0:0,0:0:0:0:
108,16,170837,5,8,0:0:0:0:
260,44,171190,1,0,0:0:0:0:
328,80,171366,1,0,0:0:0:0:
344,104,171454,1,0,0:0:0:0:
352,136,171543,1,0,0:0:0:0:
352,212,171719,1,8,0:0:0:0:
284,176,171895,2,0,P|276:216|292:256,1,71.9999978027344
344,288,172248,6,0,P|400:272|424:232,1,95.9999970703126,12|0,0:0|0:0,0:0:0:0:
420,242,173131,1,4,0:3:0:0:
476,192,173307,2,0,L|496:112,1,71.9999978027344,8|0,0:0|0:0,0:0:0:0:
500,92,173660,5,8,0:0:0:0:
352,132,174013,1,0,0:0:0:0:
284,168,174190,1,0,0:0:0:0:
268,192,174278,1,0,0:0:0:0:
260,224,174366,1,0,0:0:0:0:
260,300,174543,1,8,0:0:0:0:
336,288,174719,2,0,P|332:328|304:360,1,71.9999978027344
284,376,175072,5,12,0:0:0:0:
188,256,175425,1,0,0:0:0:0:
188,256,175954,1,8,0:0:0:0:
112,236,176131,2,0,L|96:152,1,71.9999978027344
12,128,176484,6,0,L|36:232,1,95.9999970703126,8|0,0:0|0:0,0:0:0:0:
112,236,177013,1,0,0:0:0:0:
112,236,177101,1,0,0:0:0:0:
112,236,177190,1,0,0:0:0:0:
172,172,177366,1,8,0:0:0:0:
256,200,177543,1,0,0:0:0:0:
256,192,177895,12,0,180366,0:0:0:0:
48,260,180719,5,12,0:0:0:0:
136,248,180895,1,0,0:0:0:0:
224,236,181072,1,2,0:2:0:0:
192,316,181248,1,0,0:0:0:0:
192,316,181337,1,0,0:0:0:0:
192,316,181425,1,0,0:0:0:0:
136,248,181601,1,8,0:0:0:0:
80,180,181778,1,2,0:2:0:0:
168,168,181954,1,0,0:0:0:0:
264,76,182131,6,0,L|252:168,1,80,8|0,0:0|0:0,0:0:0:0:
168,168,182484,1,2,0:2:0:0:
340,204,182660,2,0,L|364:28,1,160,0|8,0:0|0:0,0:0:0:0:
448,100,183190,1,2,0:2:0:0:
488,260,183366,1,2,0:2:0:0:
328,284,183543,6,0,L|344:184,1,80,8|0,0:0|0:0,0:0:0:0:
428,188,183895,1,2,0:2:0:0:
408,272,184072,1,0,0:0:0:0:
408,272,184160,1,0,0:0:0:0:
408,272,184248,2,0,P|404:320|372:352,1,80,0|8,0:0|0:0,0:0:0:0:
248,292,184601,2,0,P|252:244|284:212,1,80,2|0,0:2|0:0,0:0:0:0:
356,192,184954,5,8,0:0:0:0:
328,288,185131,1,0,0:0:0:0:
292,124,185307,1,2,0:2:0:0:
208,148,185484,1,0,0:0:0:0:
184,236,185660,5,0,0:0:0:0:
356,192,185837,1,8,0:0:0:0:
392,352,186013,1,2,0:2:0:0:
272,212,186190,1,2,0:2:0:0:
312,372,186366,6,0,P|228:368|168:316,1,160,8|2,0:0|0:2,0:0:0:0:
184,236,186895,1,0,0:0:0:0:
248,292,187072,1,0,0:0:0:0:
336,292,187248,5,8,0:0:0:0:
404,152,187425,1,2,0:2:0:0:
252,84,187601,1,0,0:0:0:0:
184,236,187778,6,0,P|144:256|120:288,1,80,8|0,0:0|0:0,0:0:0:0:
36,300,188131,1,2,0:2:0:0:
60,216,188307,2,0,P|96:195|121:156,1,80,0|0,0:0|0:0,0:0:0:0:
157,85,188660,2,0,P|171:46|166:0,1,80,8|2,0:0|0:2,0:0:0:0:
169,8,189013,1,2,0:2:0:0:
92,37,189190,5,8,0:0:0:0:
220,161,189366,1,0,0:0:0:0:
52,120,189543,1,2,0:2:0:0:
186,242,189719,5,0,0:0:0:0:
160,223,189807,1,0,0:0:0:0:
144,193,189895,1,0,0:0:0:0:
150,104,190072,1,8,0:0:0:0:
219,161,190248,1,2,0:2:0:0:
234,74,190425,1,0,0:0:0:0:
301,129,190601,5,8,0:0:0:0:
440,50,190778,1,0,0:0:0:0:
489,201,190954,1,2,0:2:0:0:
371,91,191131,1,0,0:0:0:0:
414,244,191307,5,2,0:2:0:0:
338,289,191484,1,8,0:0:0:0:
374,209,191660,1,2,0:2:0:0:
388,295,191837,1,0,0:0:0:0:
325,232,192013,6,0,B|284:216|248:248,1,80,4|0,0:0|0:0,0:0:0:0:
215,327,192366,1,2,0:2:0:0:
276,384,192543,1,0,0:0:0:0:
276,384,192631,1,0,0:0:0:0:
276,384,192719,2,0,P|297:350|299:311,1,80,0|8,0:0|0:0,0:0:0:0:
214,327,193072,2,0,P|174:327|133:302,1,80,2|0,0:2|0:0,0:0:0:0:
84,160,193425,6,0,L|105:237,1,80,8|0,0:0|0:0,0:0:0:0:
140,96,193778,1,2,0:2:0:0:
104,248,193954,2,0,L|80:160,1,80
140,96,194307,1,8,0:0:0:0:
168,180,194484,1,2,0:2:0:0:
112,16,194660,1,2,0:2:0:0:
300,60,194837,6,0,P|384:72|448:128,1,160,8|2,0:0|0:2,0:0:0:0:
392,192,195366,1,0,0:0:0:0:
376,168,195454,1,0,0:0:0:0:
348,152,195543,1,0,0:0:0:0:
260,144,195719,1,8,0:0:0:0:
300,60,195895,1,2,0:2:0:0:
260,144,196072,1,0,0:0:0:0:
312,228,196248,6,0,L|364:312,1,80,8|0,0:0|0:0,0:0:0:0:
312,372,196601,1,2,0:2:0:0:
480,336,196778,2,0,L|432:260,1,80
352,296,197131,1,8,0:0:0:0:
464,160,197307,1,2,0:2:0:0:
352,24,197484,1,2,0:2:0:0:
412,88,197660,6,0,B|384:120|324:112|324:112,1,80,8|0,0:0|0:0,0:0:0:0:
275,68,198013,2,0,B|295:108|356:117|356:117,1,80,2|0,0:2|0:0,0:0:0:0:
352,24,198366,1,0,0:0:0:0:
352,24,198543,1,8,0:0:0:0:
464,160,198719,2,0,B|470:155|406:232|316:193,1,160,2|8,0:2|0:0,0:0:0:0:
240,152,199248,1,0,0:0:0:0:
316,108,199425,1,2,0:2:0:0:
320,196,199601,5,0,0:0:0:0:
320,196,199690,1,0,0:0:0:0:
320,196,199778,1,0,0:0:0:0:
316,340,199954,1,8,0:0:0:0:
420,248,200131,1,2,0:2:0:0:
288,180,200307,1,2,0:2:0:0:
280,324,200484,6,0,L|376:368,1,80,8|0,0:0|0:0,0:0:0:0:
200,356,200837,1,2,0:2:0:0:
212,268,201013,1,0,0:0:0:0:
200,240,201101,1,0,0:0:0:0:
172,224,201190,1,0,0:0:0:0:
84,240,201366,1,8,0:0:0:0:
144,304,201543,2,0,P|112:324|64:320,1,80,2|0,0:2|0:0,0:0:0:0:
8,260,201895,5,8,0:0:0:0:
24,172,202072,1,0,0:0:0:0:
208,48,202248,1,2,0:2:0:0:
188,136,202425,1,0,0:0:0:0:
40,84,202601,5,2,0:2:0:0:
168,224,202778,1,8,0:0:0:0:
208,48,202954,1,2,0:2:0:0:
40,84,203131,1,0,0:0:0:0:
144,128,203307,6,0,B|232:116|304:196|304:196,1,160,12|2,0:0|0:2,0:0:0:0:
344,252,203837,1,0,0:0:0:0:
344,252,203925,1,0,0:0:0:0:
344,252,204013,1,0,0:0:0:0:
428,224,204190,1,8,0:0:0:0:
436,136,204366,2,0,P|392:144|359:196,1,80,2|0,0:2|0:0,0:0:0:0:
344,252,204719,6,0,P|368:296|416:312,1,80,8|0,0:0|0:0,0:0:0:0:
480,296,205072,1,2,0:2:0:0:
512,216,205248,1,0,0:0:0:0:
436,136,205425,1,0,0:0:0:0:
428,224,205601,1,8,0:0:0:0:
344,252,205778,2,0,P|304:268|252:244,1,80,2|2,0:2|0:2,0:0:0:0:
224,124,206131,6,0,P|292:84|380:124,1,160,8|2,0:0|0:2,0:0:0:0:
304,172,206660,1,0,0:0:0:0:
284,200,206748,1,0,0:0:0:0:
256,212,206837,1,0,0:0:0:0:
168,224,207013,1,8,0:0:0:0:
88,184,207190,1,2,0:2:0:0:
168,224,207366,1,0,0:0:0:0:
164,136,207543,5,8,0:0:0:0:
168,224,207719,1,0,0:0:0:0:
84,92,207895,1,2,0:2:0:0:
164,136,208072,1,0,0:0:0:0:
8,136,208248,5,0,0:0:0:0:
164,48,208425,1,8,0:0:0:0:
84,92,208601,2,0,B|84:116|104:128|128:140|128:176,1,80,2|2,0:2|0:2,0:0:0:0:
52,212,208954,6,0,B|64:260|104:276|136:292|152:336,1,160,8|2,0:0|0:2,0:0:0:0:
64,344,209484,1,0,0:0:0:0:
64,344,209572,1,0,0:0:0:0:
64,344,209660,1,0,0:0:0:0:
136,200,209837,1,8,0:0:0:0:
236,324,210013,1,2,0:2:0:0:
256,164,210190,1,0,0:0:0:0:
368,192,210366,6,0,B|408:100|314:36,1,160,8|2,0:0|0:2,0:0:0:0:
180,49,210895,2,0,B|104:100|144:192,1,160,0|8,0:0|0:0,0:0:0:0:
256,116,211425,1,2,0:2:0:0:
368,192,211601,1,2,0:2:0:0:
256,232,211778,5,8,0:0:0:0:
308,164,211954,1,0,0:0:0:0:
388,204,212131,1,2,0:2:0:0:
336,268,212307,5,0,0:0:0:0:
336,268,212395,1,0,0:0:0:0:
336,268,212484,1,0,0:0:0:0:
420,304,212660,1,8,0:0:0:0:
388,204,212837,1,2,0:2:0:0:
468,240,213013,1,0,0:0:0:0:
464,152,213190,5,8,0:0:0:0:
296,72,213366,1,0,0:0:0:0:
384,112,213543,5,2,0:2:0:0:
212,32,213719,1,0,0:0:0:0:
244,216,213895,5,2,0:2:0:0:
224,120,214072,1,8,0:0:0:0:
152,232,214248,1,2,0:2:0:0:
132,136,214425,1,0,0:0:0:0:
64,64,214601,6,0,B|12:144|72:216|72:216,1,160,12|2,0:0|0:2,0:0:0:0:
152,232,215131,1,0,0:0:0:0:
152,232,215219,1,0,0:0:0:0:
152,232,215307,2,0,B|166:270|161:321|161:321,1,80,0|8,0:0|0:0,0:0:0:0:
236,376,215660,2,0,B|256:327|244:272|244:272,1,80,2|0,0:2|0:0,0:0:0:0:
236,208,216013,5,8,0:0:0:0:
204,128,216190,1,0,0:0:0:0:
140,68,216366,1,2,0:2:0:0:
140,68,216543,1,0,0:0:0:0:
296,144,216719,1,0,0:0:0:0:
296,144,216895,1,8,0:0:0:0:
268,24,217072,5,2,0:2:0:0:
384,92,217248,1,2,0:2:0:0:
380,184,217424,6,0,P|420:184|452:160,1,80,8|0,0:0|0:0,0:0:0:0:
472,76,217778,2,0,P|452:36|396:8,1,80,2|0,0:2|0:0,0:0:0:0:
392,8,218043,1,0,0:0:0:0:
360,12,218131,1,0,0:0:0:0:
296,72,218307,1,8,0:0:0:0:
384,92,218484,2,0,L|380:200,1,80,2|0,0:2|0:0,0:0:0:0:
284,319,218837,6,0,B|292:159|292:159,1,160,8|2,0:0|0:2,0:0:0:0:
376,276,219366,1,0,0:0:0:0:
466,162,219543,2,0,L|460:252,1,80,0|8,0:0|0:0,0:0:0:0:
376,276,219895,1,2,0:2:0:0:
196,200,220072,1,2,0:2:0:0:
320,160,220248,6,0,L|284:240,1,80,8|0,0:0|0:0,0:0:0:0:
216,288,220601,1,2,0:2:0:0:
196,200,220778,1,0,0:0:0:0:
164,200,220866,1,0,0:0:0:0:
136,212,220954,1,0,0:0:0:0:
84,284,221131,1,8,0:0:0:0:
28,216,221307,1,2,0:2:0:0:
80,144,221484,1,0,0:0:0:0:
164,116,221660,6,0,P|208:112|256:136,1,80,8|0,0:0|0:0,0:0:0:0:
80,144,222013,1,2,0:2:0:0:
240,124,222190,2,0,P|272:152|288:196,1,80
300,272,222543,1,8,0:0:0:0:
164,116,222719,1,2,0:2:0:0:
212,264,222895,1,2,0:2:0:0:
316,152,223072,5,8,0:0:0:0:
304,64,223248,1,0,0:0:0:0:
388,96,223425,1,2,0:2:0:0:
336,164,223601,5,0,0:0:0:0:
336,164,223690,1,0,0:0:0:0:
336,164,223778,1,0,0:0:0:0:
352,76,223954,1,8,0:0:0:0:
432,108,224131,1,2,0:2:0:0:
352,76,224307,1,0,0:0:0:0:
360,180,224484,5,8,0:0:0:0:
392,304,224660,1,0,0:0:0:0:
256,364,224837,1,2,0:2:0:0:
120,304,225013,1,0,0:0:0:0:
256,232,225190,5,2,0:2:0:0:
368,288,225366,1,8,0:0:0:0:
256,200,225543,1,2,0:2:0:0:
144,288,225719,1,0,0:2:0:0:
256,164,225895,5,4,0:0:0:0:
192,120,226248,1,0,0:0:0:0:
236,48,226601,1,2,0:0:0:0:
304,96,226954,1,2,0:0:0:0:
236,48,227307,5,0,0:0:0:0:
192,120,227660,1,0,0:0:0:0:
192,120,227837,1,0,0:0:0:0:
108,136,228013,1,0,0:0:0:0:
108,136,228190,1,0,0:0:0:0:
36,184,228366,2,0,L|52:272,1,71.9999978027344
120,332,228719,6,0,B|144:316|140:288|120:200,1,120,12|0,0:0|0:0,0:0:0:0:
108,136,229072,1,2,0:2:0:0:
136,52,229248,1,0,0:0:0:0:
160,32,229337,1,0,0:0:0:0:
192,32,229425,1,0,0:0:0:0:
276,64,229601,1,8,0:0:0:0:
208,120,229778,2,0,P|240:146|290:152,1,80,2|0,0:2|0:0,0:0:0:0:
365,42,230131,6,0,P|348:115|270:154,1,160,8|2,0:0|0:2,0:0:0:0:
275,64,230660,1,0,0:0:0:0:
448,88,230837,1,0,0:0:0:0:
276,152,231013,1,8,0:0:0:0:
448,176,231190,1,2,0:2:0:0:
360,324,231366,1,2,0:2:0:0:
364,124,231543,6,0,L|360:263,1,120,12|0,0:0|0:0,0:0:0:0:
360,324,231895,1,2,0:2:0:0:
444,304,232072,1,0,0:0:0:0:
448,336,232160,1,0,0:0:0:0:
436,368,232248,1,0,0:0:0:0:
360,324,232425,1,8,0:0:0:0:
282,287,232601,2,0,P|271:325|280:364,1,80,2|0,0:2|0:0,0:0:0:0:
308,200,232954,6,0,P|232:216|192:296,1,160,8|2,0:0|0:2,0:0:0:0:
172,368,233484,1,0,0:0:0:0:
44,288,233660,1,0,0:0:0:0:
44,288,233837,1,8,0:0:0:0:
56,136,234013,1,2,0:2:0:0:
140,264,234190,1,2,0:2:0:0:
156,112,234366,6,0,L|148:202,1,80,8|0,0:0|0:0,0:0:0:0:
56,136,234719,1,2,0:2:0:0:
156,112,234895,1,0,0:0:0:0:
260,84,235072,2,0,L|252:180,1,80,0|8,0:0|0:0,0:0:0:0:
156,112,235425,1,2,0:2:0:0:
260,84,235601,1,0,0:0:0:0:
260,0,235778,6,0,P|213:11|189:43,1,80,8|0,0:0|0:0,0:0:0:0:
262,166,236131,2,0,P|308:154|332:122,1,80,2|0,0:2|0:0,0:0:0:0:
192,36,236484,1,2,0:2:0:0:
328,132,236660,1,8,0:0:0:0:
156,112,236837,1,2,0:2:0:0:
360,56,237013,1,0,0:0:0:0:
408,128,237190,6,0,B|424:168|412:216|412:216|412:216,1,80,12|0,0:0|0:0,0:0:0:0:
380,288,237543,1,2,0:2:0:0:
468,272,237719,1,0,0:0:0:0:
483,244,237807,1,0,0:0:0:0:
488,212,237895,1,0,0:0:0:0:
496,124,238072,1,8,0:0:0:0:
408,128,238248,2,0,L|324:144,1,80,2|0,0:2|0:0,0:0:0:0:
192,101,238601,6,0,L|276:198|276:198,1,120,8|0,0:0|0:0,0:0:0:0:
329,142,238954,1,2,0:2:0:0:
216,240,239131,1,0,0:0:0:0:
364,296,239307,2,0,B|384:332|384:376|384:376,2,80,0|8|2,0:0|0:0|0:2,0:0:0:0:
216,240,239837,5,2,0:2:0:0:
216,240,239925,1,0,0:0:0:0:
216,240,240013,2,0,B|170:246|144:288|144:288,1,80,8|0,0:0|0:0,0:0:0:0:
204,352,240366,1,2,0:2:0:0:
276,304,240543,1,0,0:0:0:0:
276,304,240631,1,0,0:0:0:0:
276,304,240719,1,0,0:0:0:0:
312,384,240895,1,8,0:0:0:0:
364,296,241072,1,2,0:2:0:0:
304,220,241248,1,0,0:0:0:0:
236,76,241425,5,8,0:0:0:0:
384,12,241601,1,0,0:0:0:0:
452,156,241778,1,2,0:2:0:0:
304,220,241954,1,0,0:0:0:0:
404,160,242131,5,0,0:0:0:0:
384,48,242307,1,8,0:0:0:0:
276,72,242484,1,2,0:2:0:0:
300,180,242660,1,2,0:2:0:0:
300,180,242748,1,0,0:0:0:0:
300,180,242837,6,0,B|268:212|209:203|209:203,1,80,12|0,0:0|0:0,0:0:0:0:
139,186,243190,1,2,0:2:0:0:
82,118,243366,1,0,0:0:0:0:
108,100,243454,1,0,0:0:0:0:
139,97,243543,1,0,0:0:0:0:
215,141,243719,1,8,0:0:0:0:
139,185,243895,2,0,L|131:270,1,80,2|0,0:2|0:0,0:0:0:0:
200,348,244248,6,0,L|208:256,1,80,8|0,0:0|0:0,0:0:0:0:
56,199,244601,1,2,0:2:0:0:
216,141,244778,1,0,0:0:0:0:
367,87,244954,2,0,B|387:123|387:167|387:167,2,80,0|8|2,0:0|0:0|0:2,0:0:0:0:
269,54,245484,5,2,0:2:0:0:
269,54,245572,1,0,0:0:0:0:
269,54,245660,2,0,B|317:128|313:218|313:218,1,160,8|2,0:0|0:2,0:0:0:0:
288,292,246190,1,0,0:0:0:0:
288,292,246278,1,0,0:0:0:0:
288,292,246366,1,0,0:0:0:0:
312,376,246543,1,8,0:0:0:0:
368,308,246719,1,2,0:2:0:0:
344,224,246895,1,0,0:0:0:0:
276,172,247072,5,8,0:0:0:0:
204,304,247248,1,0,0:0:0:0:
192,168,247425,1,2,0:2:0:0:
136,352,247601,1,0,0:0:0:0:
112,188,247778,5,2,0:2:0:0:
276,172,247954,1,8,0:0:0:0:
56,248,248131,1,2,0:2:0:0:
192,168,248307,1,0,0:0:0:0:
56,38,248484,5,12,0:0:0:0:
134,94,248660,1,0,0:0:0:0:
61,59,248837,1,2,0:2:0:0:
139,116,249013,1,0,0:0:0:0:
68,192,249190,5,0,0:0:0:0:
212,96,249366,1,8,0:0:0:0:
380,140,249543,1,2,0:2:0:0:
448,300,249719,1,0,0:0:0:0:
376,240,249895,6,0,P|332:240|276:272,1,80,8|0,0:0|0:0,0:0:0:0:
256,340,250248,1,2,0:2:0:0:
212,256,250425,1,0,0:0:0:0:
188,236,250513,1,0,0:0:0:0:
152,228,250601,1,0,0:0:0:0:
120,228,250690,1,0,0:0:0:0:
92,240,250778,1,8,0:0:0:0:
140,324,250954,1,2,0:2:0:0:
140,324,251131,1,2,0:2:0:0:
40,164,251307,6,0,P|76:140|128:136,1,80,8|0,0:0|0:0,0:0:0:0:
284,196,251660,2,0,P|252:164|200:148,1,80,2|0,0:2|0:0,0:0:0:0:
20,164,252013,6,0,P|56:140|108:136,1,80,0|8,0:0|0:0,0:0:0:0:
304,196,252366,2,0,P|272:164|220:148,1,80,2|0,0:2|0:0,0:0:0:0:
176,80,252719,1,8,0:0:0:0:
164,176,252895,1,0,0:0:0:0:
176,204,252984,1,0,0:0:0:0:
188,232,253072,1,2,0:2:0:0:
296,272,253248,5,0,0:0:0:0:
284,240,253337,1,0,0:0:0:0:
272,208,253425,1,0,0:0:0:0:
260,176,253513,1,0,0:0:0:0:
248,148,253601,1,8,0:0:0:0:
332,124,253778,2,0,L|424:96,1,80,2|2,0:2|0:2,0:0:0:0:
440,20,254131,5,8,0:0:0:0:
388,188,254307,1,0,0:0:0:0:
404,28,254484,1,2,0:2:0:0:
420,180,254660,1,0,0:0:0:0:
368,40,254837,5,0,0:0:0:0:
448,176,255013,1,8,0:0:0:0:
428,336,255190,1,2,0:2:0:0:
448,176,255366,1,0,0:0:0:0:
348,248,255543,6,0,B|328:256|304:244|280:232|252:240,1,80,8|0,0:0|0:0,0:0:0:0:
188,268,255895,1,2,0:2:0:0:
256,324,256072,1,0,0:0:0:0:
268,236,256248,1,0,0:0:0:0:
256,204,256337,1,0,0:0:0:0:
232,184,256425,1,8,0:0:0:0:
92,144,256601,1,2,0:2:0:0:
20,268,256778,1,2,0:2:0:0:
112,376,256954,6,0,B|136:340|132:280|132:280,1,80,8|0,0:0|0:0,0:0:0:0:
92,144,257307,2,0,B|120:176|132:232|132:232,1,80,2|0,0:2|0:0,0:0:0:0:
124,384,257660,6,0,B|148:348|144:288|144:288,1,80,0|8,0:0|0:0,0:0:0:0:
104,132,258013,2,0,B|132:164|144:220|144:220,1,80,2|0,0:2|0:0,0:0:0:0:
212,256,258366,1,8,0:0:0:0:
220,168,258543,1,0,0:0:0:0:
216,136,258631,1,0,0:0:0:0:
204,108,258719,1,2,0:2:0:0:
148,40,258895,1,0,0:0:0:0:
364,40,259072,5,2,0:2:0:0:
364,164,259248,1,8,0:0:0:0:
148,160,259425,1,2,0:2:0:0:
148,40,259601,1,0,0:0:0:0:
256,96,259778,5,12,0:0:0:0:
184,60,259954,1,0,0:2:0:0:
188,140,260131,1,2,0:2:0:0:
256,96,260307,1,0,0:0:0:0:
144,256,260484,5,0,0:0:0:0:
148,40,260660,1,8,0:0:0:0:
352,140,260837,1,2,0:2:0:0:
144,256,261013,1,0,0:0:0:0:
256,224,261190,6,0,P|304:232|356:256,1,80,8|0,0:0|0:0,0:0:0:0:
408,288,261543,2,0,P|444:316|480:360,1,80
500,260,261895,1,0,0:0:0:0:
480,234,261984,1,0,0:0:0:0:
452,217,262072,1,8,0:0:0:0:
373,176,262248,1,2,0:2:0:0:
373,176,262425,1,2,0:2:0:0:
329,278,262601,6,0,P|376:292|430:277,1,80,8|0,0:0|0:0,0:0:0:0:
400,103,262954,2,0,P|348:103|303:137,1,80,2|0,0:2|0:0,0:0:0:0:
183,278,263307,6,0,P|136:292|82:277,1,80,0|8,0:0|0:0,0:0:0:0:
112,103,263660,2,0,P|163:103|208:137,1,80,2|0,0:2|0:0,0:0:0:0:
257,172,264013,1,0,0:0:0:0:
256,260,264190,1,0,0:0:0:0:
240,288,264278,1,0,0:0:0:0:
224,316,264366,1,2,0:2:0:0:
309,379,264543,5,0,0:0:0:0:
296,348,264631,1,0,0:0:0:0:
282,316,264719,1,0,0:0:0:0:
268,285,264807,1,0,0:0:0:0:
255,258,264895,1,8,0:0:0:0:
336,220,265072,2,0,L|376:308,1,80,2|2,0:2|0:2,0:0:0:0:
412,180,265425,5,8,0:0:0:0:
448,100,265601,1,0,0:0:0:0:
452,260,265778,1,2,0:2:0:0:
412,180,265954,1,0,0:0:0:0:
448,100,266131,5,0,0:0:0:0:
320,20,266307,1,8,0:0:0:0:
168,36,266484,1,2,0:2:0:0:
88,164,266660,1,0,0:0:0:0:
188,136,266837,6,0,P|188:180|152:236,1,80,8|0,0:0|0:0,0:0:0:0:
124,284,267190,1,2,0:2:0:0:
192,340,267366,1,0,0:0:0:0:
216,320,267454,1,0,0:0:0:0:
236,292,267543,1,0,0:0:0:0:
248,264,267631,1,0,0:0:0:0:
256,232,267719,1,8,0:0:0:0:
88,164,267895,1,2,0:2:0:0:
256,68,268072,1,2,0:2:0:0:
360,96,268248,6,0,B|352:144|308:160|308:160,1,80,8|0,0:0|0:0,0:0:0:0:
152,96,268601,2,0,B|160:144|204:160|204:160,1,80,2|0,0:2|0:0,0:0:0:0:
436,280,268954,6,0,B|384:296|344:252|344:252,1,80,0|8,0:0|0:0,0:0:0:0:
76,280,269307,2,0,B|128:296|168:252|168:252,1,80,2|0,0:2|0:0,0:0:0:0:
256,52,269660,5,8,0:0:0:0:
256,68,269748,1,0,0:0:0:0:
256,84,269837,1,0,0:0:0:0:
256,100,269925,1,0,0:0:0:0:
256,116,270013,5,2,0:2:0:0:
256,132,270101,1,0,0:0:0:0:
256,148,270190,1,0,0:0:0:0:
256,164,270278,1,0,0:0:0:0:
256,180,270366,5,2,0:2:0:0:
256,196,270454,1,0,0:0:0:0:
256,212,270543,1,8,0:0:0:0:
256,228,270631,1,0,0:0:0:0:
256,244,270719,5,2,0:2:0:0:
256,260,270807,1,0,0:0:0:0:
256,276,270895,1,0,0:0:0:0:
256,292,270984,1,0,0:0:0:0:
256,308,271072,5,12,0:0:0:0:
428,348,271425,1,2,0:2:0:0:
256,308,271778,1,2,2:0:0:0:
320,248,271953,1,8,0:0:0:0:
404,268,272131,1,2,0:2:0:0:
340,36,272483,6,0,B|412:104|376:196|376:196,1,160,8|2,0:0|0:2,0:0:0:0:
379,183,273013,1,0,0:0:0:0:
212,128,273366,1,8,0:0:0:0:
300,128,273543,1,2,0:2:0:0:
256,204,273719,1,2,0:2:0:0:
172,36,273895,6,0,B|100:104|136:196|136:196,1,160,8|2,0:0|0:2,0:0:0:0:
212,128,274425,1,0,2:0:0:0:
212,128,274513,1,0,2:0:0:0:
212,128,274601,1,2,2:0:0:0:
256,204,274778,1,8,0:0:0:0:
300,128,274954,1,2,0:2:0:0:
204,276,275307,5,8,0:0:0:0:
32,320,275660,1,2,0:2:0:0:
76,244,275837,1,0,0:0:0:0:
208,364,276190,1,8,0:0:0:0:
204,276,276366,1,2,0:2:0:0:
128,324,276543,1,2,0:2:0:0:
160,192,276719,6,0,P|152:144|128:96,1,80,8|2,0:0|2:0,0:0:0:0:
139,115,276984,1,0,2:0:0:0:
139,115,277072,1,2,0:2:0:0:
80,48,277248,1,0,2:0:0:0:
80,48,277337,1,0,2:0:0:0:
80,48,277425,1,2,2:0:0:0:
168,32,277601,1,8,0:0:0:0:
140,116,277778,2,0,P|116:164|80:200,1,80,2|0,0:2|2:0,0:0:0:0:
24,228,278131,5,8,0:0:0:0:
196,272,278484,1,0,0:0:0:0:
256,208,278660,1,2,2:0:0:0:
256,208,278837,1,2,2:0:0:0:
340,184,279013,1,8,0:0:0:0:
428,192,279190,2,0,B|472:204|504:240|504:240,1,80,2|2,0:2|0:2,0:0:0:0:
512,144,279543,6,0,B|440:76|352:104|352:104,1,160,8|2,0:0|0:2,0:0:0:0:
276,124,280072,1,0,2:0:0:0:
276,124,280160,1,0,2:0:0:0:
276,124,280248,1,2,2:0:0:0:
300,40,280425,1,8,0:0:0:0:
364,100,280601,2,0,B|388:136|384:191|384:191,1,80,2|0,0:2|2:0,0:0:0:0:
372,263,280954,5,8,0:0:0:0:
372,263,281131,1,2,2:0:0:0:
314,330,281307,1,2,0:2:0:0:
314,330,281484,1,2,2:0:0:0:
288,245,281660,5,2,2:0:0:0:
230,311,281837,1,8,0:0:0:0:
264,160,282013,1,2,0:2:0:0:
202,227,282190,1,0,0:0:0:0:
144,296,282366,6,0,B|112:327|58:336|58:336,1,80,8|0,0:0|2:0,0:0:0:0:
8,273,282719,2,0,B|7:226|36:187|36:187,1,80,2|0,0:2|2:0,0:0:0:0:
29,196,282984,1,0,2:0:0:0:
29,196,283072,1,2,2:2:0:0:
87,130,283248,1,8,0:0:0:0:
116,213,283425,1,0,0:0:0:0:
181,49,283778,6,0,B|269:28|332:87|332:87,1,160,8|2,0:0|0:2,0:0:0:0:
367,166,284307,1,0,2:0:0:0:
381,159,284395,1,0,2:0:0:0:
392,149,284484,1,2,2:0:0:0:
403,137,284572,1,0,2:0:0:0:
408,122,284660,1,8,1:0:0:0:
401,34,284837,1,2,0:2:0:0:
496,137,285013,1,2,0:2:0:0:
366,168,285190,6,0,P|332:195|321:242,1,80,8|0,0:0|2:0,0:0:0:0:
407,244,285543,1,0,0:0:0:0:
465,309,285719,1,0,2:0:0:0:
465,309,285807,1,0,2:0:0:0:
465,309,285895,1,2,2:0:0:0:
406,243,286072,1,8,0:0:0:0:
487,227,286248,1,0,0:0:0:0:
331,335,286601,6,0,B|243:356|180:297|180:297,1,160,8|2,0:0|0:2,0:0:0:0:
139,220,287131,1,0,2:0:0:0:
126,226,287219,1,0,2:0:0:0:
115,238,287307,1,2,2:0:0:0:
105,250,287395,1,0,2:0:0:0:
101,266,287484,1,8,1:0:0:0:
112,353,287660,1,2,0:2:0:0:
14,242,287837,1,2,0:2:0:0:
146,216,288013,6,0,P|180:189|191:142,1,80,8|0,0:0|2:0,0:0:0:0:
105,140,288366,1,0,0:0:0:0:
41,79,288542,1,0,2:0:0:0:
41,79,288630,1,0,2:0:0:0:
41,79,288718,1,2,2:0:0:0:
106,141,288895,1,8,0:0:0:0:
126,55,289071,1,0,0:0:0:0:
344,72,289425,6,0,B|277:125|253:218|253:218,1,160,8|2,0:0|0:2,0:0:0:0:
170,72,289954,2,0,B|237:125|262:217|262:217,1,160,0|8,0:0|0:0,0:0:0:0:
185,316,290484,1,0,0:0:0:0:
329,316,290660,1,2,0:2:0:0:
257,124,290837,5,4,0:0:0:0:
256,192,290925,12,4,293660,0:0:0:0:
