osu file format v14

[General]
AudioFilename: Feint - My Sunset - Original Mix.mp3
AudioLeadIn: 0
PreviewTime: 180718
Countdown: 0
SampleSet: Normal
StackLeniency: 0.5
Mode: 0
LetterboxInBreaks: 1
WidescreenStoryboard: 1

[Editor]
Bookmarks: 84721,90368,112955,135544,146837,169427,180721,203308,225897,228721,248484,271074,282367,293662
DistanceSpacing: 0.9
BeatDivisor: 4
GridSize: 4
TimelineZoom: 2.3

[Metadata]
Title:My Sunset
TitleUnicode:My Sunset
Artist:Feint
ArtistUnicode:Feint
Creator:Hordon
Version:Hard
Source:
Tags:dnb drum and bass
BeatmapID:664742
BeatmapSetID:247290

[Difficulty]
HPDrainRate:6
CircleSize:4
OverallDifficulty:7
ApproachRate:8
SliderMultiplier:1.6
SliderTickRate:1

[Events]
//Background and Video events
0,0,"Konachan.com - 202225 mks nobody original scenic sunset.jpg",0,0
//Break Periods
2,135742,146087
2,148095,148910
2,150919,151734
//Storyboard Layer 0 (Background)
//Storyboard Layer 1 (Fail)
//Storyboard Layer 2 (Pass)
//Storyboard Layer 3 (Foreground)
//Storyboard Sound Samples

[TimingPoints]
64954,352.941176470588,4,2,0,60,1,0
67778,-100,4,1,1,60,0,0
79072,-133.333333333333,4,1,1,60,0,0
85953,-100,4,1,1,70,0,0
88953,-100,4,1,1,40,0,0
89307,-100,4,1,1,50,0,0
89660,-100,4,1,1,60,0,0
90013,-100,4,1,1,70,0,0
90365,-100,4,1,1,70,0,1
90454,-100,4,1,1,70,0,0
146837,-100,4,2,0,30,0,0
147365,-166.666666666667,4,2,0,20,0,0
149484,-166.666666666667,4,2,0,30,0,0
150190,-166.666666666667,4,2,0,20,0,0
156543,-166.666666666667,4,2,1,20,0,0
157865,-166.666666666667,4,2,0,30,0,0
158043,-166.666666666667,4,2,0,15,0,0
167837,-166.666666666667,4,1,1,20,0,0
168277,-166.666666666667,4,1,1,20,0,0
168630,-166.666666666667,4,1,1,20,0,0
168984,-166.666666666667,4,1,1,20,0,0
169424,-166.666666666667,4,1,1,20,0,0
180718,-100,4,1,1,80,0,0
225719,-100,4,1,1,80,0,0
225896,-100,4,1,1,30,0,0
226071,-166.666666666667,4,2,0,40,0,0
226424,-166.666666666667,4,2,0,30,0,0
226777,-166.666666666667,4,2,0,20,0,0
227130,-166.666666666667,4,2,0,40,0,0
227484,-166.666666666667,4,2,0,30,0,0
227924,-166.666666666667,4,2,0,20,0,0
228719,-100,4,1,1,70,0,0
248483,-100,4,1,1,70,0,1
269659,-100,4,1,1,40,0,0
270012,-100,4,1,1,50,0,0
270365,-100,4,1,1,60,0,0
270718,-100,4,1,1,70,0,0
271071,-100,4,1,1,70,0,1
271248,-100,4,1,1,70,0,0
293659,-100,4,1,1,70,0,1
294012,-100,4,1,1,70,0,0

[Colours]
Combo1 : 255,0,0
Combo2 : 255,128,128
Combo3 : 255,128,64
Combo4 : 255,128,0

[HitObjects]
256,192,64954,12,0,67778,0:0:0:0:
92,316,68484,5,0,0:0:0:0:
92,316,69190,1,0,0:0:0:0:
92,316,69895,1,0,0:0:0:0:
100,220,70248,1,2,2:0:0:0:
184,276,70601,5,4,0:2:0:0:
184,276,71307,1,0,0:0:0:0:
184,276,72013,1,0,0:0:0:0:
184,276,72719,1,0,0:0:0:0:
280,192,73072,1,2,2:0:0:0:
308,316,73425,5,4,0:2:0:0:
308,316,74131,1,0,0:0:0:0:
308,316,74837,1,0,0:0:0:0:
308,316,75543,1,0,0:0:0:0:
336,144,75895,1,2,2:0:0:0:
172,208,76248,5,4,0:2:0:0:
172,208,76954,1,0,0:0:0:0:
172,208,77660,1,0,0:0:0:0:
200,152,78013,1,2,2:0:0:0:
256,120,78366,1,0,0:0:0:0:
320,120,78719,1,0,2:0:0:0:
444,172,79072,5,4,0:2:0:0:
472,116,79425,1,0,2:0:0:0:
416,84,79778,1,0,0:0:0:0:
384,140,80131,1,0,2:0:0:0:
444,172,80484,6,0,B|448:252|356:272|356:272,1,120.000004577637,0|0,0:2|2:0,0:0:0:0:
379,263,81013,2,0,B|256:248|220:344|220:344,1,180.000006866455,0|0,1:2|1:2,0:0:0:0:
132,248,81896,5,4,0:2:0:0:
104,304,82249,1,0,2:0:0:0:
160,336,82602,1,0,0:0:0:0:
192,280,82954,1,0,2:0:0:0:
132,248,83307,6,0,B|128:168|220:148|220:148,1,120.000004577637,0|0,0:2|2:0,0:0:0:0:
197,157,83836,2,0,B|320:172|356:76|356:76,1,180.000006866455,0|0,1:2|1:2,0:0:0:0:
284,28,84719,5,4,0:2:0:0:
284,28,85072,1,0,0:0:0:0:
200,64,85425,1,0,0:0:0:0:
200,64,85778,1,0,0:0:0:0:
197,158,86131,1,0,0:0:0:0:
280,208,86484,1,0,0:0:0:0:
376,192,86837,1,0,0:0:0:0:
460,240,87190,1,0,0:0:0:0:
468,144,87543,6,0,L|400:92,1,80,0|0,0:0|0:0,0:0:0:0:
404,48,87896,2,0,L|308:76,1,80,0|0,0:0|0:0,0:0:0:0:
292,40,88248,2,0,L|269:138,1,80,0|0,0:0|0:0,0:0:0:0:
224,120,88601,2,0,L|264:216,1,80,0|0,0:0|0:0,0:0:0:0:
328,260,88954,6,0,L|375:276,2,40,0|0|0,0:0|0:0|0:0,0:0:0:0:
255,194,89307,2,0,L|236:150,2,40,0|0|0,0:0|0:0|0:0,0:0:0:0:
239,286,89660,2,0,L|211:326,2,40,0|0|0,0:0|0:0|0:0,0:0:0:0:
160,229,90013,1,0,0:0:0:0:
126,138,90190,1,0,0:0:0:0:
32,160,90366,6,0,B|106:177|161:137|162:66|162:66,1,160,12|2,0:0|0:2,0:0:0:0:
69,79,90895,1,0,0:0:0:0:
156,90,91072,2,0,P|203:69|251:78,1,80,0|8,0:0|0:0,0:0:0:0:
313,100,91425,1,2,0:2:0:0:
400,252,91778,6,0,P|353:273|305:264,1,80,8|0,0:0|0:0,0:0:0:0:
280,195,92131,1,2,0:2:0:0:
239,273,92307,2,0,P|293:340|375:341,1,160,0|8,0:0|0:0,0:0:0:0:
448,325,92837,1,2,0:2:0:0:
400,251,93013,1,2,0:2:0:0:
466,192,93190,6,0,P|473:118|419:44,1,160,8|2,0:0|0:2,0:0:0:0:
338,51,93719,1,0,0:0:0:0:
338,51,93895,2,0,P|354:97|386:120,1,80,0|8,0:0|0:0,0:0:0:0:
426,50,94248,1,2,0:2:0:0:
297,170,94601,6,0,B|246:156|216:201|216:201,1,80,8|0,0:0|0:0,0:0:0:0:
187,111,94954,1,2,0:2:0:0:
139,185,95131,2,0,P|132:259|186:333,1,160,0|8,0:0|0:0,0:0:0:0:
261,356,95660,1,2,0:2:0:0:
312,284,95837,1,2,0:2:0:0:
228,255,96013,6,0,P|142:235|55:280,1,160,8|2,0:0|0:2,0:0:0:0:
53,345,96543,2,0,P|101:350|136:321,1,80,0|0,0:0|0:0,0:0:0:0:
77,259,96895,1,8,0:0:0:0:
77,259,97071,1,2,0:2:0:0:
165,104,97425,6,0,P|177:146|161:195,1,80,8|0,0:0|0:0,0:0:0:0:
169,180,97778,1,2,0:2:0:0:
87,148,97954,2,0,P|45:159|20:198,2,80,0|0|8,0:0|0:0|0:0,0:0:0:0:
100,235,98484,1,2,0:2:0:0:
168,180,98660,1,2,0:2:0:0:
239,231,98837,6,0,L|264:324,1,80,8|0,0:0|0:0,0:0:0:0:
322,177,99190,2,0,L|384:228,1,80,2|0,0:2|0:0,0:0:0:0:
384,228,99719,1,8,0:0:0:0:
256,308,99895,1,2,0:2:0:0:
232,132,100248,6,0,P|221:84|252:34,1,80,8|0,0:0|0:0,0:0:0:0:
231,55,100601,2,0,P|275:55|313:79,1,80,2|0,0:2|0:0,0:0:0:0:
316,164,100954,1,2,0:2:0:0:
304,72,101131,1,8,0:0:0:0:
232,132,101307,1,2,0:2:0:0:
304,72,101484,1,0,0:0:0:0:
388,112,101660,6,0,B|484:136|488:244|488:244,1,160,12|2,0:0|0:2,0:0:0:0:
416,284,102190,1,0,0:0:0:0:
496,320,102366,2,0,P|464:356|408:376,1,80,0|8,0:0|0:0,0:0:0:0:
352,344,102719,2,0,P|328:300|340:244,1,80,2|0,0:2|0:0,0:0:0:0:
256,224,103072,6,0,L|148:240,1,80,8|0,0:0|0:0,0:0:0:0:
88,248,103425,1,2,0:2:0:0:
112,164,103601,2,0,L|196:148,2,80,0|0|8,0:0|0:0|0:0,0:0:0:0:
132,76,104131,1,2,0:2:0:0:
132,76,104307,1,2,0:2:0:0:
112,164,104484,6,0,L|216:288,1,160,8|2,0:0|0:2,0:0:0:0:
272,356,105013,1,0,0:0:0:0:
308,276,105190,2,0,L|244:200,1,80,0|8,0:0|0:0,0:0:0:0:
296,136,105543,2,0,L|356:204,1,80,2|0,0:2|0:0,0:0:0:0:
416,252,105895,6,0,P|460:272|516:260,1,80,8|0,0:0|0:0,0:0:0:0:
468,184,106248,1,2,0:2:0:0:
404,124,106425,2,0,P|404:72|424:40,2,80,0|0|8,0:0|0:0|0:0,0:0:0:0:
468,184,106954,1,2,0:2:0:0:
492,100,107131,1,2,0:2:0:0:
404,124,107307,6,0,B|376:156|316:152|316:152,1,80,8|0,0:0|0:0,0:0:0:0:
224,40,107660,2,0,B|248:92|316:84|316:84,1,80,2|0,0:2|0:0,0:0:0:0:
287,83,108190,1,8,0:0:0:0:
272,224,108366,2,0,B|278:219|214:296|124:257,1,160,2|8,0:2|0:0,0:0:0:0:
88,88,109072,1,2,0:2:0:0:
88,88,109248,2,0,B|82:93|146:16|236:55,1,160,0|8,0:0|0:0,0:0:0:0:
296,116,109778,1,2,0:2:0:0:
216,156,109954,1,2,0:2:0:0:
272,224,110131,6,0,L|244:328,2,80,8|0|2,0:0|0:0|0:2,0:0:0:0:
360,236,110660,2,0,L|400:80,1,160,0|8,0:0|0:0,0:0:0:0:
399,81,111190,1,2,0:2:0:0:
448,252,111543,5,8,0:0:0:0:
304,352,111895,1,2,0:2:0:0:
448,252,112248,2,0,P|408:232|352:228,1,80,2|8,0:2|0:0,0:0:0:0:
300,276,112601,2,0,P|296:328|316:376,1,80,2|0,0:2|0:0,0:0:0:0:
300,276,112954,6,0,B|272:184|153:186|153:186,1,160,12|2,0:0|0:2,0:0:0:0:
88,188,113484,1,0,0:0:0:0:
136,116,113660,2,0,P|172:108|220:116,1,80,0|8,0:0|0:0,0:0:0:0:
296,144,114013,2,0,P|328:168|356:216,1,80,2|0,0:2|0:0,0:0:0:0:
276,248,114366,6,0,P|268:288|280:328,1,80,8|0,0:0|0:0,0:0:0:0:
360,288,114719,1,2,0:2:0:0:
348,200,114895,1,0,0:0:0:0:
268,164,115072,2,0,P|224:176|188:212,1,80,0|8,0:0|0:0,0:0:0:0:
184,284,115425,1,2,0:2:0:0:
184,284,115601,1,2,0:2:0:0:
124,348,115778,6,0,B|32:312|48:208|48:208,1,160,8|2,0:0|0:2,0:0:0:0:
0,144,116307,1,0,0:0:0:0:
88,144,116484,2,0,P|76:92|48:64,2,80,0|8|2,0:0|0:0|0:2,0:0:0:0:
260,100,117190,6,0,P|216:104|180:136,1,80,8|0,0:0|0:0,0:0:0:0:
252,184,117543,2,0,P|292:200|340:184,1,80,2|0,0:2|0:0,0:0:0:0:
348,100,117895,1,0,0:0:0:0:
308,24,118072,1,8,0:0:0:0:
260,100,118248,2,0,L|220:200,1,80,2|2,0:2|0:2,0:0:0:0:
260,100,118601,6,0,L|316:276,1,160,8|2,0:0|0:2,0:0:0:0:
388,288,119131,1,0,0:0:0:0:
444,220,119307,2,0,L|416:132,2,80,0|8|2,0:0|0:0|0:2,0:0:0:0:
296,316,120013,6,0,P|204:272|156:208,1,160,8|2,0:0|0:2,0:0:0:0:
252,200,120543,2,0,P|240:276|192:356,1,160,0|8,0:0|0:0,0:0:0:0:
116,324,121072,1,2,0:2:0:0:
100,236,121248,1,2,0:2:0:0:
168,180,121425,5,8,0:0:0:0:
332,228,121778,1,2,0:2:0:0:
256,68,122131,1,0,0:0:0:0:
291,148,122307,1,8,0:0:0:0:
332,228,122484,1,2,0:2:0:0:
448,96,122837,6,0,L|388:168,1,80,8|0,0:0|0:0,0:0:0:0:
396,157,123190,2,0,L|344:68,1,80,2|0,0:2|0:0,0:0:0:0:
404,16,123543,1,2,0:2:0:0:
448,96,123719,1,8,0:0:0:0:
396,164,123895,1,2,0:2:0:0:
356,88,124071,1,0,0:0:0:0:
448,96,124248,6,0,B|505:163|479:265|479:265,1,160,12|2,0:0|0:2,0:0:0:0:
392,244,124778,1,0,0:0:0:0:
392,244,124954,2,0,B|376:284|401:333|401:333,1,80,0|8,0:0|0:0,0:0:0:0:
312,292,125307,2,0,B|272:312|259:354|259:354|259:355,1,80,2|0,0:2|0:0,0:0:0:0:
260,350,125660,5,8,0:0:0:0:
128,236,126013,1,2,0:2:0:0:
160,320,126190,1,0,0:0:0:0:
248,168,126543,1,8,0:0:0:0:
220,252,126719,1,2,0:2:0:0:
248,168,126895,1,2,0:2:0:0:
160,156,127072,6,0,P|128:124|116:68,1,80,8|0,0:0|0:0,0:0:0:0:
204,72,127425,2,0,P|232:36|288:28,1,80,2|0,0:2|0:0,0:0:0:0:
352,28,127778,1,0,0:0:0:0:
304,100,127954,1,8,0:0:0:0:
392,104,128131,2,0,P|432:116|464:160,1,80,2|0,0:2|0:0,0:0:0:0:
457,143,128484,5,8,0:0:0:0:
472,320,128837,1,2,0:2:0:0:
440,236,129013,1,0,0:0:0:0:
312,356,129366,1,8,0:0:0:0:
328,268,129543,1,2,0:2:0:0:
312,356,129719,1,2,0:2:0:0:
228,332,129895,6,0,P|192:312|168:264,1,80,8|0,0:0|0:0,0:0:0:0:
152,192,130248,1,2,0:2:0:0:
232,228,130425,2,0,P|276:176|272:72,1,160,0|8,0:0|0:0,0:0:0:0:
278,87,130954,1,2,0:2:0:0:
104,80,131307,6,0,P|128:108|180:120,1,80,8|0,0:0|0:0,0:0:0:0:
200,40,131660,1,2,0:2:0:0:
278,87,131837,2,0,P|272:176|216:240,1,160,0|8,0:0|0:0,0:0:0:0:
152,268,132366,1,2,0:2:0:0:
155,179,132543,1,2,0:2:0:0:
232,228,132719,5,8,0:0:0:0:
400,276,133072,1,2,0:2:0:0:
260,52,133601,5,8,0:0:0:0:
308,128,133778,1,2,0:2:0:0:
308,128,133954,1,2,0:2:0:0:
220,132,134131,6,0,P|188:160|136:172,1,80,8|0,0:0|0:0,0:0:0:0:
76,112,134484,2,0,P|104:88|148:76,1,80,2|0,0:2|0:0,0:0:0:0:
200,240,134837,2,0,P|156:256|108:248,1,80,2|8,0:2|0:0,0:0:0:0:
76,112,135190,2,0,P|120:96|168:104,1,80,2|0,0:2|0:2,0:0:0:0:
256,152,135542,5,4,0:0:0:0:
62,314,146837,5,2,0:0:0:0:
133,265,147190,1,0,0:0:0:0:
230,252,147543,1,0,0:0:0:0:
344,282,147895,1,0,0:0:0:0:
468,195,149660,5,2,0:0:0:0:
397,146,150013,1,0,0:0:0:0:
300,133,150366,1,0,0:0:0:0:
186,163,150719,1,0,0:0:0:0:
116,116,152484,5,2,0:0:0:0:
156,188,153895,1,0,0:0:0:0:
200,264,155307,1,2,0:0:0:0:
264,136,156719,2,0,P|216:160|320:176,1,287.999991210938,0|0,1:0|2:0,0:0:0:0:
344,108,158131,5,4,0:0:0:0:
400,108,158484,1,0,0:0:0:0:
452,136,158837,1,0,0:0:0:0:
484,184,159190,1,0,0:0:0:0:
388,208,159543,6,0,P|336:216|304:252,1,95.9999970703126,0|2,0:0|0:0,0:0:0:0:
304,276,160072,1,0,0:0:0:0:
296,304,160248,2,0,P|280:328|256:348,2,47.9999985351563,2|0|2,0:0|0:0|0:0,0:0:0:0:
184,300,160954,5,0,0:0:0:0:
128,308,161307,1,0,0:0:0:0:
72,289,161660,1,0,0:0:0:0:
33,246,162013,1,0,0:0:0:0:
124,208,162366,6,0,P|174:191|200:151,1,95.9999970703126,0|2,0:0|0:0,0:0:0:0:
197,127,162895,1,0,0:0:0:0:
200,98,163072,2,0,P|212:71|232:48,2,47.9999985351563,0|2|2,0:0|0:0|0:0,0:0:0:0:
336,40,163778,5,4,0:0:0:0:
372,120,165190,1,0,0:0:0:0:
408,200,166601,1,0,0:0:0:0:
340,300,168013,5,0,0:0:0:0:
340,300,168366,1,0,0:0:0:0:
340,300,168719,1,0,0:0:0:0:
340,300,169072,1,0,0:0:0:0:
272,248,169425,5,12,0:0:0:0:
204,300,169778,1,0,0:3:0:0:
204,300,170307,1,8,0:0:0:0:
164,288,170484,2,0,L|88:348,2,95.9999970703126,0|8|0,0:3|0:0|0:0,0:0:0:0:
88,180,171719,2,0,L|68:248,1,47.9999985351563,8|0,0:0|0:0,0:0:0:0:
100,92,172248,6,0,L|208:72,1,95.9999970703126,12|0,0:0|0:0,0:0:0:0:
194,74,173131,1,4,0:3:0:0:
232,92,173307,2,0,L|288:192,2,95.9999970703126,8|8|0,0:0|0:0|0:0,0:0:0:0:
348,32,174543,2,0,L|328:88,1,47.9999985351563,8|0,0:0|0:0,0:0:0:0:
300,156,175072,5,12,0:0:0:0:
388,156,175425,1,0,0:0:0:0:
388,156,175954,1,8,0:0:0:0:
428,172,176131,2,0,L|464:272,2,95.9999970703126,0|8|0,0:0|0:0|0:0,0:0:0:0:
320,244,177366,1,8,0:0:0:0:
292,280,177543,1,0,0:0:0:0:
256,192,177895,12,0,180366,0:0:0:0:
256,64,180719,6,0,B|296:136|220:156|256:224,1,160,12|2,0:0|0:2,0:0:0:0:
252,217,181248,1,0,0:0:0:0:
336,192,181425,2,0,P|340:232|312:280,1,80,0|8,0:0|0:0,0:0:0:0:
244,304,181778,1,2,0:2:0:0:
416,276,182131,6,0,P|396:316|360:344,1,80,8|0,0:0|0:0,0:0:0:0:
328,264,182484,1,2,0:2:0:0:
416,276,182660,2,0,P|424:196|384:116,1,160,0|8,0:0|0:0,0:0:0:0:
416,40,183190,2,0,P|452:60|480:112,1,80,2|2,0:2|0:2,0:0:0:0:
392,124,183543,6,0,P|368:160|328:176,1,80,8|0,0:0|0:0,0:0:0:0:
312,92,183895,2,0,B|280:52|220:56|220:56,1,80,2|0,0:2|0:0,0:0:0:0:
160,24,184248,2,0,P|124:44|80:40,2,80,0|8|2,0:0|0:0|0:2,0:0:0:0:
40,152,184954,6,0,P|32:232|72:312,1,160,8|2,0:0|0:2,0:0:0:0:
64,302,185484,1,0,0:0:0:0:
128,364,185660,2,0,P|148:324|140:276,1,80,0|8,0:0|0:0,0:0:0:0:
220,240,186013,1,2,0:2:0:0:
140,200,186190,1,2,0:2:0:0:
144,288,186366,6,0,P|212:328|296:308,1,160,8|2,0:0|0:2,0:0:0:0:
356,256,186895,1,0,0:0:0:0:
296,192,187072,2,0,P|284:152|296:104,2,80,0|8|2,0:0|0:0|0:2,0:0:0:0:
416,60,187778,6,0,P|428:100|416:140,1,80,8|0,0:0|0:0,0:0:0:0:
380,216,188131,1,2,0:2:0:0:
296,192,188307,2,0,B|240:168|188:228|136:188,1,160,0|8,0:0|0:0,0:0:0:0:
76,128,188837,2,0,P|112:108|160:104,1,80,2|2,0:2|0:2,0:0:0:0:
150,103,189190,5,8,0:0:0:0:
324,116,189543,1,2,0:2:0:0:
164,188,189895,1,0,0:0:0:0:
252,188,190072,1,8,0:0:0:0:
340,200,190248,1,2,0:2:0:0:
180,276,190601,6,0,P|163:313|152:360,1,80,8|0,0:0|0:0,0:0:0:0:
160,264,190954,2,0,P|126:290|104:328,1,80,2|0,0:2|0:0,0:0:0:0:
144,244,191307,2,0,P|104:252|52:280,3,80,2|8|2|0,0:2|0:0|0:2|0:0,0:0:0:0:
176,160,192013,6,0,B|148:128|148:72,1,80,4|0,0:0|0:0,0:0:0:0:
224,40,192366,1,2,0:2:0:0:
224,40,192543,1,0,0:0:0:0:
288,100,192719,2,0,P|224:124|144:84,1,160,0|2,0:0|0:2,0:0:0:0:
308,20,193425,6,0,P|356:24|388:40,1,80,8|0,0:0|0:0,0:0:0:0:
368,124,193778,1,2,0:2:0:0:
448,88,193954,2,0,P|472:120|488:172,2,80,0|0|8,0:0|0:0|0:0,0:0:0:0:
368,124,194484,1,2,0:2:0:0:
348,208,194660,1,2,0:2:0:0:
428,240,194837,6,0,P|408:320|340:360,1,160,8|2,0:0|0:2,0:0:0:0:
345,358,195366,1,0,0:0:0:0:
260,332,195543,2,0,P|232:296|232:244,1,80,0|8,0:0|0:0,0:0:0:0:
264,184,195895,1,2,0:2:0:0:
432,240,196248,6,0,P|425:201|399:170,1,80,8|0,0:0|0:0,0:0:0:0:
328,120,196601,1,2,0:2:0:0:
264,184,196778,2,0,L|104:224,1,160,0|8,0:0|0:0,0:0:0:0:
48,160,197307,2,0,L|136:136,1,80,2|2,0:2|0:2,0:0:0:0:
144,60,197660,6,0,B|124:148|124:148,1,80,8|0,0:0|0:0,0:0:0:0:
184,204,198013,2,0,B|164:288|164:288,1,80,2|0,0:2|0:0,0:0:0:0:
165,281,198543,1,8,0:0:0:0:
40,240,198719,2,0,B|104:160|200:208|200:208,1,160,2|8,0:2|0:0,0:0:0:0:
248,260,199248,6,0,P|252:304|220:348,1,80,0|2,0:0|0:2,0:0:0:0:
164,280,199601,1,0,0:0:0:0:
188,196,199778,2,0,P|208:156|256:132,1,80,0|8,0:0|0:0,0:0:0:0:
320,164,200131,2,0,P|360:136|368:84,1,80,2|2,0:2|0:2,0:0:0:0:
300,52,200484,6,0,P|268:72|252:120,1,80,8|0,0:0|0:0,0:0:0:0:
320,164,200837,1,2,0:2:0:0:
320,164,201013,1,0,0:0:0:0:
484,224,201366,1,8,0:0:0:0:
436,296,201543,2,0,P|404:324|360:332,1,80,2|0,0:2|0:0,0:0:0:0:
280,320,201895,5,8,0:0:0:0:
256,244,202072,1,0,0:0:0:0:
186,279,202248,1,2,0:2:0:0:
205,361,202425,1,0,0:0:0:0:
280,320,202601,2,0,P|268:264|252:240,1,80,2|8,0:2|0:0,0:0:0:0:
256,244,202954,2,0,P|212:256|184:280,1,80,2|0,0:2|0:0,0:0:0:0:
256,244,203307,6,0,B|272:160|328:100|328:100,1,160,12|2,0:0|0:2,0:0:0:0:
400,56,203837,1,0,0:0:0:0:
396,144,204013,2,0,B|364:176|352:216|352:216,1,80,0|8,0:0|0:0,0:0:0:0:
440,224,204366,2,0,B|408:252|400:296|400:296,1,80,2|0,0:2|0:0,0:0:0:0:
324,336,204719,6,0,P|284:348|232:340,1,80,8|0,0:0|0:0,0:0:0:0:
164,308,205072,1,2,0:2:0:0:
164,308,205248,1,0,0:0:0:0:
240,260,205425,2,0,P|284:268|320:252,1,80,0|8,0:0|0:0,0:0:0:0:
268,180,205778,2,0,P|220:176|176:200,1,80,2|2,0:2|0:2,0:0:0:0:
116,232,206131,6,0,P|88:156|112:72,1,160,8|2,0:0|0:2,0:0:0:0:
106,81,206660,1,0,0:0:0:0:
176,28,206837,2,0,P|196:68|184:112,2,80,0|8|2,0:0|0:0|0:2,0:0:0:0:
60,160,207543,6,0,P|100:176|152:152,1,80,8|0,0:0|0:0,0:0:0:0:
192,100,207895,2,0,P|220:136|220:188,1,80,2|0,0:2|0:0,0:0:0:0:
176,244,208248,1,0,0:0:0:0:
232,312,208425,1,8,0:0:0:0:
176,244,208601,2,0,B|176:268|156:280|132:292|132:328,1,80,2|2,0:2|0:2,0:0:0:0:
92,224,208954,6,0,B|104:176|144:160|176:144|192:100,1,160,8|2,0:0|0:2,0:0:0:0:
116,56,209484,1,0,0:0:0:0:
68,128,209660,2,0,P|100:152|148:160,1,80,0|8,0:0|0:0,0:0:0:0:
196,92,210013,1,2,0:2:0:0:
372,100,210366,6,0,B|382:191|305:268,1,160,8|2,0:0|0:2,0:0:0:0:
407,223,210895,2,0,B|321:196|284:116,1,160,0|8,0:0|0:0,0:0:0:0:
308,36,211425,1,2,0:2:0:0:
372,100,211601,1,2,0:2:0:0:
452,136,211778,5,8,0:0:0:0:
296,216,212131,1,2,0:2:0:0:
384,204,212307,1,0,0:0:0:0:
460,308,212660,1,8,0:0:0:0:
432,224,212837,1,2,0:2:0:0:
288,340,213190,6,0,P|336:328|368:288,1,80,8|0,0:0|0:0,0:0:0:0:
280,264,213543,2,0,P|276:304|292:352,1,80,2|0,0:2|0:0,0:0:0:0:
280,264,213895,2,0,P|244:280|192:272,3,80,2|8|2|0,0:2|0:0|0:2|0:0,0:0:0:0:
228,192,214601,6,0,B|208:104|140:48|140:48,1,160,12|2,0:0|0:2,0:0:0:0:
64,84,215131,1,0,0:0:0:0:
64,84,215307,2,0,B|96:108|128:160|128:160,1,80,0|8,0:0|0:0,0:0:0:0:
148,228,215660,2,0,B|144:268|108:312|108:312,1,80,2|0,0:2|0:0,0:0:0:0:
56,236,216013,5,8,0:0:0:0:
196,340,216366,1,2,0:2:0:0:
256,276,216543,1,0,0:0:0:0:
316,340,216719,1,0,0:0:0:0:
452,228,217072,1,2,0:2:0:0:
452,228,217248,1,2,0:2:0:0:
368,252,217425,6,0,P|392:288|424:312,1,80,8|0,0:0|0:0,0:0:0:0:
452,228,217778,2,0,P|416:152|404:72,1,160,2|0,0:2|0:0,0:0:0:0:
404,77,218307,1,8,0:0:0:0:
488,108,218484,2,0,P|460:140|396:168,1,80,2|0,0:2|0:0,0:0:0:0:
344,180,218837,5,8,0:0:0:0:
212,64,219190,1,2,0:2:0:0:
256,140,219366,1,0,0:0:0:0:
300,64,219543,1,0,0:0:0:0:
172,184,219895,1,2,0:2:0:0:
172,184,220072,1,2,0:2:0:0:
256,212,220248,6,0,B|264:240|248:276|260:304,1,80,8|0,0:0|0:0,0:0:0:0:
328,344,220601,1,2,0:2:0:0:
344,256,220778,1,0,0:0:0:0:
168,260,221131,1,8,0:0:0:0:
188,344,221307,1,2,0:2:0:0:
344,256,221660,6,0,P|392:252|440:272,1,80,8|0,0:0|0:0,0:0:0:0:
500,300,222013,1,2,0:2:0:0:
420,260,222190,2,0,P|384:192|372:104,1,160,0|8,0:0|0:0,0:0:0:0:
460,108,222719,2,0,P|444:60|400:24,1,80,2|2,0:2|0:2,0:0:0:0:
336,24,223072,5,8,0:0:0:0:
244,176,223425,1,2,0:2:0:0:
136,316,223778,1,0,0:0:0:0:
220,284,223954,1,8,0:0:0:0:
152,228,224131,1,2,0:2:0:0:
256,192,224306,12,0,225718,2:2:0:0:
256,164,225895,5,4,0:0:0:0:
192,120,226248,1,0,0:0:0:0:
236,48,226601,1,2,0:0:0:0:
304,96,226954,1,2,0:0:0:0:
236,48,227307,5,0,0:0:0:0:
192,120,227660,1,0,0:0:0:0:
108,136,228013,1,0,0:0:0:0:
36,184,228366,2,0,P|24:216|28:268,1,71.9999978027344,0|0,0:0|0:0,0:0:0:0:
24,253,228719,6,0,B|68:332|164:320,1,160,12|2,0:0|0:2,0:0:0:0:
204,244,229248,1,0,0:0:0:0:
204,244,229425,2,0,B|160:165|64:177,1,160,0|2,0:0|0:2,0:0:0:0:
248,164,230131,6,0,B|348:196|396:108|396:108,1,160,8|2,0:0|0:2,0:0:0:0:
356,36,230660,1,0,0:0:0:0:
356,36,230837,2,0,B|256:4|208:92|208:92,1,160,0|2,0:0|0:2,0:0:0:0:
248,164,231366,1,2,0:2:0:0:
324,208,231543,6,0,L|348:296,1,80,12|0,0:0|0:0,0:0:0:0:
324,208,231895,1,2,0:2:0:0:
424,228,232072,1,0,0:0:0:0:
397,152,232248,2,0,L|424:228,1,80,0|8,0:0|0:0,0:0:0:0:
504,264,232601,1,2,0:2:0:0:
332,304,232954,6,0,B|304:344|248:344|248:344|168:344,1,160,8|2,0:0|0:2,0:0:0:0:
140,268,233484,1,0,0:0:0:0:
140,268,233660,2,0,B|168:228|224:228|224:228|304:228,1,160,0|2,0:0|0:2,0:0:0:0:
320,148,234190,1,2,0:2:0:0:
404,128,234366,6,0,P|392:88|356:64,1,80,8|0,0:0|0:0,0:0:0:0:
320,148,234719,1,2,0:2:0:0:
280,72,234895,1,0,0:0:0:0:
232,148,235072,2,0,P|224:188|248:244,2,80,0|8|2,0:0|0:0|0:2,0:0:0:0:
324,296,235778,6,0,P|336:252|320:204,1,80,8|0,0:0|0:0,0:0:0:0:
253,265,236131,2,0,P|283:292|333:293,1,80,2|0,0:2|0:0,0:0:0:0:
329,218,236484,1,2,0:2:0:0:
254,176,236660,1,8,0:0:0:0:
253,265,236837,1,2,0:2:0:0:
254,176,237013,1,0,0:0:0:0:
181,125,237190,6,0,B|137:104|92:131|92:131,1,80,12|0,0:0|0:0,0:0:0:0:
37,184,237543,1,2,0:2:0:0:
24,96,237719,1,0,0:0:0:0:
105,127,237895,2,0,B|152:196|136:293|136:293,1,160,0|2,0:0|0:2,0:0:0:0:
290,368,238601,6,0,B|243:299|259:202|259:202,1,160,8|2,0:0|0:2,0:0:0:0:
286,130,239131,1,0,0:0:0:0:
361,174,239307,2,0,B|406:163|441:193|441:193,2,80,0|8|2,0:0|0:0|0:2,0:0:0:0:
382,260,239837,1,2,0:2:0:0:
361,174,240013,6,0,B|356:120|387:79|387:79,1,80,8|0,0:0|0:0,0:0:0:0:
460,70,240366,2,0,P|462:104|435:160,1,80,2|0,0:2|0:0,0:0:0:0:
493,220,240719,2,0,P|464:246|418:262,1,80,0|8,0:0|0:0,0:0:0:0:
338,267,241072,1,2,0:2:0:0:
259,109,241425,5,8,0:0:0:0:
183,268,241778,1,2,0:2:0:0:
261,229,241954,1,0,0:0:0:0:
324,168,242131,1,0,0:0:0:0:
344,82,242307,1,8,0:0:0:0:
260,109,242484,1,2,0:2:0:0:
117,212,242837,6,0,B|146:176|196:178|196:178,1,80,12|0,0:0|0:0,0:0:0:0:
259,228,243190,1,2,0:2:0:0:
182,270,243366,1,0,0:0:0:0:
116,211,243543,2,0,L|84:50,1,160,0|2,0:0|0:2,0:0:0:0:
260,60,244248,6,0,L|277:158,1,80,8|0,0:0|0:0,0:0:0:0:
343,192,244601,1,2,0:2:0:0:
343,192,244778,1,0,0:0:0:0:
415,142,244954,2,0,B|435:178|435:222|435:222,2,80,0|8|2,0:0|0:0|0:2,0:0:0:0:
342,90,245484,5,2,0:2:0:0:
415,142,245660,2,0,B|450:221|435:312|435:312,1,160,8|2,0:0|0:2,0:0:0:0:
361,252,246190,2,0,P|322:317|236:355,1,160,0|8,0:0|0:0,0:0:0:0:
248,353,246719,1,2,0:2:0:0:
163,198,247072,6,0,P|186:164|238:148,1,80,8|0,0:0|0:0,0:0:0:0:
274,218,247425,2,0,P|251:252|199:268,1,80,2|0,0:2|0:0,0:0:0:0:
155,331,247778,2,0,P|115:311|93:273,1,80,2|8,0:2|0:0,0:0:0:0:
52,205,248131,2,0,P|46:158|60:112,1,80,2|0,0:2|0:0,0:0:0:0:
96,48,248484,5,12,0:0:0:0:
164,104,248660,1,0,0:0:0:0:
96,48,248837,1,2,0:2:0:0:
164,104,249013,1,0,0:0:0:0:
240,60,249190,2,0,P|368:80|392:104,1,160,0|2,0:0|0:2,0:0:0:0:
386,96,249895,6,0,L|416:184,1,80,8|0,0:0|0:0,0:0:0:0:
324,188,250248,1,2,0:2:0:0:
388,252,250425,1,0,0:0:0:0:
472,220,250601,2,0,P|487:253|484:320,2,80,0|8|2,0:0|0:0|0:2,0:0:0:0:
312,144,251307,6,0,P|272:160|236:192,1,80,8|0,0:0|0:0,0:0:0:0:
176,240,251660,2,0,P|212:264|268:256,1,80,2|0,0:2|0:0,0:0:0:0:
264,352,252013,2,0,P|160:340|112:308,1,160,0|2,0:0|0:2,0:0:0:0:
60,144,252719,6,0,P|68:184|108:220,1,80,8|0,0:0|0:0,0:0:0:0:
176,240,253072,1,2,0:2:0:0:
156,156,253248,1,0,0:0:0:0:
180,72,253425,2,0,P|216:48|260:52,1,80,0|8,0:0|0:0,0:0:0:0:
336,68,253778,1,2,0:2:0:0:
408,228,254131,5,8,0:0:0:0:
492,256,254307,1,0,0:0:0:0:
408,228,254484,1,2,0:2:0:0:
492,256,254660,1,0,0:0:0:0:
472,168,254837,2,0,B|400:100|312:152|312:152,1,160,0|2,0:0|0:2,0:0:0:0:
323,146,255543,6,0,B|292:236,1,80,8|0,0:0|0:0,0:0:0:0:
224,176,255895,2,0,L|188:276,1,80,2|0,0:2|0:0,0:0:0:0:
120,192,256248,2,0,L|148:104,1,80,0|8,0:0|0:0,0:0:0:0:
172,32,256601,1,2,0:2:0:0:
172,32,256778,1,2,0:2:0:0:
224,104,256954,6,0,B|188:128|136:116|136:116,1,80,8|0,0:0|0:0,0:0:0:0:
224,104,257307,2,0,B|224:152|184:196|184:196,1,80,2|0,0:2|0:0,0:0:0:0:
112,192,257660,2,0,B|112:292|188:352|188:352,1,160,0|2,0:0|0:2,0:0:0:0:
320,240,258366,6,0,P|308:280|264:320,2,80,8|0|2,0:0|0:0|0:2,0:0:0:0:
212,256,258895,1,0,0:0:0:0:
176,336,259072,2,0,P|136:356|88:348,1,80,2|8,0:2|0:0,0:0:0:0:
40,292,259425,2,0,P|80:268|124:272,1,80,2|0,0:2|0:0,0:0:0:0:
212,256,259778,5,12,0:0:0:0:
248,176,259954,1,0,0:2:0:0:
212,256,260131,1,2,0:2:0:0:
248,176,260307,1,0,0:0:0:0:
284,96,260484,2,0,L|368:64,2,80,0|8|2,0:0|0:0|0:2,0:0:0:0:
460,124,261190,6,0,L|360:168,1,80,8|0,0:0|0:0,0:0:0:0:
436,84,261543,2,0,L|340:60,1,80,0|0,0:0|0:0,0:0:0:0:
276,92,261895,2,0,L|320:268,1,160,0|2,0:0|0:2,0:0:0:0:
314,247,262425,1,2,0:2:0:0:
252,308,262601,6,0,P|288:332|340:332,1,80,8|0,0:0|0:0,0:0:0:0:
392,280,262954,2,0,P|404:236|384:192,1,80,2|0,0:2|0:0,0:0:0:0:
314,247,263307,2,0,P|274:239|238:187,2,80,0|8|2,0:0|0:0|0:2,0:0:0:0:
352,76,264013,6,0,P|436:92|492:152,1,160,0|2,0:0|0:2,0:0:0:0:
432,212,264543,1,0,0:0:0:0:
344,216,264719,2,0,L|272:260,1,80,0|8,0:0|0:0,0:0:0:0:
348,308,265072,2,0,L|264:356,1,80,2|2,0:2|0:2,0:0:0:0:
200,308,265425,5,8,0:0:0:0:
196,220,265601,1,0,0:0:0:0:
276,260,265778,1,2,0:2:0:0:
200,308,265954,1,0,0:0:0:0:
120,268,266131,2,0,P|72:280|40:304,2,80,0|8|2,0:0|0:0|0:2,0:0:0:0:
196,108,266837,6,0,P|244:100|292:72,1,80,8|0,0:0|0:0,0:0:0:0:
208,24,267190,1,2,0:2:0:0:
208,24,267366,1,0,0:0:0:0:
272,88,267543,2,0,P|252:160|196:240,1,160,0|2,0:0|0:2,0:0:0:0:
205,230,268072,1,2,0:2:0:0:
252,156,268248,6,0,B|288:184|340:172|340:172,1,80,8|0,0:0|0:0,0:0:0:0:
384,104,268601,2,0,B|344:72|304:88|304:88,1,80,2|0,0:2|0:0,0:0:0:0:
328,172,268954,2,0,B|316:224|364:252|364:252,1,80,0|8,0:0|0:0,0:0:0:0:
420,184,269307,2,0,B|468:180|476:124|476:124,1,80,2|0,0:2|0:0,0:0:0:0:
452,48,269660,6,0,L|500:16,2,40,8|0|0,0:0|0:0|0:0,0:0:0:0:
384,104,270013,2,0,L|324:64,2,40,2|0|0,0:2|0:0|0:0,0:0:0:0:
420,184,270366,2,0,L|472:152,2,40,2|0|8,0:2|0:0|0:0,0:0:0:0:
368,256,270719,2,0,L|320:224,2,40,2|0|0,0:2|0:0|0:0,0:0:0:0:
284,236,271072,6,0,P|248:300|148:328,1,160,12|2,0:0|0:2,0:0:0:0:
284,236,271778,1,2,2:0:0:0:
170,330,272131,1,2,0:2:0:0:
40,212,272484,6,0,B|128:184|192:244|192:244,1,160,8|2,0:0|0:2,0:0:0:0:
190,242,273013,2,0,P|176:148|200:68,1,160,0|8,0:0|0:0,0:0:0:0:
256,28,273543,1,2,0:2:0:0:
276,112,273719,1,2,0:2:0:0:
192,88,273895,6,0,P|118:114|78:182,1,160,8|2,0:0|0:2,0:0:0:0:
192,88,274601,1,2,2:0:0:0:
78,182,274954,1,2,0:2:0:0:
240,248,275307,6,0,P|324:268|408:240,1,160,8|2,0:0|0:2,0:0:0:0:
393,248,275837,2,0,P|420:168|408:88,1,160,0|8,0:0|0:0,0:0:0:0:
324,76,276366,1,2,0:2:0:0:
380,8,276543,1,2,0:2:0:0:
464,28,276719,6,0,P|488:72|496:124,1,80,8|2,0:0|2:0,0:0:0:0:
500,188,277072,1,2,0:2:0:0:
464,28,277425,1,2,2:0:0:0:
500,188,277778,1,2,0:2:0:0:
328,220,278131,6,0,P|392:172|412:88,1,160,8|0,0:0|0:0,0:0:0:0:
328,124,278660,2,0,P|292:148|244:160,1,80,2|2,2:0|2:0,0:0:0:0:
328,220,279013,2,0,P|364:252|384:312,2,80,8|2|2,0:0|0:2|0:2,0:0:0:0:
288,304,279543,6,0,B|252:336|204:332|204:332,1,80,8|0,0:0|0:0,0:0:0:0:
128,336,279895,1,2,0:2:0:0:
288,304,280248,1,2,2:0:0:0:
128,336,280601,1,2,0:2:0:0:
176,168,280954,5,8,0:0:0:0:
196,252,281131,1,2,2:0:0:0:
176,168,281307,1,2,0:2:0:0:
352,176,281660,2,0,P|312:204|256:208,2,80,2|8|2,2:0|0:0|0:2,0:0:0:0:
220,60,282366,6,0,B|128:48|72:120|72:120,2,160,8|2|2,0:0|0:2|2:2,0:0:0:0:
220,60,283425,1,0,0:0:0:0:
224,236,283778,6,0,B|128:184|148:80|148:80,1,160,8|2,0:0|0:2,0:0:0:0:
220,60,284307,1,0,2:0:0:0:
140,216,284660,1,8,1:0:0:0:
224,236,284837,1,2,0:2:0:0:
292,60,285190,6,0,B|384:48|440:120|440:120,2,160,8|0|2,0:0|0:0|2:0,0:0:0:0:
292,60,286249,1,0,0:0:0:0:
288,236,286601,6,0,B|384:184|364:80|364:80,1,160,8|2,0:0|0:2,0:0:0:0:
292,60,287130,1,0,2:0:0:0:
372,216,287483,1,8,1:0:0:0:
288,236,287660,1,2,0:2:0:0:
112,228,288013,6,0,B|120:332|216:340|216:340,2,160,8|0|2,0:0|0:0|2:0,0:0:0:0:
112,228,289072,1,0,0:0:0:0:
400,228,289425,6,0,B|392:332|296:340|296:340,1,160,8|2,0:0|0:2,0:0:0:0:
302,339,289954,1,0,0:0:0:0:
112,228,290484,1,0,0:0:0:0:
256,128,290837,5,4,0:0:0:0:
256,192,290925,12,4,293660,0:0:0:0:
