osu file format v14

[General]
AudioFilename: Feint - My Sunset - Original Mix.mp3
AudioLeadIn: 0
PreviewTime: 180718
Countdown: 0
SampleSet: Normal
StackLeniency: 0.7
Mode: 0
LetterboxInBreaks: 1
WidescreenStoryboard: 1

[Editor]
Bookmarks: 84721,90368,112955,135544,146837,169427,180721,203308,225897,228721,248484,271074,282367,293662
DistanceSpacing: 1.1
BeatDivisor: 4
GridSize: 4
TimelineZoom: 2.3

[Metadata]
Title:My Sunset
TitleUnicode:My Sunset
Artist:Feint
ArtistUnicode:Feint
Creator:Hordon
Version:Easy
Source:
Tags:dnb drum and bass
BeatmapID:693609
BeatmapSetID:247290

[Difficulty]
HPDrainRate:1
CircleSize:2.5
OverallDifficulty:1
ApproachRate:1
SliderMultiplier:0.8
SliderTickRate:1

[Events]
//Background and Video events
0,0,"Konachan.com - 202225 mks nobody original scenic sunset.jpg",0,0
//Break Periods
2,135742,145156
2,155507,156450
2,166801,167744
2,226095,227038
//Storyboard Layer 0 (Background)
//Storyboard Layer 1 (Fail)
//Storyboard Layer 2 (Pass)
//Storyboard Layer 3 (Foreground)
//Storyboard Sound Samples

[TimingPoints]
64954,352.941176470588,4,2,0,60,1,0
67778,-133.333333333333,4,1,1,60,0,0
79072,-133.333333333333,4,1,1,60,0,0
85953,-133.333333333333,4,1,1,70,0,0
88953,-100,4,1,1,40,0,0
90365,-100,4,1,1,70,0,1
90454,-100,4,1,1,70,0,0
146836,-166.666666666667,4,1,1,70,0,0
146837,-166.666666666667,4,2,0,30,0,0
147365,-166.666666666667,4,2,0,20,0,0
149484,-166.666666666667,4,2,0,30,0,0
150190,-166.666666666667,4,2,0,20,0,0
158043,-166.666666666667,4,2,0,15,0,0
158659,-166.666666666667,4,2,0,15,0,0
160601,-166.666666666667,4,2,0,15,0,0
161483,-166.666666666667,4,2,0,15,0,0
163424,-166.666666666667,4,2,0,15,0,0
169424,-133.333333333333,4,1,1,20,0,0
180718,-100,4,1,1,80,0,0
225719,-133.333333333333,4,1,1,80,0,0
225896,-100,4,1,1,30,0,0
228718,-100,4,2,0,20,0,0
228719,-100,4,1,1,70,0,0
248483,-100,4,1,1,70,0,1
269659,-100,4,1,1,40,0,0
270365,-100,4,1,1,60,0,0
271071,-100,4,1,1,70,0,1
271248,-100,4,1,1,70,0,0
293659,-100,4,1,1,70,0,1
294012,-100,4,1,1,70,0,0

[Colours]
Combo1 : 255,0,0
Combo2 : 255,128,128
Combo3 : 255,128,64
Combo4 : 255,128,0

[HitObjects]
256,192,64954,12,0,67778,0:0:0:0:
256,80,68484,5,0,0:0:0:0:
164,176,69189,2,0,L|44:212,2,120.000004577637,0|0|4,0:0|0:0|2:2,0:0:0:0:
260,268,71307,5,0,0:0:0:0:
348,176,72012,2,0,L|468:212,2,120.000004577637,0|0|4,0:0|0:0|2:2,0:0:0:0:
256,80,74131,5,0,0:0:0:0:
256,212,74836,2,0,B|276:256|239:280|256:332,2,120.000004577637,0|0|4,0:0|0:0|2:2,0:0:0:0:
256,80,76954,5,0,0:0:0:0:
316,196,77659,2,0,P|256:212|196:192,1,120.000004577637,0|0,0:0|0:0,0:0:0:0:
120,92,79072,5,4,0:2:0:0:
84,220,79778,1,0,0:0:0:0:
212,188,80483,2,0,B|304:160|376:236|376:236,1,180.000006866455,0|2,0:2|2:2,0:0:0:0:
412,292,81895,5,4,0:2:0:0:
492,188,82601,1,0,0:0:0:0:
360,168,83306,2,0,B|268:140|196:216|196:216,1,180.000006866455,0|2,0:2|2:2,0:0:0:0:
132,232,84718,6,0,L|156:296,1,60.0000022888184,4|0,0:2|0:0,0:0:0:0:
212,316,85424,2,0,L|268:340,1,60.0000022888184,0|0,0:0|0:0,0:0:0:0:
256,192,86130,12,4,88954,0:0:0:0:
460,100,90365,6,0,B|440:188|440:188,1,80,12|2,0:0|0:2,0:0:0:0:
364,136,91072,2,0,L|288:172,1,80,0|2,0:0|0:2,0:0:0:0:
268,256,91777,2,0,L|420:320,1,160,8|0,0:0|0:0,0:0:0:0:
468,248,92836,1,2,0:2:0:0:
438,164,93189,6,0,B|354:132|354:132,1,80,8|2,0:0|0:2,0:0:0:0:
324,56,93896,2,0,L|240:88,1,80,0|2,0:0|0:2,0:0:0:0:
268,172,94601,2,0,L|232:340,1,160,8|0,0:0|0:0,0:0:0:0:
148,348,95660,1,2,0:2:0:0:
124,264,96013,6,0,P|56:268|4:304,2,120,8|0|2,0:0|0:0|0:2,0:0:0:0:
160,184,97424,2,0,P|228:180|280:144,2,120,8|0|2,0:0|0:0|0:2,0:0:0:0:
80,144,98837,6,0,P|60:104|64:56,1,80,8|2,0:0|0:2,0:0:0:0:
224,72,99895,1,2,0:2:0:0:
176,148,100248,2,0,B|192:212|256:228|256:228|324:208|336:140,1,240,8|2,0:0|0:2,0:0:0:0:
392,76,101659,6,0,P|436:56|484:64,2,80,12|2|0,0:0|0:2|0:0,0:0:0:0:
334,145,102718,1,2,0:2:0:0:
392,212,103071,2,0,P|392:276|356:340,2,120,8|0|2,0:0|0:0|0:2,0:0:0:0:
334,145,104484,6,0,P|296:120|248:116,2,80,8|2|0,0:0|0:2|0:0,0:0:0:0:
392,212,105542,1,2,0:2:0:0:
308,244,105895,2,0,P|252:288|240:336,2,120,8|0|2,0:0|0:0|0:2,0:0:0:0:
372,304,107307,6,0,B|460:340,1,80,8|2,0:0|0:2,0:0:0:0:
344,192,108365,1,2,0:2:0:0:
288,256,108718,2,0,P|252:344|224:256,1,240,8|2,0:0|0:2,0:0:0:0:
156,200,110131,6,0,P|116:180|68:184,2,80,8|2|0,0:0|0:2|0:0,0:0:0:0:
100,268,111189,1,2,0:2:0:0:
184,300,111542,6,0,P|316:272|332:168,1,240,8|2,0:0|0:2,0:0:0:0:
380,104,112954,6,0,B|328:36|328:36,1,80,12|2,0:0|0:2,0:0:0:0:
256,88,113659,2,0,L|184:124,1,80,0|2,0:0|0:2,0:0:0:0:
140,200,114366,2,0,L|292:280,1,160,8|0,0:0|0:0,0:0:0:0:
348,216,115425,1,2,0:2:0:0:
323,131,115778,6,0,B|255:87|255:87,1,80,8|2,0:0|0:2,0:0:0:0:
171,126,116483,2,0,L|139:202,1,80,0|2,0:0|0:2,0:0:0:0:
40,208,117190,2,0,L|104:56,1,160,8|0,0:0|0:0,0:0:0:0:
171,126,118249,1,2,0:2:0:0:
232,188,118602,6,0,P|292:184|340:144,2,120,8|0|2,0:0|0:0|0:2,0:0:0:0:
212,272,120013,2,0,P|144:280|100:324,2,120,8|0|2,0:0|0:0|0:2,0:0:0:0:
284,324,121424,6,0,P|324:344|368:348,1,80,8|2,0:0|0:2,0:0:0:0:
432,188,122483,1,2,0:2:0:0:
360,248,122837,6,0,B|296:232|256:188|256:188|216:232|140:252,1,240,8|2,0:0|0:2,0:0:0:0:
88,188,124248,6,0,P|40:196|8:228,2,80,12|2|0,0:0|0:2|0:0,0:0:0:0:
155,247,125307,1,2,0:2:0:0:
180,164,125660,2,0,P|168:104|188:40,2,120,8|0|2,0:0|0:0|0:2,0:0:0:0:
252,112,127071,6,0,P|300:116|344:136,2,80,8|2|0,0:0|0:2|0:0,0:0:0:0:
276,196,128130,1,2,0:2:0:0:
360,224,128483,2,0,P|372:284|352:348,2,120,8|0|2,0:0|0:0|0:2,0:0:0:0:
292,280,129896,6,0,B|264:316|212:328,1,80,8|2,0:0|0:2,0:0:0:0:
124,184,130954,1,2,0:2:0:0:
192,244,131307,6,0,B|186:249|312:196|308:40,1,240,8|2,0:0|0:2,0:0:0:0:
220,56,132718,6,0,P|172:64|140:92,2,80,8|2|0,0:0|0:2|0:0,0:0:0:0:
212,144,133778,1,2,0:2:0:0:
292,112,134130,5,8,0:0:0:0:
348,280,134837,1,2,0:2:0:0:
468,152,135542,1,4,0:0:0:0:
72,304,146836,6,0,P|152:316|168:268,1,143.999995605469,2|0,0:0|0:0,0:0:0:0:
440,304,149659,6,0,P|360:316|344:268,1,143.999995605469,2|0,0:0|0:0,0:0:0:0:
199,91,152483,6,0,P|254:55|313:94,1,143.999995605469,2|0,0:0|0:0,0:0:0:0:
334,141,153895,1,0,0:0:0:0:
192,297,155307,1,2,0:0:0:0:
343,269,158130,6,0,P|377:326|440:304,1,143.999995605469,4|0,0:0|0:0,0:0:0:0:
168,269,160954,6,0,P|134:326|72:304,1,143.999995605469,0|0,0:0|0:0,0:0:0:0:
313,91,163777,6,0,P|258:55|199:94,1,143.999995605469,4|0,0:0|0:0,0:0:0:0:
178,141,165189,1,2,0:0:0:0:
320,297,166601,1,2,0:0:0:0:
292,300,169424,6,0,L|324:240,1,60.0000022888184,12|0,0:0|0:3,0:0:0:0:
379,128,170483,1,0,0:3:0:0:
439,160,170836,2,0,L|411:216,1,60.0000022888184,8|0,0:0|0:0,0:0:0:0:
352,332,171895,1,0,0:0:0:0:
292,300,172248,6,0,L|224:316,1,60.0000022888184,12|0,0:0|0:0,0:0:0:0:
184,192,173306,1,8,0:0:0:0:
248,212,173659,2,0,L|308:196,1,60.0000022888184,8|0,0:0|0:0,0:0:0:0:
284,68,174718,1,0,0:0:0:0:
228,36,175071,6,4,L|208:104,1,60.0000022888184,12|0,0:0|0:0,0:0:0:0:
116,184,176130,1,0,0:0:0:0:
60,220,176483,2,0,L|76:280,1,60.0000022888184,8|0,0:0|0:0,0:0:0:0:
204,312,177542,1,0,0:0:0:0:
256,192,177895,12,0,180366,0:0:0:0:
107,64,180718,6,0,P|81:133|109:215,1,160,12|0,0:0|0:0,0:0:0:0:
173,154,181777,1,2,0:2:0:0:
190,240,182130,2,0,P|253:248|304:293,1,120,8|0,0:0|0:0,0:0:0:0:
375,176,183189,1,2,0:2:0:0:
393,92,183542,2,0,P|280:91|169:157,1,240,8|2,0:0|0:2,0:0:0:0:
233,216,184954,6,0,P|216:270|226:340,1,120,8|0,0:0|0:0,0:0:0:0:
344,279,186012,1,2,0:2:0:0:
427,306,186365,2,0,P|457:197|419:68,1,240,8|2,0:0|0:2,0:0:0:0:
344,114,187777,6,0,L|231:59,2,120,8|0|2,0:0|0:0|0:2,0:0:0:0:
289,183,189189,2,0,L|199:184,1,80,8|2,0:0|0:2,0:0:0:0:
95,318,190248,1,2,0:2:0:0:
171,274,190601,2,0,L|261:276,2,80,8|2|2,0:0|0:2|0:2,0:0:0:0:
97,225,191659,1,2,0:2:0:0:
128,142,192012,5,4,0:0:0:0:
280,54,192718,2,0,L|296:144,1,80,0|2,0:0|0:2,0:0:0:0:
361,189,193424,2,0,P|411:205|472:247,2,120,8|0|2,0:0|0:0|0:2,0:0:0:0:
277,218,194836,1,8,0:0:0:0:
223,287,195189,1,2,0:2:0:0:
135,274,195542,2,0,L|108:197,1,80,0|2,0:0|0:2,0:0:0:0:
141,116,196248,6,0,P|192:79|256:79,2,120,8|0|2,0:0|0:0|0:2,0:0:0:0:
53,127,197660,1,8,0:0:0:0:
32,212,198012,1,2,0:2:0:0:
200,161,198718,1,2,0:2:0:0:
264,221,199071,2,0,L|283:314,1,80,8|2,0:0|0:2,0:0:0:0:
360,263,199777,2,0,L|391:178,2,80,0|2|8,0:0|0:2|0:0,0:0:0:0:
280,299,200836,2,0,L|109:319,1,160,2|2,0:2|0:2,0:0:0:0:
256,192,201895,12,12,203306,0:0:0:0:
339,230,204365,5,2,0:2:0:0:
322,144,204718,2,0,P|258:135|208:91,1,120,8|0,0:0|0:0,0:0:0:0:
137,208,205777,1,2,0:2:0:0:
119,292,206130,2,0,P|232:293|343:227,1,240,8|2,0:0|0:2,0:0:0:0:
279,168,207542,6,0,P|296:114|286:44,1,120,8|0,0:0|0:0,0:0:0:0:
168,105,208600,1,2,0:2:0:0:
85,78,208953,2,0,P|55:187|93:316,1,240,8|2,0:0|0:2,0:0:0:0:
168,270,210365,6,0,L|281:325,2,120,8|0|2,0:0|0:0|0:2,0:0:0:0:
223,201,211777,2,0,L|313:200,1,80,8|2,0:0|0:2,0:0:0:0:
417,66,212836,5,2,0:2:0:0:
341,110,213189,2,0,L|251:108,2,80,8|2|2,0:0|0:2|0:2,0:0:0:0:
415,159,214247,1,2,0:2:0:0:
384,242,214600,5,12,0:0:0:0:
232,330,215306,2,0,L|216:240,1,80,0|2,0:0|0:2,0:0:0:0:
151,195,216012,2,0,P|101:179|40:137,2,120,8|0|2,0:0|0:0|0:2,0:0:0:0:
235,166,217424,1,8,0:0:0:0:
289,97,217777,1,2,0:2:0:0:
377,110,218130,2,0,L|404:187,1,80,0|2,0:0|0:2,0:0:0:0:
371,268,218836,6,0,P|320:305|256:305,2,120,8|0|2,0:0|0:0|0:2,0:0:0:0:
459,257,220248,1,8,0:0:0:0:
480,172,220600,1,2,0:2:0:0:
312,223,221306,1,2,0:2:0:0:
248,163,221659,2,0,L|229:70,1,80,8|2,0:0|0:2,0:0:0:0:
152,121,222365,2,0,L|121:206,2,80,0|2|8,0:0|0:2|0:0,0:0:0:0:
257,340,224483,6,0,P|209:257|312:262,1,240,8|2,0:0|0:2,0:0:0:0:
312,325,225895,1,4,0:0:0:0:
58,85,228718,6,0,L|19:169,1,80,12|2,0:0|0:2,0:0:0:0:
111,172,229425,2,0,B|100:258,1,80,0|2,0:0|0:2,0:0:0:0:
188,242,230130,2,0,B|217:331|217:331,1,80,8|2,0:0|0:2,0:0:0:0:
299,298,230837,2,0,B|269:209|269:209,1,80,0|2,0:0|0:2,0:0:0:0:
293,136,231543,6,0,P|357:132|445:188,1,160,12|0,0:0|0:0,0:0:0:0:
371,236,232601,1,2,0:2:0:0:
398,319,232954,6,0,P|346:327|252:265,1,160,8|0,0:0|0:0,0:0:0:0:
223,192,234012,1,2,0:2:0:0:
183,113,234366,6,0,L|205:35,1,80,8|2,0:0|0:2,0:0:0:0:
282,77,235071,2,0,L|346:18,1,80,0|2,0:0|0:2,0:0:0:0:
379,102,235778,2,0,L|469:124,2,80,8|2|2,0:0|0:2|0:2,0:0:0:0:
317,164,236836,1,2,0:2:0:0:
363,238,237189,6,0,P|403:269|423:305,1,80,12|2,0:0|0:2,0:0:0:0:
335,323,237895,2,0,P|268:344|170:316,1,160,0|8,0:0|0:0,0:0:0:0:
129,253,238954,1,2,0:2:0:0:
49,291,239306,2,0,B|26:199|26:199,1,80,0|2,0:0|0:2,0:0:0:0:
81,142,240012,6,0,P|125:131|171:144,1,80,8|2,0:0|0:2,0:0:0:0:
220,197,240718,2,0,P|287:218|385:190,1,160,0|8,0:0|0:0,0:0:0:0:
458,218,241777,1,2,0:2:0:0:
430,134,242131,2,0,B|407:42|407:42,1,80,0|2,0:0|0:2,0:0:0:0:
328,87,242837,6,0,P|285:101|248:98,1,80,12|2,0:0|0:2,0:0:0:0:
165,75,243542,2,0,P|126:89|93:121,1,80,0|2,0:0|0:2,0:0:0:0:
74,199,244249,2,0,L|48:279,2,80,8|2|0,0:0|0:2|0:0,0:0:0:0:
160,182,245307,1,2,0:2:0:0:
245,162,245659,5,8,0:0:0:0:
320,207,246012,1,2,0:2:0:0:
207,342,246718,1,2,0:2:0:0:
119,346,247071,2,0,B|59:240|147:215|93:106,1,240,8|2,0:0|0:2,0:0:0:0:
26,167,248483,5,12,0:0:0:0:
164,60,249189,2,0,P|184:96|196:144,1,80,0|2,0:0|0:2,0:0:0:0:
232,212,249895,2,0,P|212:252|206:302,1,80,8|2,0:0|0:2,0:0:0:0:
292,308,250601,2,0,L|309:360,2,40,0|8|2,0:0|0:0|0:2,0:0:0:0:
348,240,251306,5,8,0:0:0:0:
432,264,251659,1,2,0:2:0:0:
444,176,252012,2,0,P|456:132|456:92,1,80,0|2,0:0|0:2,0:0:0:0:
380,56,252718,2,0,P|340:68|292:72,1,80,8|2,0:0|0:2,0:0:0:0:
216,64,253424,2,0,L|188:16,2,40,0|8|2,0:0|0:0|0:2,0:0:0:0:
252,144,254130,5,8,0:0:0:0:
240,232,254483,1,2,0:2:0:0:
304,292,254836,2,0,L|454:345,1,160,0|8,0:0|0:0,0:0:0:0:
428,216,256071,2,0,L|300:172,1,120,0|2,0:0|0:2,0:0:0:0:
240,232,256953,2,0,P|204:252|172:288,2,80,8|2|0,0:0|0:2|0:0,0:0:0:0:
314,176,258012,1,2,0:2:0:0:
256,192,258365,12,12,259777,0:0:0:0:
332,32,260483,6,0,P|319:71|318:120,1,80,0|2,0:0|0:2,0:0:0:0:
297,194,261189,2,0,P|324:228|341:276,1,80,8|0,0:0|0:0,0:0:0:0:
258,301,261895,2,0,L|252:355,2,40,0|8|2,0:0|0:0|0:2,0:0:0:0:
189,246,262600,5,8,0:0:0:0:
112,287,262953,1,2,0:2:0:0:
82,203,263306,2,0,P|61:162|52:123,1,80,0|2,0:0|0:2,0:0:0:0:
119,72,264012,2,0,P|160:75|208:69,1,80,0|2,0:0|0:2,0:0:0:0:
281,46,264718,2,0,L|298:-6,2,40,0|8|2,0:0|0:0|0:2,0:0:0:0:
263,132,265424,5,8,0:0:0:0:
293,216,265777,1,2,0:2:0:0:
243,288,266130,2,0,L|107:371,1,160,0|8,0:0|0:0,0:0:0:0:
106,239,267365,2,0,L|222:169,1,120,0|2,0:0|0:2,0:0:0:0:
262,106,268248,6,0,B|337:55|441:93|455:195,1,240,8|2,0:0|0:2,0:0:0:0:
456,272,269659,5,8,0:0:0:0:
280,296,270365,1,2,0:2:0:0:
200,140,271071,5,12,0:0:0:0:
252,68,271424,1,2,0:2:0:0:
80,107,272130,1,2,0:2:0:0:
48,192,272483,5,8,0:0:0:0:
104,260,272836,1,2,0:2:0:0:
276,227,273542,1,2,0:2:0:0:
316,312,273895,6,0,L|408:332,1,80,8|2,0:0|0:2,0:0:0:0:
444,256,274601,2,0,L|464:212,2,40,2|8|2,2:0|0:0|0:2,0:0:0:0:
396,184,275306,6,0,L|376:88,1,80,8|2,0:0|0:2,0:0:0:0:
296,76,276012,2,0,L|248:64,2,40,0|8|2,0:0|0:0|0:2,0:0:0:0:
260,156,276718,5,8,0:0:0:0:
228,236,277071,1,2,0:2:0:0:
380,148,277777,1,2,0:2:0:0:
348,228,278130,2,0,P|352:280|376:344,2,120,8|2|2,0:0|2:0|0:2,0:0:0:0:
436,220,279542,1,8,0:0:0:0:
112,88,280953,6,0,P|76:112|52:144,1,80,8|2,0:0|0:2,0:0:0:0:
124,192,281659,2,0,P|112:232|112:272,1,80,2|2,2:0|0:2,0:0:0:0:
176,332,282365,5,8,0:0:0:0:
288,196,283071,1,2,2:2:0:0:
208,156,283424,1,0,0:0:0:0:
280,104,283777,2,0,P|324:56|384:32,2,120,8|0|2,0:0|2:0|0:2,0:0:0:0:
288,196,285189,5,8,0:0:0:0:
460,236,285895,1,2,2:0:0:0:
428,308,286248,1,0,0:0:0:0:
348,268,286601,2,0,P|304:316|244:340,2,120,8|0|2,0:0|2:0|0:2,0:0:0:0:
292,200,288012,5,8,0:0:0:0:
120,92,289424,1,8,0:0:0:0:
124,288,290836,1,4,0:0:0:0:
256,192,291189,12,4,293659,0:0:0:0:
