osu file format v14

[General]
AudioFilename: Feint - Horizons ft Veela.mp3
AudioLeadIn: 0
PreviewTime: 44779
Countdown: 0
SampleSet: Soft
StackLeniency: 0.7
Mode: 0
LetterboxInBreaks: 0
WidescreenStoryboard: 0

[Editor]
Bookmarks: 21209,44930,67255,89581,111906
DistanceSpacing: 1.4
BeatDivisor: 4
GridSize: 32
TimelineZoom: 2.1

[Metadata]
Title:Horizons (feat. Veela)
TitleUnicode:Horizons (feat. Veela)
Artist:Feint
ArtistUnicode:Feint
Creator:Milan-
Version:Insane
Source:
Tags:upbeat melodic dnb drum and bass short cut version appleeaterx
BeatmapID:651245
BeatmapSetID:288528

[Difficulty]
HPDrainRate:7
CircleSize:4
OverallDifficulty:8
ApproachRate:9
SliderMultiplier:1.7
SliderTickRate:2

[Events]
//Background and Video events
0,0,"a.jpg",0,0
//Break Periods
//Storyboard Layer 0 (Background)
//Storyboard Layer 1 (Fail)
//Storyboard Layer 2 (Pass)
//Storyboard Layer 3 (Foreground)
//Storyboard Sound Samples

[TimingPoints]
303,348.837209302326,4,2,3,47,1,0
40768,-100,4,2,3,43,0,0
42163,-100,4,2,3,40,0,0
43558,-100,4,2,3,38,0,0
44954,-94.3396226415094,4,2,1,70,0,1
47744,-94.3396226415094,4,2,2,70,0,1
47832,-94.3396226415094,4,2,1,70,0,1
53326,-94.3396226415094,4,2,2,70,0,1
53413,-94.3396226415094,4,2,1,70,0,1
58907,-94.3396226415094,4,2,2,70,0,1
58994,-94.3396226415094,4,2,1,70,0,1
64489,-94.3396226415094,4,2,2,70,0,1
64576,-94.3396226415094,4,2,1,70,0,1
67279,-94.3396226415094,4,2,1,70,0,0
70070,-94.3396226415094,4,2,2,70,0,0
70157,-94.3396226415094,4,2,1,70,0,0
75651,-94.3396226415094,4,2,2,70,0,0
75739,-94.3396226415094,4,2,1,70,0,0
81233,-94.3396226415094,4,2,2,70,0,0
81320,-94.3396226415094,4,2,1,70,0,0
86814,-94.3396226415094,4,2,2,70,0,0
86901,-94.3396226415094,4,2,1,70,0,0
89605,-133.333333333333,4,2,2,50,0,0
89692,-133.333333333333,4,2,2,40,0,0
111930,-133.333333333333,4,2,1,60,0,0

[Colours]
Combo1 : 255,203,45
Combo2 : 255,98,176
Combo3 : 51,142,255
Combo4 : 244,64,91

[HitObjects]
120,125,21233,5,2,0:0:0:0:
132,155,21582,1,2,0:0:0:0:
143,185,21930,1,2,0:0:0:0:
154,215,22279,1,2,0:2:0:0:
166,245,22628,6,0,L|211:69,1,170,4|8,0:3|0:0,0:0:0:0:
297,129,23151,1,0,0:0:0:0:
400,31,23326,1,0,0:0:0:0:
400,31,23413,1,0,0:0:0:0:
400,31,23500,1,0,3:0:0:0:
380,174,23675,1,8,0:0:0:0:
460,112,23849,1,0,0:0:0:0:
440,254,24023,6,0,P|400:269|358:272,1,85,0|0,3:2|0:0,0:0:0:0:
260,242,24372,2,0,P|217:244|178:259,1,85,8|0,0:0|0:0,0:0:0:0:
246,366,24721,1,0,0:0:0:0:
246,366,24808,1,0,0:0:0:0:
246,366,24896,1,0,3:0:0:0:
358,272,25070,1,10,0:0:0:0:
348,373,25244,1,0,0:0:0:0:
259,241,25419,6,0,P|243:159|260:76,1,170,2|8,3:2|0:0,0:0:0:0:
340,12,25942,1,0,0:0:0:0:
346,32,26029,1,0,0:0:0:0:
353,52,26116,1,0,0:0:0:0:
360,72,26203,1,0,0:0:0:0:
367,92,26290,1,0,3:0:0:0:
464,175,26465,2,0,L|464:90,1,85,8|0,0:0|0:0,0:0:0:0:
364,185,26814,6,0,P|376:225|404:256,1,85,2|0,3:2|0:0,0:0:0:0:
290,302,27163,2,0,P|327:321|369:324,1,85,10|0,0:0|0:0,0:0:0:0:
286,217,27512,2,0,P|245:229|214:257,1,85,2|0,0:0|3:0,0:0:0:0:
169,143,27861,2,0,P|149:180|146:222,1,85,10|0,0:0|0:0,0:0:0:0:
256,133,28209,6,0,P|208:65|126:62,1,170,2|8,3:2|0:0,0:0:0:0:
36,112,28733,1,0,0:0:0:0:
50,212,28907,2,0,L|54:328,1,85,0|0,0:0|3:0,0:0:0:0:
159,359,29256,2,0,L|161:274,1,85,10|0,0:0|0:0,0:0:0:0:
256,133,29605,6,0,L|263:303,1,170,2|8,3:2|0:0,0:0:0:0:
354,257,30128,1,0,0:0:0:0:
344,358,30303,1,0,0:0:0:0:
344,358,30390,1,0,0:0:0:0:
344,358,30477,1,0,3:0:0:0:
451,273,30651,2,0,P|451:230|444:188,1,85,10|0,0:0|0:0,0:0:0:0:
351,57,31000,6,0,L|169:49,1,170,2|8,3:2|0:0,0:0:0:0:
370,140,31523,1,0,0:0:0:0:
438,63,31698,1,0,0:0:0:0:
438,63,31785,1,0,0:0:0:0:
438,63,31872,1,0,3:0:0:0:
395,224,32047,2,0,L|297:221,1,85,8|0,0:0|0:0,0:0:0:0:
168,270,32396,6,0,P|174:228|199:194,1,85,2|0,3:2|0:0,0:0:0:0:
256,297,32744,2,0,P|249:338|224:372,1,85,10|0,0:0|0:0,0:0:0:0:
141,265,33093,2,0,P|147:223|172:189,1,85,2|0,0:0|3:0,0:0:0:0:
290,292,33441,2,0,P|283:333|258:367,1,85,10|0,0:0|0:0,0:0:0:0:
275,172,33791,6,0,P|356:186|404:254,1,170,2|8,3:2|0:0,0:0:0:0:
421,355,34314,1,0,0:0:0:0:
493,263,34489,1,0,0:0:0:0:
493,263,34576,1,0,0:0:0:0:
493,263,34663,1,0,3:0:0:0:
350,313,34837,2,0,L|252:313,1,85,8|0,0:0|0:0,0:0:0:0:
129,241,35186,6,0,L|44:241,1,85,2|0,3:2|0:0,0:0:0:0:
180,301,35535,2,0,P|203:265|206:224,1,85,8|0,0:0|0:0,0:0:0:0:
186,123,35884,1,0,0:0:0:0:
186,123,35971,1,0,0:0:0:0:
186,123,36058,1,0,3:0:0:0:
118,248,36233,2,0,L|33:248,1,85,10|0,0:0|0:0,0:0:0:0:
99,93,36582,6,0,L|287:94,1,170,2|8,3:2|0:0,0:0:0:0:
383,41,37105,1,0,0:0:0:0:
378,61,37192,1,0,0:0:0:0:
374,82,37279,1,0,0:0:0:0:
370,103,37366,1,0,0:0:0:0:
366,124,37453,1,0,3:0:0:0:
262,191,37628,2,0,L|177:191,1,85,8|0,0:0|0:0,0:0:0:0:
348,207,37977,6,0,L|377:300,1,85,2|0,3:2|0:0,0:0:0:0:
476,196,38326,2,0,L|501:114,1,85,10|0,0:0|0:0,0:0:0:0:
341,233,38675,2,0,L|370:326,1,85,2|0,0:0|3:0,0:0:0:0:
486,220,39024,2,0,L|511:138,1,85,10|0,0:0|0:0,0:0:0:0:
473,15,39372,6,0,P|428:83|346:87,1,170,2|8,3:2|0:0,0:0:0:0:
251,46,39896,1,0,0:0:0:0:
164,99,40070,2,0,P|124:113|82:110,1,85,0|0,0:0|3:0,0:0:0:0:
250,45,40419,2,0,P|264:85|262:128,1,85,10|0,0:0|0:0,0:0:0:0:
226,265,40768,6,0,P|290:212|373:219,1,170,2|8,3:2|0:0,0:0:0:0:
320,307,41291,2,0,P|256:359|173:352,1,170,0|0,0:0|3:0,0:0:0:0:
59,253,41814,1,10,0:0:0:0:
71,354,41989,1,0,0:0:0:0:
147,221,42163,6,0,L|125:46,1,170,2|8,3:2|0:0,0:0:0:0:
247,5,42686,2,0,L|232:99,1,85,0|0,0:0|0:0,0:0:0:0:
251,189,43035,1,0,3:0:0:0:
346,155,43209,2,0,P|387:148|428:159,1,85,8|0,0:0|0:0,0:0:0:0:
437,275,43558,5,2,3:2:0:0:
407,290,43907,1,10,0:0:0:0:
374,293,44256,5,2,0:0:0:0:
276,265,44430,1,0,3:0:0:0:
174,251,44605,2,0,P|113:267|79:319,1,127.5,2|0,3:2|0:0,0:0:0:0:
87,373,44954,6,0,L|26:181,1,180.200000274963,4|8,0:2|0:0,0:0:0:0:
61,96,45477,1,0,0:0:0:0:
164,156,45651,1,0,0:0:0:0:
164,156,45739,1,0,0:0:0:0:
164,156,45826,1,0,3:0:0:0:
99,325,46000,2,0,L|71:239,1,90.1000001374817,8|0,0:0|0:0,0:0:0:0:
61,96,46349,5,2,3:2:0:0:
164,156,46523,1,0,0:0:0:0:
227,13,46698,2,0,L|254:98,1,90.1000001374817,8|0,0:0|0:0,0:0:0:0:
343,161,47047,1,0,0:0:0:0:
343,161,47134,1,0,0:0:0:0:
343,161,47221,1,0,3:0:0:0:
220,44,47396,2,0,L|247:129,1,90.1000001374817,8|0,0:0|0:0,0:0:0:0:
330,258,47744,6,0,L|423:84,1,180.200000274963,2|8,3:2|0:0,0:0:0:0:
217,256,48268,2,0,P|220:300|245:337,1,90.1000001374817,0|0,0:0|0:0,0:0:0:0:
267,173,48616,1,0,3:0:0:0:
161,146,48791,2,0,P|116:149|79:174,1,90.1000001374817,8|0,0:0|0:0,0:0:0:0:
267,173,49140,5,0,0:0:0:0:
267,173,49227,1,0,0:0:0:0:
267,173,49314,1,0,3:0:0:0:
168,127,49489,2,0,P|123:130|86:155,1,90.1000001374817,8|0,0:0|0:0,0:0:0:0:
256,64,49837,1,0,0:0:0:0:
267,173,50012,1,0,3:0:0:0:
344,257,50186,2,0,P|389:254|426:229,1,90.1000001374817,8|0,0:0|0:0,0:0:0:0:
427,30,50535,6,0,P|362:88|360:176,1,180.200000274963,2|8,3:2|0:0,0:0:0:0:
461,320,51058,1,0,0:0:0:0:
355,346,51233,1,0,0:0:0:0:
355,346,51320,1,0,0:0:0:0:
355,346,51407,1,0,3:0:0:0:
258,271,51582,2,0,L|247:361,1,90.1000001374817,8|0,0:0|0:0,0:0:0:0:
150,258,51930,5,2,3:2:0:0:
135,151,52104,1,0,0:0:0:0:
184,53,52279,2,0,P|140:40|96:45,1,90.1000001374817,8|0,0:0|0:0,0:0:0:0:
220,171,52628,1,0,0:0:0:0:
220,171,52715,1,0,0:0:0:0:
220,171,52802,1,0,3:0:0:0:
313,115,52977,2,0,B|356:102|356:102|384:141|446:146,1,135.150000206223,8|0,0:0|0:0,0:0:0:0:
455,94,53326,6,0,L|420:294,1,180.200000274963,2|8,3:2|0:0,0:0:0:0:
336,361,53849,2,0,L|326:271,1,90.1000001374817,0|0,0:0|0:0,0:0:0:0:
226,310,54197,1,0,3:0:0:0:
124,194,54372,2,0,L|114:283,1,90.1000001374817,8|0,0:0|0:0,0:0:0:0:
226,310,54721,5,0,0:0:0:0:
226,310,54808,1,0,0:0:0:0:
226,310,54896,1,0,3:0:0:0:
108,173,55070,2,0,L|98:262,1,90.1000001374817,8|0,0:0|0:0,0:0:0:0:
225,200,55419,1,0,0:0:0:0:
226,92,55593,1,0,3:0:0:0:
315,242,55768,1,8,0:0:0:0:
346,138,55942,1,0,3:0:0:0:
402,290,56116,6,0,L|503:126,1,180.200000274963,2|8,3:2|0:0,0:0:0:0:
421,58,56639,1,0,0:0:0:0:
346,138,56814,1,0,0:0:0:0:
346,138,56901,1,0,0:0:0:0:
346,138,56989,1,0,3:0:0:0:
259,69,57163,2,0,L|239:157,1,90.1000001374817,8|0,0:0|0:0,0:0:0:0:
134,253,57512,5,2,3:2:0:0:
119,146,57686,1,0,0:0:0:0:
243,31,57861,2,0,L|222:118,1,90.1000001374817,8|0,0:0|0:0,0:0:0:0:
119,146,58209,1,0,0:0:0:0:
119,146,58297,1,0,0:0:0:0:
119,146,58384,1,0,3:0:0:0:
234,290,58558,2,0,L|254:202,1,90.1000001374817,8|0,0:0|0:0,0:0:0:0:
134,253,58907,6,0,P|157:347|233:380,1,180.200000274963,2|8,3:2|0:0,0:0:0:0:
359,335,59430,2,0,L|392:217,1,90.1000001374817,0|0,0:0|0:0,0:0:0:0:
234,290,59779,1,0,3:0:0:0:
348,297,59954,2,0,L|381:179,1,90.1000001374817,8|0,0:0|0:0,0:0:0:0:
234,290,60303,5,0,0:0:0:0:
234,290,60390,1,0,0:0:0:0:
234,290,60477,1,0,3:0:0:0:
337,265,60651,2,0,L|370:147,1,90.1000001374817,8|0,0:0|0:0,0:0:0:0:
268,113,60999,1,0,0:0:0:0:
189,188,61174,1,0,3:0:0:0:
56,112,61349,2,0,L|81:199,1,90.1000001374817,8|0,0:0|0:0,0:0:0:0:
159,324,61698,6,0,L|378:318,1,180.200000274963,2|8,3:2|0:0,0:0:0:0:
435,270,62220,1,0,0:0:0:0:
344,210,62395,1,0,0:0:0:0:
344,210,62482,1,0,0:0:0:0:
344,210,62569,1,0,3:0:0:0:
252,305,62744,2,0,L|236:203,1,90.1000001374817,8|0,0:0|0:0,0:0:0:0:
177,95,63092,5,2,3:2:0:0:
272,45,63268,1,0,0:0:0:0:
402,122,63442,2,0,L|315:145,1,90.1000001374817,8|0,0:0|0:0,0:0:0:0:
177,95,63791,1,0,0:0:0:0:
177,95,63878,1,0,0:0:0:0:
177,95,63965,1,0,3:0:0:0:
272,45,64140,2,0,B|301:64|354:42|354:42|392:60|404:79,1,135.150000206223,8|0,0:0|0:0,0:0:0:0:
402,122,64489,6,0,L|227:165,1,180.200000274963,2|8,3:2|0:0,0:0:0:0:
177,262,65012,2,0,P|219:276|263:270,1,90.1000001374817,0|0,0:0|0:0,0:0:0:0:
126,174,65361,1,0,3:0:0:0:
78,271,65534,2,0,L|68:360,1,90.1000001374817,8|0,0:0|0:0,0:0:0:0:
126,174,65884,5,2,0:0:0:0:
126,174,65971,1,0,0:0:0:0:
126,174,66058,1,0,3:0:0:0:
57,284,66232,2,0,L|47:373,1,90.1000001374817,10|0,0:0|0:0,0:0:0:0:
126,174,66582,1,2,0:0:0:0:
108,67,66756,1,0,3:0:0:0:
220,179,66930,1,10,0:0:0:0:
202,286,67104,1,0,3:0:0:0:
313,181,67279,6,0,L|286:-1,1,180.200000274963,2|8,3:2|0:0,0:0:0:0:
206,76,67803,1,0,0:0:0:0:
108,67,67977,1,0,0:0:0:0:
108,67,68064,1,0,0:0:0:0:
108,67,68151,1,0,3:0:0:0:
220,179,68326,2,0,L|318:181,1,90.1000001374817,8|0,0:0|0:0,0:0:0:0:
426,271,68675,6,0,L|240:274,1,180.200000274963,2|8,3:2|0:0,0:0:0:0:
152,328,69198,1,0,0:0:0:0:
146,306,69285,1,0,0:0:0:0:
140,284,69372,1,0,0:0:0:0:
134,262,69459,1,0,0:0:0:0:
128,241,69546,1,0,3:0:0:0:
196,92,69721,2,0,L|220:179,1,90.1000001374817,8|0,0:0|0:0,0:0:0:0:
289,80,70070,6,0,P|242:7|156:2,1,180.200000274963,2|8,3:2|0:0,0:0:0:0:
61,55,70593,1,0,0:0:0:0:
116,148,70768,1,0,0:0:0:0:
116,148,70855,1,0,0:0:0:0:
116,148,70942,1,0,3:0:0:0:
41,260,71116,2,0,L|25:154,1,90.1000001374817,8|0,0:0|0:0,0:0:0:0:
135,281,71465,6,0,L|121:370,1,90.1000001374817,0|0,0:0|3:0,0:0:0:0:
203,195,71814,1,8,0:0:0:0:
286,264,71989,1,0,0:0:0:0:
377,206,72163,1,0,0:0:0:0:
377,206,72250,1,0,0:0:0:0:
377,206,72337,1,0,3:0:0:0:
317,48,72512,2,0,L|294:135,1,90.1000001374817,8|0,0:0|0:0,0:0:0:0:
209,276,72861,6,0,L|194:96,1,180.200000274963,2|8,3:2|0:0,0:0:0:0:
116,21,73384,1,0,0:0:0:0:
93,126,73558,1,0,0:0:0:0:
93,126,73646,1,0,0:0:0:0:
93,126,73733,1,0,3:0:0:0:
193,18,73907,2,0,P|235:31|267:62,1,90.1000001374817,8|0,0:0|0:0,0:0:0:0:
130,200,74256,6,0,L|116:21,1,180.200000274963,2|8,3:2|0:0,0:0:0:0:
209,113,74779,1,0,0:0:0:0:
317,104,74954,1,0,0:0:0:0:
317,104,75041,1,0,0:0:0:0:
317,104,75128,1,0,3:0:0:0:
339,262,75303,2,0,B|372:290|372:290|421:290|434:213,1,135.150000206223,8|0,0:0|0:0,0:0:0:0:
412,178,75651,6,0,L|213:191,1,180.200000274963,2|8,3:2|0:0,0:0:0:0:
150,262,76175,1,0,0:0:0:0:
103,164,76349,1,0,0:0:0:0:
103,164,76436,1,0,0:0:0:0:
103,164,76523,1,0,3:0:0:0:
84,318,76698,2,0,P|119:345|163:348,1,90.1000001374817,8|0,0:0|0:0,0:0:0:0:
256,292,77047,6,0,P|291:264|335:261,1,90.1000001374817,0|0,0:0|3:0,0:0:0:0:
434,345,77396,2,0,L|443:237,1,90.1000001374817,8|0,0:0|0:0,0:0:0:0:
451,147,77744,1,0,0:0:0:0:
451,147,77832,1,0,0:0:0:0:
451,147,77919,1,0,3:0:0:0:
313,174,78093,1,8,0:0:0:0:
367,80,78268,1,0,3:0:0:0:
376,218,78442,6,0,P|296:248|236:187,1,180.200000274963,2|8,3:2|0:0,0:0:0:0:
212,82,78965,1,0,0:0:0:0:
136,158,79139,1,0,0:0:0:0:
136,158,79226,1,0,0:0:0:0:
136,158,79313,1,0,3:0:0:0:
52,52,79489,2,0,L|48:165,1,90.1000001374817,8|0,0:0|0:0,0:0:0:0:
164,244,79837,6,0,L|364:229,1,180.200000274963,2|8,3:2|0:0,0:0:0:0:
448,203,80360,1,0,0:0:0:0:
442,224,80447,1,0,0:0:0:0:
436,246,80534,1,0,0:0:0:0:
430,268,80621,1,0,0:0:0:0:
424,289,80708,1,0,3:0:0:0:
204,268,80884,2,0,L|328:259,1,90.1000001374817,8|0,0:0|0:0,0:0:0:0:
393,138,81233,6,0,L|213:151,1,180.200000274963,2|8,3:2|0:0,0:0:0:0:
113,191,81755,1,0,0:0:0:0:
130,83,81930,1,0,0:0:0:0:
130,83,82018,1,0,0:0:0:0:
130,83,82105,1,0,3:0:0:0:
297,69,82279,2,0,L|421:60,1,90.1000001374817,8|0,0:0|0:0,0:0:0:0:
259,146,82628,6,0,P|224:118|211:75,1,90.1000001374817,0|0,0:0|3:0,0:0:0:0:
339,141,82977,1,8,0:0:0:0:
314,246,83151,1,0,0:0:0:0:
207,227,83325,1,0,0:0:0:0:
207,227,83412,1,0,0:0:0:0:
207,227,83499,1,0,3:0:0:0:
292,333,83675,2,0,L|314:246,1,90.1000001374817,8|0,0:0|0:0,0:0:0:0:
441,152,84023,6,0,L|394:326,1,180.200000274963,2|8,3:2|0:0,0:0:0:0:
292,333,84547,1,0,0:0:0:0:
207,227,84721,1,0,0:0:0:0:
207,227,84808,1,0,0:0:0:0:
207,227,84895,1,0,3:0:0:0:
167,328,85070,2,0,P|129:304|107:265,1,90.1000001374817,8|0,0:0|0:0,0:0:0:0:
135,97,85419,6,0,L|314:85,1,180.200000274963,2|8,3:2|0:0,0:0:0:0:
305,192,85941,1,0,0:0:0:0:
222,121,86116,1,0,0:0:0:0:
222,121,86203,1,0,0:0:0:0:
222,121,86290,1,0,3:0:0:0:
145,201,86465,2,0,B|102:194|102:194|56:162|84:115,1,135.150000206223,8|0,0:0|0:0,0:0:0:0:
135,97,86814,6,0,L|314:85,1,180.200000274963,2|8,3:2|0:0,0:0:0:0:
401,150,87337,1,0,0:0:0:0:
460,60,87511,1,0,0:0:0:0:
460,60,87598,1,0,0:0:0:0:
460,60,87685,1,0,3:0:0:0:
487,198,87861,2,0,L|492:314,1,90.1000001374817,8|0,0:0|0:0,0:0:0:0:
323,321,88209,6,0,P|278:327|238:308,1,90.1000001374817,2|0,0:0|3:0,0:0:0:0:
110,262,88558,2,0,P|154:256|188:228,1,90.1000001374817,10|0,0:0|0:0,0:0:0:0:
329,189,88907,2,0,P|287:172|261:136,1,90.1000001374817,2|0,0:0|3:0,0:0:0:0:
129,120,89256,2,0,P|164:93|180:51,1,90.1000001374817,10|0,0:0|3:0,0:0:0:0:
40,72,89605,6,0,P|30:134|55:191,1,127.500004863739,6|0,0:2|0:0,0:0:0:0:
157,339,90303,2,0,L|195:269,2,63.7500024318696
237,376,90826,1,0,0:0:0:0:
281,298,91000,1,2,0:0:0:0:
486,138,91349,2,0,L|455:194,1,63.7500024318696,0|0,0:0|0:0,0:0:0:0:
405,119,91698,2,0,L|435:62,2,63.7500024318696,0|0|0,0:0|0:0|0:0,0:0:0:0:
322,153,92221,1,0,0:0:0:0:
322,153,92396,6,0,P|261:136|227:84,1,127.500004863739,2|0,0:0|0:0,0:0:0:0:
50,59,93093,2,0,P|110:75|144:127,2,127.500004863739,0|0|0,0:0|0:0|0:0,0:0:0:0:
115,225,94140,2,0,P|146:231|177:227,1,63.7500024318696,0|0,0:0|0:0,0:0:0:0:
258,189,94489,2,0,P|289:185|320:191,2,63.7500024318696,0|0|0,0:0|0:0|0:0,0:0:0:0:
294,285,95012,1,0,0:0:0:0:
390,250,95186,5,2,0:0:0:0:
382,71,95535,1,0,0:0:0:0:
208,28,95884,2,0,L|283:47,1,63.7500024318696,0|0,0:0|0:0,0:0:0:0:
283,132,96233,2,0,L|221:116,1,63.7500024318696,0|0,0:0|0:0,0:0:0:0:
131,108,96582,2,0,P|78:142|68:203,1,127.500004863739,2|0,0:0|0:0,0:0:0:0:
120,276,97105,2,0,P|186:284|276:278,1,127.500004863739,0|0,0:0|0:0,0:0:0:0:
330,251,97628,1,0,0:0:0:0:
343,273,97977,5,2,0:0:0:0:
410,107,98326,2,0,L|419:173,1,63.7500024318696,0|0,0:0|0:0,0:0:0:0:
336,135,98675,2,0,L|327:71,2,63.7500024318696,0|0|0,0:0|0:0|0:0,0:0:0:0:
264,189,99198,1,0,0:0:0:0:
264,189,99372,2,0,L|247:62,1,127.500004863739,0|0,0:0|0:0,0:0:0:0:
167,102,99896,2,0,L|183:228,1,127.500004863739,0|0,0:0|0:0,0:0:0:0:
200,316,100419,1,0,0:0:0:0:
372,270,100768,5,2,0:0:0:0:
357,289,101116,1,0,0:0:0:0:
183,228,101465,2,0,L|116:267,1,63.7500024318696,0|0,0:0|0:0,0:0:0:0:
47,219,101814,2,0,L|102:187,1,63.7500024318696,0|0,0:0|0:0,0:0:0:0:
57,300,102163,1,2,0:0:0:0:
170,146,102512,2,0,L|165:68,1,63.7500024318696,0|0,0:0|0:0,0:0:0:0:
259,27,102861,2,0,L|254:90,2,63.7500024318696,0|0|0,0:0|0:0|0:0,0:0:0:0:
340,111,103384,1,0,0:0:0:0:
340,111,103558,6,0,P|403:112|446:68,1,127.500004863739,2|0,0:0|0:0,0:0:0:0:
418,152,104082,2,0,P|400:213|418:273,1,127.500004863739,0|0,0:0|0:0,0:0:0:0:
495,320,104605,2,0,P|432:313|377:343,1,127.500004863739
199,363,105303,2,0,L|223:302,1,63.7500024318696
184,223,105651,2,0,L|207:163,1,63.7500024318696
195,74,106000,1,0,0:0:0:0:
48,340,106349,6,0,L|103:199,1,127.500004863739,2|0,0:0|0:0,0:0:0:0:
78,42,107047,2,0,L|31:160,1,127.500004863739
65,358,107744,2,0,L|143:171,2,191.250007295609,2|0|0,0:0|0:0|0:0,0:0:0:0:
154,353,108965,1,0,0:0:0:0:
243,344,109140,6,0,P|295:309|323:252,1,127.500004863739,2|0,0:0|0:0,0:0:0:0:
327,163,109663,2,0,P|355:219|407:254,1,127.500004863739,0|0,0:0|0:0,0:0:0:0:
416,164,110186,2,0,L|409:86,1,63.7500024318696,0|0,0:0|0:0,0:0:0:0:
327,163,110535,2,0,L|308:308,1,127.500004863739
234,241,111058,2,0,L|217:114,1,127.500004863739,0|0,0:0|0:0,0:0:0:0:
136,75,111582,1,0,0:0:0:0:
147,163,111756,1,0,0:0:0:0:
209,30,111930,5,6,0:0:0:0:
