osu file format v14

[General]
AudioFilename: homebound.mp3
AudioLeadIn: 0
PreviewTime: 47586
Countdown: 0
SampleSet: Soft
StackLeniency: 0.7
Mode: 0
LetterboxInBreaks: 0
WidescreenStoryboard: 0

[Editor]
Bookmarks: 25862,36897,92069
DistanceSpacing: 1.2
BeatDivisor: 4
GridSize: 4
TimelineZoom: 2.4

[Metadata]
Title:Homebound
TitleUnicode:Homebound
Artist:Feint
ArtistUnicode:Feint
Creator:deetz
Version:Easy
Source:
Tags:monstercat drum and bass dnb cut ver hootowlstar byfar 015 outlook
BeatmapID:649242
BeatmapSetID:276967

[Difficulty]
HPDrainRate:2
CircleSize:2.5
OverallDifficulty:3
ApproachRate:3
SliderMultiplier:0.8
SliderTickRate:1

[Events]
//Background and Video events
0,0,"me3_citadel-wallpaper-1920x1080.jpg",0,0
//Break Periods
2,26062,35457
//Storyboard Layer 0 (Background)
//Storyboard Layer 1 (Fail)
//Storyboard Layer 2 (Pass)
//Storyboard Layer 3 (Foreground)
//Storyboard Sound Samples

[TimingPoints]
1035,344.827586206897,4,2,5,50,1,0
25172,-100,4,1,0,50,0,0
25862,-100,4,2,5,40,0,0
36897,-100,4,2,6,50,0,0
45172,-100,4,2,6,55,0,0
47586,-100,4,2,7,55,0,0
47931,-100,4,2,7,60,0,1
57586,-100,4,2,7,60,0,0
58966,-100,4,2,7,60,0,1
68621,-100,4,2,7,60,0,0
70000,-100,4,2,7,50,0,1
70086,-100,4,2,7,50,0,0

[Colours]
Combo1 : 235,183,27
Combo2 : 115,90,250
Combo3 : 232,112,23
Combo4 : 44,83,239

[HitObjects]
256,192,1035,12,0,2414,0:0:0:0:
124,248,3793,6,0,B|150:267|183:259|183:259|228:293|283:284,1,160,4|8,0:3|0:0,0:0:0:0:
356,236,4828,1,2,0:0:0:0:
406,154,5172,2,0,P|351:109|258:103,1,160,10|8,0:0|0:0,0:0:0:0:
168,91,6207,1,2,0:0:0:0:
88,144,6552,6,0,L|140:312,1,160,10|8,0:0|0:0,0:0:0:0:
222,336,7586,1,2,0:0:0:0:
316,316,7931,2,0,P|352:328|408:240,1,160,10|8,0:0|0:0,0:0:0:0:
352,164,8966,1,2,0:0:0:0:
272,216,9310,6,0,L|116:140,1,160,10|8,0:0|0:0,0:0:0:0:
84,60,10345,1,2,0:0:0:0:
20,132,10690,2,0,L|12:224,1,80,10|0,0:0|0:0,0:0:0:0:
104,240,11379,2,0,L|112:332,1,80,8|2,0:0|0:0,0:0:0:0:
208,324,12069,6,0,P|289:339|374:310,1,160,10|8,0:0|0:0,0:0:0:0:
438,259,13103,1,2,0:0:0:0:
372,188,13448,2,0,L|356:92,1,80,10|0,0:0|0:0,0:0:0:0:
276,60,14138,2,0,L|260:156,1,80,8|2,0:0|0:0,0:0:0:0:
256,236,14828,6,0,B|212:228|184:192|184:192|158:222|110:220,1,160,10|8,0:0|0:0,0:0:0:0:
111,124,15862,1,2,0:0:0:0:
24,164,16207,2,0,L|8:328,1,160,10|8,0:0|0:0,0:0:0:0:
104,336,17241,1,2,0:0:0:0:
176,272,17586,6,0,P|200:288|312:236,1,160,10|8,0:0|0:0,0:0:0:0:
316,148,18621,1,2,0:0:0:0:
404,112,18966,2,0,L|444:276,1,160,10|8,0:0|0:0,0:0:0:0:
368,328,20000,1,2,0:0:0:0:
277,295,20345,6,0,P|242:264|126:236,1,160,10|8,0:0|0:0,0:0:0:0:
45,198,21379,1,2,0:0:0:0:
80,108,21724,2,0,L|168:96,1,80,10|0,0:0|0:0,0:0:0:0:
232,160,22414,2,0,L|320:148,1,80,8|2,0:0|0:0,0:0:0:0:
380,216,23103,6,0,P|396:256|312:328,1,160,10|8,0:0|0:0,0:0:0:0:
228,308,24138,1,2,0:0:0:0:
136,276,24483,2,0,B|116:224|116:224|132:184|132:184|120:152|128:120,1,160,8|8,0:3|0:0,0:0:0:0:
213,80,25517,1,8,0:0:0:0:
300,40,25862,5,4,0:3:0:0:
60,178,36897,5,4,0:0:0:0:
208,56,37586,2,0,L|220:148,1,80,4|4,0:0|0:0,0:0:0:0:
312,152,38276,2,0,P|392:144|464:176,1,160,6|4,0:0|0:0,0:0:0:0:
500,264,39310,1,4,0:0:0:0:
436,336,39655,5,4,0:0:0:0:
244,328,40345,2,0,L|244:240,1,80,4|4,0:0|0:0,0:0:0:0:
164,196,41035,2,0,P|120:168|144:64,1,160,6|4,0:0|0:0,0:0:0:0:
224,44,42069,1,4,0:0:0:0:
308,89,42414,6,0,P|396:76|456:121,1,160,4|4,0:0|0:0,0:0:0:0:
364,284,43793,2,0,L|196:260,1,160,4|4,0:0|0:0,0:0:0:0:
40,164,45172,6,0,P|80:136|112:124,1,80,4|4,0:0|0:0,0:0:0:0:
164,44,45862,2,0,P|192:84|204:116,1,80,4|4,0:0|0:0,0:0:0:0:
234,203,46552,2,0,L|389:128,1,160,0|0,0:0|0:0,0:0:0:0:
463,176,47586,1,8,0:0:0:0:
407,254,47931,6,0,B|377:260|353:280|353:280|314:286|314:286|299:313|256:316,1,160,4|0,0:1|0:0,0:0:0:0:
174,279,48966,1,8,0:0:0:0:
89,234,49310,2,0,P|74:191|76:142,1,80,4|8,0:0|0:0,0:0:0:0:
151,100,50000,2,0,P|166:143|164:192,1,80,0|8,0:0|0:0,0:0:0:0:
249,225,50690,6,0,B|279:193|321:190|321:190|326:143|366:110,1,160,4|0,0:0|0:0,0:0:0:0:
415,194,51724,1,8,0:0:0:0:
488,255,52069,2,0,P|446:286|368:280,2,120,4|8|8,0:0|0:0|0:0,0:0:0:0:
505,160,53448,6,0,P|469:113|359:118,1,160,4|0,0:0|0:0,0:0:0:0:
311,181,54483,1,8,0:0:0:0:
218,205,54828,2,0,L|128:180,1,80,4|8,0:0|0:0,0:0:0:0:
89,264,55517,2,0,L|166:285,1,80,0|8,0:0|0:0,0:0:0:0:
254,323,56207,6,0,B|305:292|305:292|340:308|376:306|412:286,1,160,4|0,0:0|0:0,0:0:0:0:
445,205,57241,1,8,0:0:0:0:
404,119,57586,2,0,B|341:85|292:122|292:122|243:162|177:126,1,240,4|8,0:0|0:0,0:0:0:0:
83,112,58966,6,0,B|78:155|102:186|102:186|56:212|47:262,1,160,4|0,0:1|0:0,0:0:0:0:
143,272,60000,1,8,0:0:0:0:
200,348,60345,2,0,L|286:300,1,80,4|8,0:0|0:0,0:0:0:0:
360,340,61035,2,0,L|446:292,1,80,0|8,0:0|0:0,0:0:0:0:
469,213,61724,6,0,B|416:196|416:196|408:157|377:131|336:120,1,160,4|0,0:0|0:0,0:0:0:0:
255,151,62759,1,8,0:0:0:0:
163,123,63103,2,0,P|157:162|212:237,2,120,4|8|8,0:0|0:0|0:0,0:0:0:0:
228,52,64483,6,0,P|296:68|397:58,1,160,4|0,0:0|0:0,0:0:0:0:
476,32,65517,1,8,0:0:0:0:
495,126,65862,2,0,L|448:191,1,80,4|8,0:0|0:0,0:0:0:0:
379,258,66552,2,0,P|323:251|294:228,1,80,0|8,0:0|0:0,0:0:0:0:
267,149,67241,6,0,P|222:127|171:209,1,160,4|0,0:0|0:0,0:0:0:0:
195,295,68276,1,8,0:0:0:0:
268,356,68621,2,0,B|344:332|344:332|412:344|412:344|508:304,1,240,4|8,0:0|0:0,0:0:0:0:
504,212,70000,6,0,P|504:176|392:148,1,160,4|0,0:1|0:0,0:0:0:0:
336,204,71035,1,8,0:0:0:0:
240,200,71379,2,0,L|256:112,1,80,4|8,0:0|0:0,0:0:0:0:
192,48,72069,2,0,P|152:56|116:88,1,80,0|8,0:0|0:0,0:0:0:0:
56,152,72759,6,0,L|80:316,1,160,4|0,0:0|0:0,0:0:0:0:
176,312,73793,1,8,0:0:0:0:
272,316,74138,2,0,P|316:296|336:264,1,80,0|8,0:0|0:0,0:0:0:0:
364,180,74828,2,0,L|280:172,1,80,0|8,0:0|0:0,0:0:0:0:
200,124,75517,6,0,B|264:80|264:80|360:88,1,160,4|0,0:0|0:0,0:0:0:0:
440,112,76552,1,8,0:0:0:0:
464,204,76897,2,0,L|440:292,1,80,4|8,0:0|0:0,0:0:0:0:
360,332,77586,2,0,P|312:324|276:304,1,80,0|8,0:0|0:0,0:0:0:0:
212,248,78276,6,0,P|204:208|92:184,1,160,4|0,0:0|0:0,0:0:0:0:
48,256,79310,1,8,0:0:0:0:
125,313,79655,2,0,P|179:349|249:349,2,120,0|0|8,0:0|0:0|0:0,0:0:0:0:
48,256,81035,6,0,L|66:96,1,160,4|0,0:1|0:0,0:0:0:0:
145,42,82069,1,8,0:0:0:0:
230,84,82414,2,0,P|259:122|264:161,1,80,4|8,0:0|0:0,0:0:0:0:
226,241,83103,2,0,L|316:255,1,80,0|8,0:0|0:0,0:0:0:0:
324,347,83793,6,0,L|166:320,1,160,4|0,0:0|0:0,0:0:0:0:
101,249,84828,1,8,0:0:0:0:
91,153,85172,2,0,L|113:72,1,80,0|8,0:0|0:0,0:0:0:0:
198,34,85862,2,0,L|220:115,1,80,0|8,0:0|0:0,0:0:0:0:
210,207,86552,6,0,P|259:221|356:160,1,160,4|0,0:0|0:0,0:0:0:0:
362,76,87586,1,8,0:0:0:0:
456,92,87931,2,0,L|461:185,1,80,4|8,0:0|0:0,0:0:0:0:
454,268,88621,2,0,P|419:289|368:295,1,80,0|8,0:0|0:0,0:0:0:0:
288,270,89310,6,0,P|241:250|126:249,1,160,4|0,0:0|0:0,0:0:0:0:
55,303,90345,1,8,0:0:0:0:
31,209,90690,2,0,P|30:153|75:93,2,120,4|8|8,0:0|0:0|0:0,0:0:0:0:
121,176,92069,5,2,0:0:0:0:
