osu file format v14

[General]
AudioFilename: Feint - 161914.mp3
AudioLeadIn: 0
PreviewTime: 45606
Countdown: 0
SampleSet: Soft
StackLeniency: 0.7
Mode: 0
LetterboxInBreaks: 1
WidescreenStoryboard: 0

[Editor]
Bookmarks: 68824,91681,117395,120252
DistanceSpacing: 1
BeatDivisor: 4
GridSize: 4
TimelineZoom: 1.799999

[Metadata]
Title:161914
TitleUnicode:161914
Artist:Feint
ArtistUnicode:Feint
Creator:Aka
Version:Normal
Source:
Tags:drum and bass dnb piano fergas
BeatmapID:700906
BeatmapSetID:224157

[Difficulty]
HPDrainRate:4
CircleSize:3.5
OverallDifficulty:4
ApproachRate:5.4
SliderMultiplier:1.2
SliderTickRate:1

[Events]
//Background and Video events
0,0,"luxfon.com-5047.jpg",0,0
//Break Periods
2,69021,90539
//Storyboard Layer 0 (Background)
//Storyboard Layer 1 (Fail)
//Storyboard Layer 2 (Pass)
//Storyboard Layer 3 (Foreground)
//Storyboard Sound Samples

[TimingPoints]
23107,357.142857142857,4,2,2,50,1,0
45964,-100,4,2,2,50,0,1
46053,-100,4,2,2,50,0,0
103106,-100,4,2,2,50,0,1
103196,-100,4,2,2,50,0,0
133822,-100,4,2,2,30,0,0
134536,-100,4,2,2,20,0,0

[Colours]
Combo1 : 105,150,140
Combo2 : 194,213,140
Combo3 : 122,170,94

[HitObjects]
175,251,23106,6,0,P|234:255|302:257,1,120,6|8,0:3|0:0,0:0:0:0:
340,239,23642,2,0,P|351:196|355:120,1,120,4|10,0:3|0:0,0:0:0:0:
336,77,24178,1,0,0:3:0:0:
229,132,24535,1,8,0:0:0:0:
119,83,24892,2,0,P|54:91|5:133,1,120,6|0,0:3|0:0,0:0:0:0:
38,240,25606,2,0,P|48:294|49:326,1,60,10|4,0:0|0:3,0:0:0:0:
34,345,25964,6,0,P|99:339|164:345,1,120,6|8,0:3|0:0,0:0:0:0:
201,353,26499,2,0,P|242:338|308:283,1,120,0|10,0:0|0:0,0:0:0:0:
316,247,27035,1,0,0:0:0:0:
211,188,27392,1,0,0:0:0:0:
107,248,27749,1,6,0:3:0:0:
0,195,28106,1,0,0:0:0:0:
104,134,28464,2,0,P|124:100|131:67,1,60,10|4,0:0|0:3,0:0:0:0:
125,31,28821,6,0,P|192:53|259:39,1,120,6|8,0:3|0:0,0:0:0:0:
283,29,29356,2,0,P|329:20|415:29,1,120,4|10,0:3|0:0,0:0:0:0:
444,46,29892,1,0,0:0:0:0:
476,161,30249,1,6,0:3:0:0:
360,129,30606,1,6,0:3:0:0:
241,152,30964,2,0,P|184:187|152:260,1,120,0|10,0:0|0:0,0:0:0:0:
155,279,31499,1,4,0:3:0:0:
169,324,31678,6,0,P|204:350|290:357,1,120,6|8,0:3|0:0,0:0:0:0:
323,342,32214,2,0,P|375:335|444:347,1,120,4|10,0:3|0:0,0:0:0:0:
484,365,32749,1,0,0:0:0:0:
500,246,33106,2,0,P|495:207|484:174,1,60,10|4,0:0|0:3,0:0:0:0:
452,155,33464,2,0,P|436:108|429:28,1,120,4|0,0:3|0:0,0:0:0:0:
386,61,33999,2,0,P|341:72|248:63,1,120,10|0,0:0|0:0,0:0:0:0:
221,57,34535,5,6,0:3:0:0:
131,136,34892,2,0,P|96:137|68:133,1,60,8|4,0:0|0:3,0:0:0:0:
17,241,35428,2,0,P|5:268|0:297,2,60,10|0|4,0:0|0:0|0:3,0:0:0:0:
65,235,35964,1,10,0:0:0:0:
173,287,36321,1,6,0:3:0:0:
253,197,36678,1,0,0:0:0:0:
339,276,37035,2,0,P|368:281|398:284,1,60,10|4,0:0|0:3,0:0:0:0:
445,277,37392,6,0,P|426:238|416:149,1,120,6|8,0:3|0:0,0:0:0:0:
425,115,37928,2,0,P|359:111|279:96,1,120,4|10,0:3|0:0,0:0:0:0:
265,128,38464,1,0,0:0:0:0:
149,94,38821,1,0,0:0:0:0:
111,206,39178,1,6,0:3:0:0:
224,244,39535,1,0,0:0:0:0:
327,183,39892,2,0,P|373:193|405:217,1,60,10|4,0:0|0:3,0:0:0:0:
418,230,40249,6,0,P|388:269|371:346,1,120,6|8,0:3|0:0,0:0:0:0:
338,370,40785,2,0,P|291:372|208:358,1,120,4|10,0:3|0:0,0:0:0:0:
185,328,41321,2,0,P|178:298|177:268,1,60,0|0,0:0|0:0,0:0:0:0:
185,222,41678,1,6,0:3:0:0:
289,163,42035,1,6,0:3:0:0:
187,98,42392,1,0,0:0:0:0:
77,146,42749,2,0,P|42:146|2:133,1,60,10|4,0:0|0:3,0:0:0:0:
17,188,43106,6,0,P|28:221|40:312,1,120,6|8,0:3|0:0,0:0:0:0:
28,350,43642,2,0,P|68:341|159:351,1,120,4|10,0:3|0:0,0:0:0:0:
189,365,44178,1,0,0:0:0:0:
298,315,44535,2,0,P|302:269|299:251,1,60,8|4,0:0|0:3,0:0:0:0:
279,213,44892,2,0,P|332:215|409:212,1,120,4|0,0:3|0:0,0:0:0:0:
443,195,45428,2,0,P|438:146|439:109,1,60,10|0,0:0|0:0,0:0:0:0:
347,55,45964,6,0,P|296:48|214:6,1,120,4|8,1:1|0:0,0:0:0:0:
203,57,46499,2,0,P|144:77|88:73,1,120,4|10,0:3|0:0,0:0:0:0:
44,93,47035,2,0,P|14:125|2:149,1,60,0|4,0:0|0:3,0:0:0:0:
0,187,47392,1,10,0:0:0:0:
47,297,47749,1,4,0:3:0:0:
161,259,48106,1,0,1:0:0:0:
265,317,48464,2,0,P|303:320|333:316,1,60,10|4,1:2|0:3,0:0:0:0:
370,300,48821,6,0,P|361:239|360:153,1,120,6|8,1:3|0:0,0:0:0:0:
367,134,49356,2,0,P|343:95|284:43,1,120,4|10,0:3|0:0,0:0:0:0:
240,40,49892,1,0,0:0:0:0:
162,131,50249,1,0,0:0:0:0:
53,80,50606,1,6,0:3:0:0:
0,188,50964,2,0,P|-6:255|10:310,1,120,0|10,1:0|0:0,0:0:0:0:
42,337,51499,1,0,0:0:0:0:
83,361,51678,6,0,P|140:360|221:347,1,120,6|8,1:3|0:0,0:0:0:0:
242,322,52214,2,0,P|252:266|241:203,1,120,4|10,0:3|0:0,0:0:0:0:
214,165,52749,2,0,P|250:156|282:134,1,60,0|0,0:0|0:0,0:0:0:0:
296,103,53106,1,6,0:3:0:0:
411,136,53464,1,6,0:3:0:0:
332,227,53821,1,0,1:0:0:0:
442,275,54178,2,0,P|453:311|454:333,1,60,10|4,0:0|0:3,0:0:0:0:
432,374,54535,6,0,P|367:373|298:369,1,120,6|8,1:3|0:0,0:0:0:0:
270,346,55071,2,0,P|210:349|150:349,1,120,4|10,0:3|0:0,0:0:0:0:
105,335,55606,1,0,0:0:0:0:
72,219,55964,2,0,P|71:183|69:151,1,60,8|4,0:0|0:3,0:0:0:0:
56,111,56321,2,0,P|94:119|176:101,1,120,4|0,0:3|1:0,0:0:0:0:
214,81,56856,1,10,0:0:0:0:
259,65,57035,2,0,P|297:64|327:71,1,60,0|0,0:0|0:0,0:0:0:0:
357,96,57392,6,0,P|345:144|348:216,1,120,6|8,1:3|0:0,0:0:0:0:
372,254,57928,1,4,0:3:0:0:
274,323,58285,2,0,P|221:335|196:337,2,60,10|0|4,0:0|0:0|0:3,0:0:0:0:
266,275,58821,2,0,P|246:237|235:162,1,120,10|4,0:0|0:3,0:0:0:0:
275,48,59535,1,0,1:0:0:0:
376,111,59892,2,0,P|421:107|450:100,1,60,10|4,1:2|0:3,0:0:0:0:
481,82,60249,5,6,1:3:0:0:
472,201,60606,2,0,P|451:229|422:246,1,60,8|4,0:0|0:3,0:0:0:0:
338,320,61142,2,0,P|363:360|373:389,2,60,10|0|0,0:0|0:0|0:0,0:0:0:0:
293,304,61678,2,0,P|258:300|162:320,1,120,0|6,0:0|0:3,0:0:0:0:
69,370,62392,1,0,1:0:0:0:
82,250,62749,2,0,P|73:204|66:178,1,60,10|4,0:0|0:3,0:0:0:0:
40,154,63106,6,0,P|82:149|168:124,1,120,6|8,1:3|0:0,0:0:0:0:
190,95,63642,1,4,0:3:0:0:
292,156,63999,2,0,P|342:155|371:147,2,60,10|0|0,0:0|0:0|0:0,0:0:0:0:
260,190,64535,1,6,0:3:0:0:
328,288,64892,1,6,0:3:0:0:
426,219,65249,1,0,1:0:0:0:
392,103,65606,2,0,P|409:71|433:52,1,60,8|4,0:0|0:3,0:0:0:0:
469,35,65964,6,0,L|335:34,1,120,6|8,1:3|0:0,0:0:0:0:
308,57,66499,2,0,P|256:65|166:60,1,120,0|10,0:0|0:0,0:0:0:0:
143,46,67035,1,0,0:0:0:0:
51,123,67392,2,0,P|38:157|36:190,1,60,8|4,0:0|0:3,0:0:0:0:
50,226,67749,1,4,0:3:0:0:
152,287,68106,2,0,P|189:280|232:289,1,60,0|8,0:0|0:0,0:0:0:0:
259,289,68464,2,0,P|257:247|264:204,1,60,0|0,0:0|0:0,0:0:0:0:
281,185,68821,5,0,1:0:0:0:
367,305,91678,6,0,P|397:318|440:320,2,60,6|4|8,0:3|0:3|0:0,0:0:0:0:
339,266,92214,2,0,P|355:207|355:126,1,120,4|2,0:3|0:0,0:0:0:0:
345,103,92749,1,8,0:0:0:0:
232,145,93106,2,0,P|202:146|164:147,1,60,8|6,0:0|0:3,0:0:0:0:
125,136,93464,2,0,P|86:128|63:125,1,60,4|6,0:3|0:3,0:0:0:0:
18,135,93821,2,0,P|30:168|34:202,1,60,4|0,0:3|0:0,0:0:0:0:
28,237,94178,1,8,0:0:0:0:
109,324,94535,6,0,P|155:339|244:345,1,120,0|8,0:0|0:0,0:0:0:0:
335,297,95249,2,0,P|396:296|413:300,1,60,10|4,0:0|0:3,0:0:0:0:
444,289,95606,2,0,P|472:275|498:247,1,60,4|8,0:3|0:0,0:0:0:0:
505,208,95964,1,10,0:0:0:0:
439,107,96321,2,0,P|403:103|371:107,1,60,4|8,0:3|0:0,0:0:0:0:
334,108,96678,2,0,P|292:107|254:110,1,60,4|0,0:3|0:0,0:0:0:0:
226,121,97035,1,8,0:0:0:0:
155,218,97392,6,0,P|112:237|28:212,1,120,2|8,0:0|0:0,0:0:0:0:
68,106,98106,2,0,P|82:62|85:40,1,60,8|6,0:0|0:3,0:0:0:0:
128,33,98464,2,0,P|172:30|207:37,1,60,4|4,0:3|0:3,0:0:0:0:
232,50,98821,2,0,P|268:50|293:49,1,60,6|4,0:3|0:3,0:0:0:0:
341,40,99178,1,8,0:0:0:0:
442,104,99535,2,0,P|459:146|469:232,1,120,0|8,0:0|0:0,0:0:0:0:
404,320,100249,6,0,L|325:317,1,60,10|4,0:0|0:3,0:0:0:0:
295,310,100606,2,0,P|257:313|228:319,2,60,4|8|8,0:3|0:0|0:0,0:0:0:0:
344,200,101321,2,0,P|338:155|332:133,1,60,4|8,0:3|0:0,0:0:0:0:
300,101,101678,2,0,P|259:100|235:95,1,60,4|0,0:3|0:0,0:0:0:0:
198,75,102035,1,10,0:0:0:0:
104,150,102392,2,0,P|86:184|74:221,2,60,0|10|8,0:0|0:0|0:0,0:0:0:0:
193,230,103106,6,0,P|193:277|171:359,1,120,6|8,1:3|0:0,0:0:0:0:
289,307,103821,1,0,0:0:0:0:
398,355,104178,1,8,0:0:0:0:
475,263,104535,2,0,P|475:226|469:193,1,60,8|6,0:0|0:3,0:0:0:0:
443,164,104892,2,0,P|398:162|366:156,1,60,4|4,0:3|0:3,0:0:0:0:
341,135,105249,2,0,P|302:133|272:138,1,60,6|4,1:3|0:3,0:0:0:0:
241,161,105606,1,8,0:0:0:0:
140,94,105964,5,2,1:2:0:0:
58,182,106321,1,8,0:0:0:0:
90,297,106678,2,0,P|114:331|137:342,1,60,8|6,0:0|0:3,0:0:0:0:
177,344,107035,2,0,L|258:339,1,60,4|8,0:3|0:0,0:0:0:0:
280,316,107392,1,8,0:0:0:0:
388,263,107749,2,0,P|384:229|375:195,1,60,0|8,0:0|0:0,0:0:0:0:
356,161,108106,2,0,P|354:122|355:90,1,60,4|4,1:3|0:3,0:0:0:0:
370,58,108464,1,8,0:0:0:0:
252,81,108821,6,0,P|200:82|115:59,1,120,2|8,1:2|0:0,0:0:0:0:
87,177,109535,2,0,P|81:240|77:258,1,60,8|6,0:0|0:3,0:0:0:0:
70,283,109892,2,0,P|74:320|81:348,1,60,4|6,0:3|0:3,0:0:0:0:
122,362,110249,2,0,P|168:362|199:364,1,60,4|6,0:3|0:3,0:0:0:0:
228,371,110606,1,8,0:0:0:0:
320,294,110964,2,0,P|370:289|445:321,1,120,0|10,1:0|0:0,0:0:0:0:
486,204,111678,6,0,P|472:159|461:137,1,60,10|0,0:0|0:0,0:0:0:0:
424,125,112035,2,0,L|354:120,1,60,4|8,0:3|0:0,0:0:0:0:
319,138,112392,1,8,0:0:0:0:
208,183,112749,2,0,P|173:180|145:170,1,60,0|8,0:0|0:0,0:0:0:0:
114,138,113106,2,0,P|117:101|113:76,2,60,4|4|10,0:3|0:3|0:0,0:0:0:0:
24,218,113821,2,0,P|9:251|7:287,1,60,0|8,1:0|0:0,0:0:0:0:
30,314,114178,2,0,L|91:328,1,60,10|0,0:0|0:0,0:0:0:0:
138,322,114535,5,0,1:2:0:0:
356,223,115249,1,8,0:2:0:0:
113,139,116678,6,0,P|78:122|50:91,2,60,8|2|8,1:2|3:0|0:0,0:0:0:0:
230,115,117392,1,0,1:0:0:0:
2,267,119535,1,0,1:0:0:0:
229,341,120249,6,0,P|266:347|361:328,1,120,6|4,1:3|0:3,0:0:0:0:
431,248,120964,1,0,0:0:0:0:
331,181,121321,2,0,P|316:145|312:111,1,60,8|4,0:0|0:3,0:0:0:0:
321,77,121678,2,0,L|179:71,1,120,6|6,0:3|0:3,0:0:0:0:
106,146,122392,1,0,1:0:0:0:
207,210,122749,2,0,P|211:252|203:289,1,60,10|4,0:0|0:3,0:0:0:0:
179,308,123106,6,0,L|306:313,1,120,6|8,1:3|0:0,0:0:0:0:
346,316,123642,1,4,0:3:0:0:
401,209,123999,1,10,0:0:0:0:
415,165,124178,2,0,P|409:128|397:99,1,60,0|0,0:0|0:0,0:0:0:0:
365,78,124535,2,0,L|290:76,2,60,8|4|4,0:0|0:3|0:3,0:0:0:0:
318,188,125249,2,0,P|264:191|236:185,1,60,0|10,1:0|0:0,0:0:0:0:
214,172,125606,2,0,P|165:173|127:178,1,60
110,192,125964,5,0,1:0:0:0:
313,319,126678,1,8,0:0:0:0:
409,79,128106,6,0,P|372:73|339:75,2,60,8|2|0,1:2|3:0|0:0,0:0:0:0:
502,154,128821,1,0,1:0:0:0:
212,368,129892,2,0,P|177:366|107:328,2,90,8|8|8,0:0|0:0|0:0,0:0:0:0:
352,254,130964,6,0,P|350:216|336:106,1,120,0|0,1:0|0:0,0:0:0:0:
296,24,131679,1,0,1:0:0:0:
65,333,133821,5,0,1:0:0:0:
304,326,134535,1,0,1:0:0:0:
