osu file format v14

[General]
AudioFilename: Feint - 161914.mp3
AudioLeadIn: 0
PreviewTime: 45606
Countdown: 0
SampleSet: Soft
StackLeniency: 0.7
Mode: 0
LetterboxInBreaks: 1
WidescreenStoryboard: 0

[Editor]
Bookmarks: 68824,91681,117395,120252
DistanceSpacing: 0.9
BeatDivisor: 4
GridSize: 4
TimelineZoom: 2.199999

[Metadata]
Title:161914
TitleUnicode:161914
Artist:Feint
ArtistUnicode:Feint
Creator:Aka
Version:Easy
Source:
Tags:drum and bass dnb piano fergas
BeatmapID:700905
BeatmapSetID:224157

[Difficulty]
HPDrainRate:2
CircleSize:2
OverallDifficulty:2
ApproachRate:3
SliderMultiplier:1
SliderTickRate:1

[Events]
//Background and Video events
0,0,"luxfon.com-5047.jpg",0,0
//Break Periods
2,69021,90238
//Storyboard Layer 0 (Background)
//Storyboard Layer 1 (Fail)
//Storyboard Layer 2 (Pass)
//Storyboard Layer 3 (Foreground)
//Storyboard Sound Samples

[TimingPoints]
23107,357.142857142857,4,2,2,50,1,0
45964,-100,4,2,2,50,0,1
46053,-100,4,2,2,50,0,0
103106,-100,4,2,2,50,0,1
103196,-100,4,2,2,50,0,0
133822,-100,4,2,2,30,0,0
134536,-100,4,2,2,20,0,0

[Colours]
Combo1 : 105,150,140
Combo2 : 194,213,140
Combo3 : 122,170,94

[HitObjects]
5,263,23106,6,0,P|-5:230|52:130,2,150,6|6|6,0:3|0:3|0:3,0:0:0:0:
69,325,24535,2,0,P|116:329|183:324,1,100,8|6,0:0|0:3,0:0:0:0:
245,279,25249,1,0,0:0:0:0:
319,330,25606,1,10,0:0:0:0:
370,255,25964,6,0,P|403:218|506:223,2,150,6|4|0,0:3|0:3|0:0,0:0:0:0:
302,314,27392,2,0,P|252:320|197:302,1,100,0|6,0:0|0:3,0:0:0:0:
141,243,28106,1,0,0:0:0:0:
190,167,28464,1,10,0:0:0:0:
150,86,28821,6,0,L|-5:94,2,150,6|4|0,0:3|0:3|0:0,0:0:0:0:
227,131,30249,2,0,P|279:135|337:118,1,100,6|6,0:3|0:3,0:0:0:0:
389,59,30964,1,0,0:0:0:0:
458,116,31321,1,10,0:0:0:0:
430,201,31678,6,0,L|427:361,2,150,6|4|0,0:3|0:3|0:0,0:0:0:0:
344,174,33106,1,10,0:0:0:0:
270,226,33464,2,0,P|197:228|130:175,1,150,4|10,0:3|0:0,0:0:0:0:
238,96,34535,6,0,L|399:91,2,150,6|4|0,0:3|0:3|0:0,0:0:0:0:
185,169,35964,1,10,0:0:0:0:
98,143,36321,1,4,0:3:0:0:
46,216,36678,2,0,P|33:258|51:323,1,100,0|10,0:0|0:0,0:0:0:0:
129,340,37392,6,0,L|293:333,2,150,6|4|0,0:3|0:3|0:0,0:0:0:0:
143,251,38821,2,0,L|260:245,1,100,0|6,0:0|0:3,0:0:0:0:
312,188,39535,1,0,0:0:0:0:
298,99,39892,1,10,0:0:0:0:
363,37,40249,6,0,P|435:19|513:53,2,150,6|4|0,0:3|0:3|0:0,0:0:0:0:
361,127,41678,2,0,P|360:179|348:241,1,100,6|6,0:3|0:3,0:0:0:0:
273,270,42392,1,0,0:0:0:0:
196,222,42749,1,10,0:0:0:0:
141,293,43106,6,0,P|82:312|3:278,2,150,6|4|0,0:3|0:3|0:0,0:0:0:0:
209,234,44535,1,8,0:0:0:0:
277,175,44892,2,0,P|349:173|410:230,1,150,4|10,0:3|0:0,0:0:0:0:
374,353,45964,6,0,P|328:344|263:339,1,100,4|8,1:1|0:0,0:0:0:0:
190,308,46678,2,0,P|142:321|90:320,1,100,0|0,0:0|0:0,0:0:0:0:
35,248,47392,2,0,P|89:196|49:86,1,200,10|0,0:0|1:0,0:0:0:0:
117,25,48464,1,10,1:2:0:0:
201,56,48821,6,0,L|361:53,2,150,6|4|0,1:3|0:3|0:0,0:0:0:0:
144,123,50249,2,0,P|127:194|129:233,1,100,0|6,0:0|0:3,0:0:0:0:
197,277,50964,2,0,P|245:263|304:270,1,100,0|10,1:0|0:0,0:0:0:0:
378,298,51678,6,0,P|458:274|492:202,2,150,6|4|0,1:3|0:3|0:0,0:0:0:0:
295,261,53106,1,6,0:3:0:0:
206,280,53464,1,6,0:3:0:0:
144,213,53821,2,0,P|150:167|152:104,1,100,0|10,1:0|0:0,0:0:0:0:
236,80,54535,6,0,P|286:93|377:63,2,150,6|4|0,1:3|0:3|0:0,0:0:0:0:
163,26,55964,1,8,0:0:0:0:
94,84,56321,2,0,P|68:138|48:239,1,150,4|10,0:3|0:0,0:0:0:0:
159,303,57392,6,0,P|212:295|264:292,1,100,6|8,1:3|0:0,0:0:0:0:
344,317,58106,2,0,P|393:319|455:309,1,100,0|0,0:0|0:0,0:0:0:0:
496,239,58821,2,0,P|440:198|448:77,1,200,10|0,0:0|1:0,0:0:0:0:
364,41,59892,1,10,0:2:0:0:
274,53,60249,6,0,L|119:60,2,150,6|4|0,1:3|0:3|0:0,0:0:0:0:
337,116,61678,1,0,0:0:0:0:
257,158,62035,2,0,P|240:190|228:257,1,100,6|0,0:3|1:0,0:0:0:0:
250,339,62749,1,10,0:0:0:0:
162,317,63106,6,0,P|63:340|27:392,2,150,6|4|0,1:3|0:3|0:0,0:0:0:0:
240,361,64535,1,6,0:3:0:0:
327,340,64892,1,6,0:3:0:0:
378,266,65249,2,0,L|366:165,1,100,0|10,1:0|0:0,0:0:0:0:
311,95,65964,6,0,P|233:115|156:79,2,150,6|4|0,1:3|0:3|0:0,0:0:0:0:
377,34,67392,1,8,0:0:0:0:
458,73,67749,2,0,P|484:120|497:178,1,100,4|0,0:3|1:0,0:0:0:0:
471,251,68464,1,0,0:0:0:0:
382,268,68821,5,0,1:0:0:0:
146,101,91678,6,0,P|179:75|295:88,1,150,6|4,0:3|0:3,0:0:0:0:
387,162,92749,1,8,0:0:0:0:
470,127,93106,2,0,P|488:86|487:15,2,100,8|4|4,0:0|0:3|0:3,0:0:0:0:
392,173,94178,1,8,0:0:0:0:
315,125,94535,6,0,P|263:134|214:153,1,100,0|8,0:0|0:0,0:0:0:0:
135,185,95249,2,0,P|85:188|18:174,2,100,10|4|10,0:0|0:3|0:0,0:0:0:0:
205,241,96321,2,0,P|234:272|262:337,1,100,4|4,0:3|0:3,0:0:0:0:
340,360,97035,1,8,0:0:0:0:
420,320,97392,5,2,0:0:0:0:
464,241,97749,2,0,P|462:192|452:134,1,100,8|8,0:0|0:0,0:0:0:0:
365,123,98464,2,0,P|367:73|375:23,1,100,4|6,0:3|0:3,0:0:0:0:
285,31,99178,1,8,0:0:0:0:
199,58,99535,2,0,L|86:51,1,100,0|8,0:0|0:0,0:0:0:0:
81,140,100249,6,0,L|188:147,1,100,10|4,0:0|0:3,0:0:0:0:
266,117,100964,1,8,0:0:0:0:
257,206,101321,2,0,P|263:248|294:307,1,100,4|4,0:3|0:3,0:0:0:0:
377,311,102035,2,0,P|399:266|408:217,1,100,10|0,0:0|0:0,0:0:0:0:
339,158,102749,1,8,0:0:0:0:
257,206,103106,6,0,P|195:217|116:159,2,150,6|4|8,1:3|0:3|0:0,0:0:0:0:
314,136,104535,1,8,0:0:0:0:
267,59,104892,2,0,L|151:56,1,100,4|6,0:3|1:3,0:0:0:0:
83,90,105606,1,8,0:0:0:0:
34,166,105964,6,0,P|20:220|16:278,1,100,2|8,1:2|0:0,0:0:0:0:
94,308,106678,2,0,P|148:294|206:290,1,100,8|4,0:0|0:3,0:0:0:0:
275,323,107392,1,8,0:0:0:0:
336,257,107749,2,0,P|329:208|326:147,1,100,0|4,0:0|1:3,0:0:0:0:
373,80,108464,1,10,0:0:0:0:
292,40,108821,6,0,L|176:33,2,100,2|8|8,1:2|0:0|0:0,0:0:0:0:
375,73,109892,1,4,0:3:0:0:
459,40,110249,1,4,0:3:0:0:
500,119,110606,2,0,P|499:169|494:233,1,100,8|0,0:0|0:0,0:0:0:0:
446,294,111321,1,10,0:0:0:0:
363,257,111678,6,0,P|310:258|249:340,2,150,10|8|4,0:0|0:0|0:3,0:0:0:0:
442,299,113106,1,4,0:3:0:0:
507,237,113464,2,0,L|503:137,1,100,10|0,0:0|1:0,0:0:0:0:
430,84,114178,1,10,0:0:0:0:
341,99,114535,5,0,1:2:0:0:
72,205,116678,6,0,P|6:145|19:41,1,200,8|0,1:2|1:0,0:0:0:0:
335,253,119535,5,0,1:0:0:0:
428,99,120249,6,0,P|370:102|319:86,1,100,6|4,1:3|0:3,0:0:0:0:
252,45,120964,1,0,0:0:0:0:
182,102,121321,1,8,0:0:0:0:
93,88,121678,2,0,L|81:204,1,100,6|6,0:3|0:3,0:0:0:0:
100,275,122392,2,0,P|139:264|204:266,1,100,0|10,1:0|0:0,0:0:0:0:
275,311,123106,6,0,P|336:324|425:277,2,150,6|4|0,1:3|0:3|0:0,0:0:0:0:
206,251,124535,1,8,0:0:0:0:
118,231,124892,2,0,L|16:234,2,100,6|0|0,0:3|1:0|0:0,0:0:0:0:
208,227,125964,5,0,1:0:0:0:
472,123,128106,6,0,P|434:133|285:68,1,200,8|0,1:2|1:0,0:0:0:0:
26,362,130964,6,0,P|108:308|206:315,1,200,0|0,1:0|1:0,0:0:0:0:
364,149,133821,5,0,1:0:0:0:
185,123,134535,1,0,1:0:0:0:
