osu file format v14

[General]
AudioFilename: Feint - 161914.mp3
AudioLeadIn: 0
PreviewTime: 45606
Countdown: 0
SampleSet: Soft
StackLeniency: 0.5
Mode: 0
LetterboxInBreaks: 1
WidescreenStoryboard: 0

[Editor]
Bookmarks: 41234
DistanceSpacing: 0.8
BeatDivisor: 4
GridSize: 4
TimelineZoom: 3.699998

[Metadata]
Title:161914
TitleUnicode:161914
Artist:Feint
ArtistUnicode:Feint
Creator:Aka
Version:161914
Source:
Tags:drum and bass dnb piano fergas
BeatmapID:523365
BeatmapSetID:224157

[Difficulty]
HPDrainRate:7
CircleSize:4
OverallDifficulty:8
ApproachRate:9
SliderMultiplier:1.7
SliderTickRate:1

[Events]
//Background and Video events
0,0,"luxfon.com-5047.jpg",0,0
//Break Periods
2,69021,90974
//Storyboard Layer 0 (Background)
//Storyboard Layer 1 (Fail)
//Storyboard Layer 2 (Pass)
//Storyboard Layer 3 (Foreground)
//Storyboard Sound Samples

[TimingPoints]
23107,357.142857142857,4,2,2,50,1,0
24267,-100,4,3,2,35,0,0
24356,-100,4,2,2,50,0,0
27124,-100,4,3,2,35,0,0
27214,-100,4,2,2,50,0,0
27481,-100,4,3,2,35,0,0
27571,-100,4,2,2,50,0,0
29981,-100,4,3,2,35,0,0
30071,-100,4,2,2,50,0,0
31053,-100,4,3,2,35,0,0
31142,-100,4,2,2,50,0,0
32839,-100,4,3,2,35,0,0
32928,-100,4,2,2,50,0,0
34446,-100,4,3,2,35,0,0
34535,-100,4,2,2,50,0,0
35696,-100,4,3,2,35,0,0
35785,-100,4,2,2,50,0,0
36231,-100,4,3,2,35,0,0
36321,-100,4,2,2,50,0,0
38553,-100,4,3,2,35,0,0
38642,-100,4,2,2,50,0,0
38910,-100,4,3,2,35,0,0
38999,-100,4,2,2,50,0,0
42481,-100,4,3,2,35,0,0
42571,-100,4,2,2,50,0,0
44267,-100,4,3,2,35,0,0
44356,-100,4,2,2,50,0,0
45696,-100,4,3,2,35,0,0
45785,-100,4,2,2,50,0,0
45874,-100,4,3,2,35,0,0
45964,-100,4,2,2,50,0,1
46053,-100,4,2,2,50,0,0
47125,-100,4,3,2,35,0,0
47214,-100,4,2,2,50,0,0
47661,-100,4,3,2,35,0,0
47750,-100,4,2,2,50,0,0
49982,-100,4,3,2,35,0,0
50072,-100,4,2,2,50,0,0
50339,-100,4,2,2,35,0,0
50429,-100,4,2,2,50,0,0
52839,-100,4,3,2,35,0,0
52929,-100,4,2,2,50,0,0
55697,-100,4,2,2,35,0,0
55786,-100,4,2,2,50,0,0
57304,-100,4,2,2,25,0,0
57393,-100,4,2,2,50,0,0
58554,-100,4,3,2,35,0,0
58643,-100,4,2,2,50,0,0
59089,-100,4,3,2,35,0,0
59179,-100,4,2,2,50,0,0
59402,-100,4,3,2,35,0,0
59536,-100,4,2,2,50,0,0
61411,-100,4,3,2,35,0,0
61500,-100,4,2,2,50,0,0
61768,-100,4,3,2,35,0,0
61857,-100,4,2,2,50,0,0
62304,-100,4,3,2,35,0,0
62393,-100,4,2,2,50,0,0
64268,-100,4,3,2,35,0,0
64357,-100,4,2,2,50,0,0
67125,-100,4,3,2,35,0,0
67214,-100,4,2,2,50,0,0
68554,-100,4,3,2,35,0,0
68643,-100,4,2,2,50,0,0
68732,-100,4,3,2,35,0,0
68822,-100,4,2,2,50,0,0
92661,-100,4,3,2,35,0,0
92750,-100,4,2,2,50,0,0
93018,-100,4,3,2,35,0,0
93107,-100,4,2,2,50,0,0
94804,-100,4,3,2,35,0,0
94893,-100,4,2,2,50,0,0
95161,-100,4,3,2,35,0,0
95250,-100,4,2,2,50,0,0
97661,-100,4,3,2,35,0,0
97750,-100,4,2,2,50,0,0
98018,-100,4,3,2,35,0,0
98107,-100,4,2,2,50,0,0
99804,-100,4,3,2,35,0,0
99893,-100,4,2,2,50,0,0
100161,-100,4,2,2,35,0,0
100250,-100,4,2,2,50,0,0
103106,-100,4,2,2,50,0,1
103196,-100,4,2,2,50,0,0
104089,-100,4,3,2,35,0,0
104179,-100,4,2,2,50,0,0
104447,-100,4,3,2,35,0,0
104536,-100,4,2,2,50,0,0
106232,-100,4,3,2,35,0,0
106322,-100,4,2,2,50,0,0
106589,-100,4,3,2,35,0,0
106679,-100,4,2,2,50,0,0
109089,-100,4,3,2,35,0,0
109179,-100,4,2,2,50,0,0
109447,-100,4,3,2,35,0,0
109536,-100,4,2,2,50,0,0
111232,-100,4,3,2,35,0,0
111322,-100,4,2,2,50,0,0
111589,-100,4,3,2,35,0,0
111679,-100,4,2,2,50,0,0
121054,-100,4,3,2,35,0,0
121143,-100,4,2,2,50,0,0
122482,-100,4,3,2,35,0,0
122572,-100,4,2,2,50,0,0
124268,-100,4,3,2,35,0,0
124357,-100,4,2,2,50,0,0
125697,-100,4,3,2,35,0,0
125786,-100,4,2,2,50,0,0
125875,-100,4,2,2,35,0,0
125964,-100,4,2,2,50,0,0
133822,-100,4,2,2,30,0,0
134536,-100,4,2,2,20,0,0

[Colours]
Combo1 : 105,150,140
Combo2 : 194,213,140
Combo3 : 122,170,94

[HitObjects]
29,333,23106,6,0,P|68:313|111:310,1,85,6|0,0:3|0:0,0:0:0:0:
198,335,23464,1,8,0:0:0:0:
297,270,23642,2,0,P|318:226|317:178,1,85,4|0,0:3|0:0,0:0:0:0:
282,104,23999,1,10,0:0:0:0:
196,65,24178,1,0,0:3:0:0:
170,63,24267,1,0,0:0:0:0:
144,64,24356,1,4,0:3:0:0:
282,104,24535,1,8,0:0:0:0:
374,97,24714,5,0,0:0:0:0:
399,93,24803,1,0,0:0:0:0:
423,86,24892,1,6,0:3:0:0:
415,182,25071,1,0,0:0:0:0:
440,186,25160,1,0,0:0:0:0:
463,195,25249,1,0,0:0:0:0:
483,211,25339,1,0,0:0:0:0:
499,230,25428,1,0,0:0:0:0:
509,322,25606,5,10,0:0:0:0:
407,277,25785,1,4,0:3:0:0:
301,354,25964,2,0,P|258:364|215:360,1,85,6|0,0:3|0:0,0:0:0:0:
132,319,26321,1,8,0:0:0:0:
200,232,26499,2,0,P|211:202|212:137,1,85,0|0,0:0|0:0,0:0:0:0:
163,70,26856,1,10,0:0:0:0:
60,108,27035,5,0,0:0:0:0:
57,133,27124,1,0,0:0:0:0:
53,158,27214,1,0,0:0:0:0:
116,229,27392,1,0,0:0:0:0:
119,254,27481,1,0,0:0:0:0:
123,279,27571,1,0,0:0:0:0:
239,270,27749,6,0,P|285:261|334:269,1,85,6|0,0:3|0:0,0:0:0:0:
345,277,28017,1,0,0:0:0:0:
367,289,28106,1,0,0:0:0:0:
391,295,28196,1,0,0:0:0:0:
416,298,28285,1,0,0:0:0:0:
505,269,28464,1,10,0:0:0:0:
395,203,28642,1,4,0:3:0:0:
444,86,28821,6,0,P|438:44|419:5,1,85,6|0,0:3|0:0,0:0:0:0:
326,12,29178,1,8,0:0:0:0:
242,91,29356,2,0,P|192:109|153:107,1,85,4|0,0:3|0:0,0:0:0:0:
70,82,29714,1,10,0:0:0:0:
13,156,29892,1,0,0:0:0:0:
5,180,29981,1,0,0:0:0:0:
3,205,30071,1,0,0:0:0:0:
65,323,30249,6,0,P|110:319|175:304,1,85,6|0,0:3|0:0,0:0:0:0:
217,246,30606,2,0,P|263:248|302:254,1,85,6|0,0:3|0:0,0:0:0:0:
391,281,30964,1,0,0:0:0:0:
416,281,31053,1,0,0:0:0:0:
441,278,31142,1,0,0:0:0:0:
321,334,31321,1,10,0:0:0:0:
441,278,31499,1,4,0:3:0:0:
377,127,31678,6,0,P|340:105|298:99,1,85,6|0,0:3|0:0,0:0:0:0:
205,107,32035,1,8,0:0:0:0:
115,194,32214,2,0,P|94:264|93:287,1,85,4|0,0:3|0:0,0:0:0:0:
108,368,32571,1,10,0:0:0:0:
192,328,32749,1,0,0:0:0:0:
217,326,32839,1,0,0:0:0:0:
242,327,32928,1,0,0:0:0:0:
362,360,33106,5,10,0:0:0:0:
465,284,33285,1,4,0:3:0:0:
320,245,33464,2,0,P|278:239|240:219,1,85,4|0,0:3|0:0,0:0:0:0:
233,125,33821,1,0,0:0:0:0:
298,59,33999,2,0,P|352:49|394:54,1,85,10|0,0:0|0:0,0:0:0:0:
405,61,34267,1,0,0:0:0:0:
427,73,34356,1,0,0:0:0:0:
449,85,34446,1,0,0:0:0:0:
468,100,34535,6,0,L|452:191,1,85,6|0,0:3|0:0,0:0:0:0:
437,276,34892,1,8,0:0:0:0:
320,245,35071,2,0,P|272:264|210:260,1,85,4|0,0:3|0:0,0:0:0:0:
150,234,35428,1,10,0:0:0:0:
101,154,35606,1,0,0:0:0:0:
95,128,35696,1,0,0:0:0:0:
95,102,35785,1,4,0:3:0:0:
14,215,35964,1,10,0:0:0:0:
101,77,36142,5,0,0:0:0:0:
108,52,36231,1,0,0:0:0:0:
108,26,36321,1,4,0:3:0:0:
200,123,36499,1,0,0:0:0:0:
218,140,36589,1,0,0:0:0:0:
240,153,36678,1,0,0:0:0:0:
262,163,36767,1,0,0:0:0:0:
287,166,36856,1,0,0:0:0:0:
378,143,37035,1,10,0:0:0:0:
289,67,37214,1,4,0:3:0:0:
183,215,37392,6,0,P|172:268|173:316,1,85,6|0,0:3|0:0,0:0:0:0:
221,377,37749,1,8,0:0:0:0:
320,326,37928,2,0,P|385:313|432:326,1,85,4|0,0:3|0:0,0:0:0:0:
493,339,38285,1,10,0:0:0:0:
507,246,38464,1,0,0:0:0:0:
511,220,38553,1,0,0:0:0:0:
506,194,38642,1,0,0:0:0:0:
426,145,38821,1,0,0:0:0:0:
421,119,38910,1,0,0:0:0:0:
423,93,38999,1,0,0:0:0:0:
488,26,39178,5,6,0:3:0:0:
424,93,39356,1,0,0:0:0:0:
403,107,39446,1,0,0:0:0:0:
380,118,39535,1,0,0:0:0:0:
356,124,39624,1,0,0:0:0:0:
330,124,39714,1,0,0:0:0:0:
237,90,39892,1,10,0:0:0:0:
349,35,40071,1,4,0:3:0:0:
398,214,40249,6,0,P|394:267|375:303,1,85,6|0,0:3|0:0,0:0:0:0:
300,343,40606,1,8,0:0:0:0:
206,268,40785,2,0,P|165:251|88:265,1,85,4|0,0:3|0:0,0:0:0:0:
35,281,41142,1,10,0:0:0:0:
4,192,41321,1,0,0:0:0:0:
0,166,41410,1,0,0:0:0:0:
0,140,41499,1,0,0:0:0:0:
125,163,41678,5,6,0:3:0:0:
188,83,41856,1,0,0:0:0:0:
125,163,42035,1,6,0:3:0:0:
92,48,42214,1,0,0:0:0:0:
221,173,42392,1,0,0:0:0:0:
246,177,42481,1,0,0:0:0:0:
271,175,42571,1,0,0:0:0:0:
370,127,42749,1,10,0:0:0:0:
279,63,42928,1,4,0:3:0:0:
261,282,43106,6,0,P|218:281|166:266,1,85,6|0,0:3|0:0,0:0:0:0:
98,218,43464,1,8,0:0:0:0:
172,124,43642,2,0,P|184:77|183:29,1,85,4|0,0:3|0:0,0:0:0:0:
96,9,43999,1,10,0:0:0:0:
27,108,44178,1,0,0:0:0:0:
30,133,44267,1,0,0:0:0:0:
34,158,44356,1,0,0:0:0:0:
58,257,44535,1,8,0:0:0:0:
167,247,44714,1,4,0:3:0:0:
232,122,44892,5,4,0:3:0:0:
113,133,45071,1,0,0:0:0:0:
205,35,45249,1,0,0:0:0:0:
266,207,45428,1,10,0:0:0:0:
320,85,45606,1,0,0:0:0:0:
347,73,45696,1,0,3:0:0:0:
376,67,45785,1,0,0:0:0:0:
405,64,45874,1,0,3:0:0:0:
434,68,45964,6,0,P|487:85|525:115,1,85,4|0,1:1|0:0,0:0:0:0:
404,251,46321,1,8,0:0:0:0:
352,169,46499,2,0,P|409:158|451:163,1,85,4|0,0:3|0:0,0:0:0:0:
312,256,46856,1,10,0:0:0:0:
230,188,47035,1,0,0:0:0:0:
216,161,47124,1,0,0:0:0:0:
210,131,47214,1,4,0:3:0:0:
133,275,47392,5,10,0:0:0:0:
211,340,47571,1,0,0:0:0:0:
239,348,47660,1,0,0:0:0:0:
268,348,47749,1,4,0:3:0:0:
76,359,47928,1,0,0:0:0:0:
51,342,48017,1,0,0:0:0:0:
34,317,48106,1,0,1:0:0:0:
26,287,48196,1,0,0:0:0:0:
31,257,48285,1,0,0:0:0:0:
97,158,48464,1,10,0:2:0:0:
213,209,48642,1,4,0:3:0:0:
324,110,48821,6,0,P|387:99|421:106,1,85,6|0,1:3|0:0,0:0:0:0:
492,140,49178,1,8,0:0:0:0:
461,261,49356,2,0,P|418:297|376:303,1,85,4|0,0:3|0:0,0:0:0:0:
297,296,49714,1,10,0:0:0:0:
184,286,49892,1,0,0:0:0:0:
155,293,49981,1,0,0:0:0:0:
129,308,50071,1,0,0:0:0:0:
245,208,50249,1,0,0:0:0:0:
262,183,50339,1,0,0:0:0:0:
264,153,50428,1,0,0:0:0:0:
109,144,50606,5,6,0:3:0:0:
245,208,50785,1,0,0:0:0:0:
272,218,50874,1,0,0:0:0:0:
301,224,50964,2,0,P|325:223|351:217,1,42.5,0|0,1:0|0:0,0:0:0:0:
406,265,51142,1,0,0:0:0:0:
500,186,51321,1,10,0:0:0:0:
347,134,51499,1,0,0:0:0:0:
311,299,51678,6,0,P|326:358|350:393,1,85,6|0,1:3|0:0,0:0:0:0:
438,361,52035,1,8,0:0:0:0:
235,324,52214,2,0,P|192:325|152:338,1,85,4|0,0:3|0:0,0:0:0:0:
240,231,52571,1,10,0:0:0:0:
279,125,52749,1,0,0:0:0:0:
283,95,52839,1,0,0:0:0:0:
280,65,52928,1,0,0:0:0:0:
146,76,53106,5,6,0:3:0:0:
272,36,53285,1,0,0:0:0:0:
133,107,53464,1,6,0:3:0:0:
265,150,53642,1,0,0:0:0:0:
398,118,53821,1,0,1:0:0:0:
427,118,53910,1,0,0:0:0:0:
455,125,53999,1,0,0:0:0:0:
358,48,54178,1,10,0:0:0:0:
415,197,54356,1,4,0:3:0:0:
335,299,54535,6,0,P|290:314|236:312,1,85,6|0,1:3|0:0,0:0:0:0:
156,280,54892,1,8,0:0:0:0:
140,381,55071,2,0,P|97:380|57:368,1,85,4|0,0:3|0:0,0:0:0:0:
156,280,55428,1,10,0:0:0:0:
219,200,55606,1,0,0:0:0:0:
225,175,55696,1,0,0:0:0:0:
226,149,55785,1,0,0:0:0:0:
103,204,55964,1,8,0:0:0:0:
270,279,56142,1,4,0:3:0:0:
221,119,56321,6,0,P|225:73|238:32,1,85,4|0,0:3|0:0,0:0:0:0:
321,151,56678,1,0,1:0:0:0:
407,97,56856,1,10,0:0:0:0:
485,161,57035,1,0,0:0:0:0:
500,191,57124,1,0,0:0:0:0:
503,224,57214,1,0,0:0:0:0:
495,257,57303,1,0,0:0:0:0:
475,284,57392,6,0,P|431:302|377:295,1,85,6|0,1:3|0:0,0:0:0:0:
303,253,57749,1,8,0:0:0:0:
274,360,57928,2,0,P|235:342|208:310,1,85,4|0,0:3|0:0,0:0:0:0:
193,209,58285,1,10,0:0:0:0:
107,264,58464,1,0,0:0:0:0:
93,290,58553,1,0,0:0:0:0:
85,318,58642,1,4,0:3:0:0:
66,193,58821,6,0,P|55:142|29:99,1,85,10|0,0:0|0:0,0:0:0:0:
22,89,59089,1,0,0:0:0:0:
0,67,59178,1,4,0:3:0:0:
129,48,59356,2,0,P|154:42|175:40,1,42.5,0|0,0:0|0:0,0:0:0:0:
236,73,59535,2,0,P|262:80|287:82,1,42.5,0|0,1:0|0:0,0:0:0:0:
346,54,59714,1,0,0:0:0:0:
425,169,59892,1,10,1:2:0:0:
330,252,60071,1,4,0:3:0:0:
198,195,60249,6,0,P|155:193|115:207,1,85,6|0,1:3|0:0,0:0:0:0:
56,291,60606,1,8,0:0:0:0:
150,329,60785,2,0,P|200:350|228:380,1,85,4|0,0:3|0:0,0:0:0:0:
321,347,61142,1,10,0:0:0:0:
418,275,61321,1,0,0:0:0:0:
418,245,61410,1,0,0:0:0:0:
411,215,61499,1,0,0:0:0:0:
289,109,61678,5,0,0:0:0:0:
289,139,61767,1,0,0:0:0:0:
296,169,61856,1,0,0:0:0:0:
443,97,62035,1,6,0:3:0:0:
289,109,62214,1,0,0:0:0:0:
255,112,62303,1,0,0:0:0:0:
222,105,62392,1,0,1:0:0:0:
192,88,62481,1,0,0:0:0:0:
168,64,62571,1,0,0:0:0:0:
258,15,62749,1,10,0:0:0:0:
171,181,62928,1,4,0:3:0:0:
68,121,63106,6,0,P|50:82|50:40,1,85,6|0,1:3|0:0,0:0:0:0:
31,218,63464,1,8,0:0:0:0:
98,295,63642,2,0,P|144:308|196:306,1,85,4|0,0:3|0:0,0:0:0:0:
269,256,63999,1,10,0:0:0:0:
358,305,64178,1,0,0:0:0:0:
371,331,64267,1,0,0:0:0:0:
377,360,64356,1,0,0:0:0:0:
456,278,64535,5,6,0:3:0:0:
510,192,64714,1,0,0:0:0:0:
428,130,64892,1,6,0:3:0:0:
481,43,65071,1,0,0:0:0:0:
428,130,65249,1,0,1:0:0:0:
400,141,65339,1,0,0:0:0:0:
370,144,65428,1,0,0:0:0:0:
272,115,65606,1,8,0:0:0:0:
376,40,65785,1,4,0:3:0:0:
346,223,65964,6,0,P|325:270|288:304,1,85,6|0,1:3|0:0,0:0:0:0:
204,324,66321,1,8,0:0:0:0:
109,257,66499,2,0,P|70:240|27:237,1,85
102,359,66856,1,10,0:0:0:0:
217,233,67035,2,0,P|217:197|215:180,1,42.5,0|0,0:0|0:0,0:0:0:0:
188,120,67214,1,0,0:0:0:0:
73,163,67392,1,8,0:0:0:0:
136,33,67571,1,0,0:0:0:0:
277,45,67749,6,0,P|329:66|364:100,1,85,4|0,0:3|0:0,0:0:0:0:
380,200,68106,1,0,0:0:0:0:
268,155,68285,1,8,0:0:0:0:
449,125,68464,1,0,0:0:0:0:
473,154,68553,1,0,0:0:0:0:
483,191,68642,1,0,0:0:0:0:
478,229,68731,1,0,0:0:0:0:
459,261,68821,5,0,1:0:0:0:
33,352,91678,5,6,0:3:0:0:
137,295,91856,1,4,0:3:0:0:
75,192,92035,1,8,0:0:0:0:
76,158,92124,1,0,0:0:0:0:
84,125,92214,2,0,P|108:87|144:64,1,85,4|0,0:3|0:0,0:0:0:0:
252,109,92571,2,0,P|273:113|299:114,1,42.5,2|0,0:0|0:0,0:0:0:0:
360,79,92749,2,0,P|402:76|443:86,1,85,8|0,0:0|0:0,0:0:0:0:
498,146,93017,1,0,0:0:0:0:
481,175,93106,2,0,P|473:213|476:265,1,85,8|6,0:0|0:3,0:0:0:0:
390,342,93464,5,4,0:3:0:0:
274,310,93642,1,6,0:3:0:0:
360,227,93821,1,4,0:3:0:0:
474,258,93999,1,0,0:0:0:0:
390,342,94178,2,0,L|342:336,1,42.5,8|0,0:0|0:0,0:0:0:0:
274,310,94356,1,6,0:3:0:0:
183,220,94535,2,0,P|175:169|182:131,1,85,0|0,0:0|0:0,0:0:0:0:
196,106,94803,1,0,0:0:0:0:
214,77,94892,1,8,0:0:0:0:
350,55,95071,6,0,L|399:48,1,42.5,0|0,0:0|0:0,0:0:0:0:
375,127,95249,2,0,L|332:130,1,42.5,10|0,0:0|0:0,0:0:0:0:
278,176,95428,1,4,0:3:0:0:
339,288,95606,1,4,0:3:0:0:
225,340,95785,2,0,P|213:305|212:280,1,42.5,8|0,0:0|0:0,0:0:0:0:
207,227,95964,1,10,0:0:0:0:
339,288,96142,1,4,0:3:0:0:
138,306,96321,5,4,0:3:0:0:
104,303,96410,1,0,0:0:0:0:
70,301,96499,1,8,0:0:0:0:
23,185,96678,1,4,0:3:0:0:
110,105,96856,1,0,0:0:0:0:
213,164,97035,1,8,0:0:0:0:
246,166,97124,1,0,0:0:0:0:
280,161,97214,1,4,0:3:0:0:
389,29,97392,6,0,P|365:93|366:127,1,85,2|0,0:0|0:0,0:0:0:0:
384,183,97660,1,0,0:0:0:0:
397,214,97749,2,0,P|408:256|406:309,1,85,8|0,0:0|0:0,0:0:0:0:
395,329,98017,1,0,0:0:0:0:
375,356,98106,1,8,0:0:0:0:
268,302,98285,1,6,0:3:0:0:
172,371,98464,2,0,L|76:367,1,85,4|4,0:3|0:3,0:0:0:0:
21,222,98821,2,0,L|117:226,1,85,6|4,0:3|0:3,0:0:0:0:
232,140,99178,6,0,P|252:99|254:89,1,42.5,8|0,0:0|0:0,0:0:0:0:
254,31,99356,1,4,0:3:0:0:
354,150,99535,1,0,0:0:0:0:
277,241,99714,1,0,0:0:0:0:
245,252,99803,1,0,0:0:0:0:
211,256,99892,1,8,0:0:0:0:
76,323,100071,1,0,0:0:0:0:
109,326,100160,1,0,0:0:0:0:
141,338,100249,1,10,0:0:0:0:
257,363,100428,5,4,0:3:0:0:
343,294,100606,1,4,0:3:0:0:
494,302,100785,1,8,0:0:0:0:
417,222,100964,2,0,P|401:170|411:114,1,85,8|6,0:0|0:3,0:0:0:0:
330,55,101321,2,0,P|303:87|291:96,1,42.5,4|0,0:3|0:0,0:0:0:0:
241,124,101499,1,8,0:0:0:0:
140,78,101678,1,4,0:3:0:0:
46,136,101856,1,0,0:0:0:0:
94,267,102035,6,0,P|142:299|183:307,1,85,10|4,0:0|0:3,0:0:0:0:
201,302,102303,1,0,0:0:0:0:
234,295,102392,1,0,0:0:0:0:
264,280,102481,1,4,0:3:0:0:
288,257,102571,1,10,0:0:0:0:
295,137,102749,1,8,0:0:0:0:
401,264,102928,1,4,0:3:0:0:
189,206,103106,6,0,P|165:166|161:107,1,85,6|4,1:3|0:3,0:0:0:0:
74,43,103464,2,0,P|64:86|59:98,1,42.5,8|0,0:0|0:0,0:0:0:0:
16,142,103642,1,4,0:3:0:0:
187,48,103821,2,0,P|227:37|269:42,1,85,0|2,0:0|0:0,0:0:0:0:
329,92,104089,1,0,0:0:0:0:
352,117,104178,2,0,P|368:163|369:218,1,85,8|0,0:0|0:0,0:0:0:0:
349,269,104446,1,0,0:0:0:0:
334,299,104535,1,8,0:0:0:0:
210,229,104714,1,6,0:3:0:0:
110,295,104892,5,4,0:3:0:0:
10,229,105071,1,4,0:3:0:0:
55,119,105249,1,6,1:3:0:0:
177,125,105428,1,4,0:3:0:0:
110,295,105606,2,0,P|90:327|75:341,1,42.5,8|0,0:0|0:0,0:0:0:0:
18,352,105785,1,4,0:3:0:0:
183,339,105964,6,0,P|241:332|275:338,1,85,2|0,1:2|0:0,0:0:0:0:
344,364,106231,1,0,0:0:0:0:
375,376,106321,2,0,P|431:376|480:354,1,85,8|0,0:0|0:0,0:0:0:0:
483,344,106589,1,0,0:0:0:0:
496,312,106678,1,8,0:0:0:0:
495,278,106767,1,0,0:0:0:0:
486,245,106856,1,6,0:3:0:0:
416,148,107035,1,4,0:3:0:0:
305,192,107214,1,8,0:0:0:0:
270,194,107303,1,0,0:0:0:0:
236,186,107392,6,0,P|193:156|171:119,1,85,8|4,0:0|0:3,0:0:0:0:
58,154,107749,2,0,P|50:199|51:218,1,42.5,0|0,0:0|0:0,0:0:0:0:
60,266,107928,1,8,0:0:0:0:
159,331,108106,1,4,1:3:0:0:
264,275,108285,1,4,0:3:0:0:
367,332,108464,1,8,0:0:0:0:
400,336,108553,1,0,0:0:0:0:
433,331,108642,1,4,0:3:0:0:
503,216,108821,6,0,P|485:172|455:136,1,85,2|0,1:2|0:0,0:0:0:0:
387,109,109089,1,0,0:0:0:0:
356,123,109178,2,0,P|296:127|260:119,1,85,8|0,0:0|0:0,0:0:0:0:
205,80,109446,1,0,0:0:0:0:
178,58,109535,1,8,0:0:0:0:
61,139,109714,1,6,0:3:0:0:
169,224,109892,5,4,0:3:0:0:
88,48,110071,1,6,0:3:0:0:
8,217,110249,1,4,0:3:0:0:
160,146,110428,1,6,0:3:0:0:
253,253,110606,1,8,0:0:0:0:
271,281,110696,1,0,0:0:0:0:
282,313,110785,1,4,0:3:0:0:
183,379,110964,6,0,P|122:363|79:363,1,85
42,312,111231,1,0,0:0:0:0:
79,288,111321,2,0,P|105:253|116:200,1,85,10|0,0:0|0:0,0:0:0:0:
115,135,111589,1,0,0:0:0:0:
148,139,111678,1,10,0:0:0:0:
181,137,111767,1,0,0:0:0:0:
213,127,111856,1,0,0:0:0:0:
306,33,112035,6,0,P|357:22|397:29,1,85,4|8,0:3|0:0,0:0:0:0:
456,83,112303,1,0,0:0:0:0:
443,114,112392,2,0,P|437:181|447:224,1,85,8|6,0:0|0:3,0:0:0:0:
487,326,112749,2,0,P|447:321|437:321,1,42.5,0|0,0:0|0:0,0:0:0:0:
369,328,112928,1,8,0:0:0:0:
263,274,113106,2,0,P|249:226|254:184,1,85,4|4,0:3|0:3,0:0:0:0:
296,69,113464,1,10,0:0:0:0:
162,174,113642,5,4,0:3:0:0:
127,190,113731,1,4,0:3:0:0:
89,193,113821,1,0,1:0:0:0:
53,183,113910,1,4,0:3:0:0:
22,160,113999,2,0,P|7:136|2:116,1,42.5,8|0,0:0|0:0,0:0:0:0:
15,250,114178,2,0,P|13:271|6:291,1,42.5,10|0,0:0|0:0,0:0:0:0:
96,110,114356,1,0,0:0:0:0:
246,151,114535,5,0,1:2:0:0:
57,68,115249,6,0,L|49:112,1,42.5,8|0,0:2|0:0,0:0:0:0:
53,183,115428,1,4,0:3:0:0:
278,157,116678,6,0,P|318:139|370:135,1,85,8|4,1:2|0:3,0:0:0:0:
388,139,116946,1,8,0:0:0:0:
416,147,117035,1,8,0:0:0:0:
512,289,117392,5,0,1:0:0:0:
489,307,119535,1,0,1:0:0:0:
468,320,120249,6,0,P|420:333|378:329,1,85,6|0,1:3|0:0,0:0:0:0:
295,282,120606,2,0,P|252:280|212:292,1,85,4|0,0:3|0:0,0:0:0:0:
101,279,120964,1,0,0:0:0:0:
82,257,121053,1,0,0:0:0:0:
69,230,121142,1,2,0:0:0:0:
92,130,121321,1,8,0:0:0:0:
216,183,121499,1,4,0:3:0:0:
313,129,121678,6,0,P|329:89|330:29,1,85,6|0,0:3|0:0,0:0:0:0:
412,159,122035,2,0,P|415:203|436:248,1,85,6|0,0:3|0:0,0:0:0:0:
363,328,122392,1,0,1:0:0:0:
334,322,122481,1,0,0:0:0:0:
308,308,122571,1,0,0:0:0:0:
252,212,122749,1,10,0:0:0:0:
189,303,122928,1,4,0:3:0:0:
84,247,123106,6,0,P|36:241|-11:248,1,85,6|0,1:3|0:0,0:0:0:0:
93,344,123464,1,8,0:0:0:0:
168,211,123642,2,0,P|166:162|141:111,1,85,4|0,0:3|0:0,0:0:0:0:
65,61,123999,1,10,0:0:0:0:
220,78,124178,1,0,0:0:0:0:
249,75,124267,1,0,0:0:0:0:
277,68,124356,1,0,0:0:0:0:
368,128,124535,5,8,0:0:0:0:
299,214,124714,1,4,0:3:0:0:
447,200,124892,2,0,P|469:148|467:97,1,85,4|0,0:3|0:0,0:0:0:0:
386,48,125249,1,0,1:0:0:0:
290,104,125428,1,10,0:0:0:0:
174,54,125606,1,0,0:0:0:0:
140,54,125696,1,0,0:0:0:0:
107,62,125785,1,0,0:0:0:0:
76,77,125874,1,0,0:0:0:0:
51,99,125964,5,0,1:0:0:0:
65,332,126678,6,0,P|79:294|88:280,1,42.5,8|0,0:0|0:0,0:0:0:0:
128,238,126856,1,0,0:0:0:0:
323,334,128106,2,0,P|372:338|426:322,1,85,8|4,1:2|0:3,0:0:0:0:
433,317,128374,1,8,0:0:0:0:
459,303,128464,5,8,0:0:0:0:
482,82,128821,1,0,1:0:0:0:
210,77,129892,6,0,P|170:92|115:91,1,85,8|4,0:2|0:3,0:0:0:0:
103,110,130160,1,8,0:0:0:0:
82,131,130249,2,0,P|61:188|62:218,1,85,8|8,0:0|0:0,0:0:0:0:
180,344,130964,5,0,1:0:0:0:
382,219,131678,1,0,1:0:0:0:
180,344,133821,5,0,1:0:0:0:
180,344,134535,1,0,1:0:0:0:
