osu file format v9

[General]
AudioFilename: asdasdasd.mp3
AudioLeadIn: 0
PreviewTime: 71447
Countdown: 0
SampleSet: Normal
StackLeniency: 0.7
Mode: 0
LetterboxInBreaks: 0

[Editor]
DistanceSpacing: 0.8
BeatDivisor: 4
GridSize: 8

[Metadata]
Title:Chase the Light!
Artist:Fear,and Loathing in Las Vegas
Creator:val0108
Version:Easy
Source:Gyakkyou burui kaiji OP
Tags:Anime chocopikel mtr Backfire

[Difficulty]
HPDrainRate:2
CircleSize:3
OverallDifficulty:2
ApproachRate:2
SliderMultiplier:0.8
SliderTickRate:0.5

[Events]
//Background and Video events
0,0,"zawa BG.png"
//Break Periods
2,12453,20854
2,68582,69887
//Storyboard Layer 0 (Background)
//Storyboard Layer 1 (Fail)
//Storyboard Layer 2 (Pass)
//Storyboard Layer 3 (Foreground)
//Storyboard Sound Samples
//Background Colour Transformations
3,100,163,162,255

[TimingPoints]
1931,322.58064516129,4,1,0,70,1,0
43060,-100,4,2,0,70,0,0
45640,-100,4,1,0,70,0,0
48060,-100,4,1,2,70,0,0
48221,-100,4,1,0,70,0,0
71447,-100,4,1,0,70,0,1
92253,-100,4,1,2,70,0,0

[Colours]
Combo1 : 255,185,81
Combo2 : 49,251,49
Combo3 : 60,60,251
Combo4 : 251,43,43

[HitObjects]
256,320,7092,5,4
216,200,7737,2,0,B|256:216|296:200,2,80,0|8|0
216,72,9027,2,0,B|256:56|296:72,2,80,0|8|0
256,192,10318,12,4,12253
48,336,22414,5,4
48,240,22898,2,0,B|48:184|104:184,1,80
160,120,23705,1,4
232,56,24189,2,0,B|320:56,1,80
408,56,24995,1,4
408,152,25479,2,0,B|408:240,1,80
312,232,26285,1,4
216,232,26769,1,0
216,232,27092,1,0
136,176,27576,6,0,B|136:32|256:32,1,200,4|0
336,32,28866,2,0,B|368:128|336:248,1,200,4|0
248,232,30156,2,0,B|200:72|136:240,1,200,4|0
40,232,31447,2,0,B|8:136|40:16,1,200,4|0
136,112,32898,5,4
136,240,33543,2,2,B|160:280|136:320,2,80,0|8|0
264,240,34834,2,0,B|304:264|344:240,2,80,0|8|0
264,112,36124,2,0,B|288:72|264:32,2,80,0|8|0
432,304,38060,5,4
432,176,38705,2,0,B|432:96,2,80,0|8|0
304,176,39995,2,0,B|208:176,2,80,0|8|0
224,280,41285,1,0
224,280,41608,1,8
224,280,41930,1,0
424,72,43221,6,0,B|120:72|120:72|96:72|64:104|64:128|64:128|64:224,1,480,4|0
176,288,45801,2,0,B|240:304|272:304|344:288,3,160,4|0|4|0
392,312,48060,1,4
456,336,48382,5,4
456,208,49027,2,8,B|456:128,1,80,0|8
456,64,49672,5,4
328,64,50318,2,8,B|248:64,1,80,0|8
184,64,50963,5,4
184,192,51608,1,0
184,320,52253,2,8,B|104:320,2,80,0|8|0
312,320,53543,5,4
400,224,54189,2,0,B|456:168,2,80,0|8|4
376,96,55479,2,0,B|320:152,2,80,0|8|4
256,56,56769,2,0,B|160:56,4,80,0|8|0|8|0
256,192,58705,12,4,62576
400,192,63866,6,0,B|96:56,1,320,4|0
104,192,65801,2,0,B|56:272|112:360,1,160,0|4
208,272,67092,1,0
336,272,67737,1,0
336,272,68060,1,8
336,272,68382,1,0
72,152,71447,6,0,B|152:80|264:64,1,200,4|0
344,64,72737,2,0,B|464:64|464:200,1,200,4|0
464,288,74027,1,4
376,328,74834,6,0,B|328:312|328:312|112:360|64:168|64:168|16:144,1,440,0|4
168,80,77414,5,0
264,80,77898,2,0,B|344:80,2,80,0|0|0
264,176,79027,2,0,B|264:232,1,40,0|4
112,176,79995,1,0
112,80,80479,2,0,B|56:24,2,80,0|0|0
112,208,81769,5,4
112,304,82253,2,0,B|112:368|112:368|176:368,1,120
232,368,83060,5,4
328,368,83543,2,0,B|392:368|392:368|392:304,1,120
392,248,84350,6,0,B|360:232|504:184|472:160,1,120,4|0
472,112,85156,2,0,B|416:104|416:104|352:120,1,120,0|4
232,96,86285,1,0
168,96,86608,1,0
104,96,86930,6,0,B|64:240|184:336,1,260,4|0
224,328,88221,2,0,B|224:248,3,80,0|0|0|0
256,192,89672,12,4,92253
