osu file format v13

[General]
AudioFilename: Virtue and Vice (TV Size).mp3
AudioLeadIn: 0
PreviewTime: 40494
Countdown: 0
SampleSet: Soft
StackLeniency: 0.7
Mode: 0
LetterboxInBreaks: 0
WidescreenStoryboard: 0

[Editor]
DistanceSpacing: 0.5
BeatDivisor: 4
GridSize: 8
TimelineZoom: 1.900001

[Metadata]
Title:Virtue and Vice (TV Size)
TitleUnicode:Virtue and Vice (TV Size)
Artist:Fear, and loathing in Las Vegas
ArtistUnicode:Fear, and loathing in Las Vegas
Creator:wcx19911123
Version:Insane
Source:
Tags:
BeatmapID:446303
BeatmapSetID:182818

[Difficulty]
HPDrainRate:7
CircleSize:4
OverallDifficulty:8
ApproachRate:9
SliderMultiplier:2
SliderTickRate:1

[Events]
//Background and Video events
//Break Periods
//Storyboard Layer 0 (Background)
//Storyboard Layer 1 (Fail)
//Storyboard Layer 2 (Pass)
//Storyboard Layer 3 (Foreground)
//Storyboard Sound Samples
//Background Colour Transformations
3,100,163,162,255

[TimingPoints]
773,413.76456796083,4,2,1,70,1,0
773,-138.888888888889,4,2,1,70,0,0
7393,-113.636363636364,4,2,1,70,0,0
20633,-69.4444444444444,4,2,1,70,0,0

[HitObjects]
384,248,773,5,0,0:0:0:0:
384,248,876,2,0,L|360:192,1,36.0000008789063
384,104,1083,1,0,0:0:0:0:
384,104,1186,2,0,L|408:160,1,36.0000008789063
304,264,1393,5,0,0:0:0:0:
304,264,1496,2,0,L|280:208,1,36.0000008789063
304,120,1703,1,0,0:0:0:0:
304,120,1806,2,0,L|328:176,1,36.0000008789063
360,320,2014,2,0,P|312:344|256:328,1,108.000002636719
128,192,2428,5,0,0:0:0:0:
128,192,2531,2,0,L|120:240,1,36.0000008789063
184,320,2738,1,0,0:0:0:0:
184,320,2841,2,0,L|168:272,1,36.0000008789063
192,112,3048,5,0,0:0:0:0:
192,112,3151,2,0,L|200:160,1,36.0000008789063
240,248,3358,1,0,0:0:0:0:
240,248,3461,2,0,L|256:200,1,36.0000008789063
368,100,3669,2,0,P|308:104|273:139,1,108.000002636719
424,288,4083,5,0,0:0:0:0:
424,288,4186,2,0,L|416:248,1,36.0000008789063
344,176,4393,1,0,0:0:0:0:
344,176,4496,2,0,L|352:216,1,36.0000008789063
352,328,4703,5,0,0:0:0:0:
352,328,4806,2,0,L|344:288,1,36.0000008789063
272,216,5013,1,0,0:0:0:0:
272,216,5116,2,0,L|280:256,1,36.0000008789063
144,352,5324,2,0,P|72:344|48:312,1,108.000002636719
16,160,5738,5,0,0:0:0:0:
16,160,5841,2,0,L|72:144,1,36.0000008789063
152,192,6048,1,0,0:0:0:0:
152,192,6151,2,0,L|208:176,1,36.0000008789063
264,104,6358,5,0,0:0:0:0:
264,104,6461,2,0,L|320:88,1,36.0000008789063
400,136,6668,1,0,0:0:0:0:
400,136,6771,2,0,L|456:120,1,36.0000008789063
488,280,6979,2,0,P|456:328|392:336,1,108.000002636719
232,240,7393,6,0,P|288:232|336:248,1,88.0000026855469
144,328,7703,2,0,P|88:320|56:296,1,88.0000026855469
24,128,8013,2,0,L|32:224,1,88.0000026855469
96,96,8324,6,0,L|104:192,1,88.0000026855469
160,296,8634,1,0,0:0:0:0:
195,321,8737,1,0,0:0:0:0:
238,327,8841,1,0,0:0:0:0:
279,313,8944,1,0,0:0:0:0:
328,240,9048,6,0,P|344:288|384:320,1,88.0000026855469
408,72,9358,2,0,P|432:112|432:168,1,88.0000026855469
224,160,9668,2,0,L|328:144,1,88.0000026855469
176,88,9979,6,0,B|248:76|248:76|240:64,1,88.0000026855469
144,168,10289,1,0,0:0:0:0:
110,197,10393,1,0,0:0:0:0:
66,204,10496,1,0,0:0:0:0:
24,191,10599,1,0,0:0:0:0:
64,296,10703,6,0,P|96:312|152:312,1,88.0000026855469
240,160,11013,2,0,P|224:208|232:256,1,88.0000026855469
400,328,11323,2,0,L|304:304,1,88.0000026855469
464,264,11634,6,0,L|368:240,1,88.0000026855469
225,201,11944,1,0,0:0:0:0:
196,167,12048,1,0,0:0:0:0:
189,123,12151,1,0,0:0:0:0:
208,83,12254,1,0,0:0:0:0:
296,24,12358,6,0,P|360:32|392:56,1,88.0000026855469
320,216,12668,2,0,P|304:160|320:104,1,88.0000026855469
408,352,12979,2,0,L|288:384,1,88.0000026855469
352,288,13289,6,0,B|280:308|280:308|272:296,1,88.0000026855469
196,167,13599,1,0,0:0:0:0:
165,198,13703,1,0,0:0:0:0:
152,240,13806,1,0,0:0:0:0:
159,283,13910,1,0,0:0:0:0:
248,248,14013,6,0,B|284:228|284:228|332:228,1,88.0000026855469
408,232,14323,1,0,0:0:0:0:
372,164,14427,2,0,L|344:108,1,44.0000013427735
316,56,14634,1,0,0:0:0:0:
64,72,14840,1,0,0:0:0:0:
112,128,14944,6,0,B|136:160|136:160|128:216,1,88.0000026855469
104,336,15254,1,0,0:0:0:0:
152,320,15358,1,0,0:0:0:0:
200,304,15461,1,0,0:0:0:0:
248,288,15565,1,0,0:0:0:0:
356,224,15668,6,0,B|300:200|300:200|268:208,1,88.0000026855469
200,232,15978,1,0,0:0:0:0:
216,152,16082,2,0,L|224:100,1,44.0000013427735
236,32,16289,1,0,0:0:0:0:
440,208,16496,1,0,0:0:0:0:
400,272,16599,6,0,B|368:320|368:320|336:328,1,88.0000026855469
184,352,16909,1,0,0:0:0:0:
168,304,17013,1,0,0:0:0:0:
152,256,17116,1,0,0:0:0:0:
136,208,17220,1,0,0:0:0:0:
48,120,17323,6,0,B|64:176|64:176|56:208,1,88.0000026855469
32,280,17633,1,0,0:0:0:0:
104,312,17737,2,0,L|144:328,1,44.0000013427735
216,356,17944,1,0,0:0:0:0:
472,280,18151,1,0,0:0:0:0:
400,256,18254,6,0,B|368:240|368:240|344:184,1,88.0000026855469
304,80,18564,2,0,L|296:56,1,22.0000006713867
256,96,18668,2,0,L|248:72,1,22.0000006713867
208,112,18771,2,0,L|200:88,1,22.0000006713867
160,128,18875,2,0,L|152:104,1,22.0000006713867
112,144,18978,5,0,0:0:0:0:
132,192,19288,5,0,0:0:0:0:
144,224,19495,5,0,0:0:0:0:
151,240,19599,1,0,0:0:0:0:
164,272,19806,5,0,0:0:0:0:
184,320,20116,5,0,0:0:0:0:
184,320,20633,2,0,B|256:256|216:240|216:240|232:200,1,144.000003515625
280,48,20944,1,0,0:0:0:0:
280,48,21047,2,0,P|312:96|336:104,1,72.0000017578125
464,56,21254,2,0,P|424:32|376:32,1,72.0000017578125
184,128,21461,1,0,0:0:0:0:
184,128,21564,2,0,B|208:144|224:136|224:136|200:192|224:240,1,144.000003515625
