osu file format v12

[General]
AudioFilename: Take Me Out!!.mp3
AudioLeadIn: 1500
PreviewTime: 47022
Countdown: 0
SampleSet: Normal
StackLeniency: 0.7
Mode: 0
LetterboxInBreaks: 0
WidescreenStoryboard: 0

[Editor]
Bookmarks: 18279
DistanceSpacing: 1
BeatDivisor: 4
GridSize: 4

[Metadata]
Title:Take Me Out!!
TitleUnicode:Take Me Out!!
Artist:Fear, and Loathing in Las Vegas
ArtistUnicode:Fear, and Loathing in Las Vegas
Creator:[ Sana ]
Version:Insane
Source:
Tags:Dance & Scream jpop P_A_N electronicore
BeatmapID:298176
BeatmapSetID:115358

[Difficulty]
HPDrainRate:6
CircleSize:4
OverallDifficulty:7
ApproachRate:9
SliderMultiplier:1.9
SliderTickRate:2

[Events]
//Background and Video events
0,0,"BG.jpg",0,0
//Break Periods
2,68037,76953
//Storyboard Layer 0 (Background)
//Storyboard Layer 1 (Fail)
//Storyboard Layer 2 (Pass)
//Storyboard Layer 3 (Foreground)
//Storyboard Sound Samples
//Background Colour Transformations
3,100,163,162,255

[TimingPoints]
618,322.58064516129,4,1,1,50,1,0
12392,-100,4,3,1,50,0,0
12472,-100,4,1,1,50,0,0
12714,-100,4,3,1,50,0,0
12795,-100,4,1,1,50,0,0
13843,-100,4,1,1,30,0,0
14166,-100,4,1,1,35,0,0
14327,-100,4,1,1,40,0,0
14488,-100,4,1,1,45,0,0
14650,-100,4,1,1,50,0,0
14811,-100,4,1,1,55,0,0
15940,-100,4,1,1,50,0,0
45779,-100,4,3,1,30,0,0
47069,-100,4,1,1,55,0,1
57311,-100,4,1,1,50,0,0
57392,-100,4,1,1,50,0,1
66585,-100,4,1,1,40,0,1
67069,-100,4,1,1,30,0,1
67714,-100,4,1,1,50,0,0
78037,-100,4,1,1,50,0,1
78117,-100,4,1,1,50,0,0
88198,-133.333333333333,4,1,1,40,0,0
90779,-100,4,1,1,50,0,0
93359,-133.333333333333,4,1,1,50,0,0
95940,-100,4,1,1,50,0,0
103843,-100,4,1,1,50,0,1
111424,-100,4,1,1,50,0,0
111585,-100,4,1,1,50,0,1
121747,-100,4,1,1,50,0,0

[Colours]
Combo1 : 255,68,162
Combo2 : 23,139,255
Combo3 : 176,96,96

[HitObjects]
209,158,618,2,0,P|255:147|309:163,2,95,4|0|0,0:0|0:0|0:0,0:0:0:0:
346,239,1101,2,0,P|378:204|391:159,1,95,8|0,0:0|0:0,0:0:0:0:
255,241,1424,2,0,L|283:340,1,95,8|0,0:0|0:0,0:0:0:0:
171,237,1747,2,0,L|120:326,1,95,8|0,0:0|0:0,0:0:0:0:
123,173,2069,2,0,L|24:200,1,95,8|0,0:0|0:0,0:0:0:0:
13,56,2392,2,0,P|106:71|201:97,1,190,8|0,0:0|0:0,0:0:0:0:
296,135,2876,1,4,0:0:0:0:
296,135,3198,5,0,0:0:0:0:
388,131,3359,1,0,0:0:0:0:
340,54,3521,1,0,0:0:0:0:
354,209,3682,2,0,P|406:213|459:179,1,95,8|0,0:0|0:0,0:0:0:0:
296,135,4005,2,0,P|266:178|269:240,1,95,8|0,0:0|0:0,0:0:0:0:
288,382,4327,2,0,P|317:338|314:276,1,95,8|0,0:0|0:0,0:0:0:0:
223,309,4650,1,8,0:0:0:0:
114,232,4811,1,0,0:0:0:0:
28,333,4972,5,0,0:0:0:0:
200,215,5134,1,2,0:0:0:0:
195,196,5214,1,2,0:0:0:0:
184,180,5295,1,2,0:0:0:0:
171,166,5376,1,2,0:0:0:0:
154,156,5456,2,0,P|120:127|104:75,1,95,4|0,0:0|0:0,0:0:0:0:
266,41,5779,6,0,P|314:50|354:77,1,95,0|0,0:0|0:0,0:0:0:0:
392,160,6101,1,0,0:0:0:0:
326,229,6263,2,0,P|300:186|299:133,1,95,8|0,0:0|0:0,0:0:0:0:
419,254,6585,2,0,P|394:298|349:325,1,95,8|0,0:0|0:0,0:0:0:0:
266,300,6908,6,0,P|225:269|163:265,1,95,8|0,0:0|0:0,0:0:0:0:
101,312,7230,1,0,0:0:0:0:
207,178,7392,1,0,0:0:0:0:
195,348,7553,1,8,0:0:0:0:
114,208,7714,2,0,L|54:106,1,95
109,15,8037,2,0,L|169:117,1,95,6|0,0:0|0:0,0:0:0:0:
207,178,8359,5,0,0:0:0:0:
334,112,8521,1,0,0:0:0:0:
327,254,8682,1,0,0:0:0:0:
233,267,8843,2,0,P|185:269|143:248,1,95,8|0,0:0|0:0,0:0:0:0:
79,318,9166,2,0,P|52:272|53:220,1,95,8|0,0:0|0:0,0:0:0:0:
88,75,9488,2,0,P|113:115|117:162,1,95,8|0,0:0|0:0,0:0:0:0:
23,146,9811,1,8,0:0:0:0:
193,88,9972,1,0,0:0:0:0:
73,213,10134,1,0,0:0:0:0:
244,156,10295,5,0,0:0:0:0:
258,143,10376,1,0,0:0:0:0:
268,127,10456,1,0,0:0:0:0:
275,109,10537,1,0,0:0:0:0:
278,90,10617,2,0,P|301:51|348:27,1,95,4|0,0:0|0:0,0:0:0:0:
459,149,10940,5,0,0:0:0:0:
370,115,11101,1,0,0:0:0:0:
472,242,11263,5,0,0:0:0:0:
444,55,11424,1,0,0:0:0:0:
400,308,11585,5,0,0:0:0:0:
298,179,11747,1,8,0:0:0:0:
492,334,11908,5,0,0:0:0:0:
385,214,12069,1,0,0:0:0:0:
314,277,12230,5,8,0:0:0:0:
217,339,12392,1,8,0:0:0:0:
200,304,12472,1,2,0:0:0:0:
182,269,12553,1,2,0:0:0:0:
74,312,12714,1,4,0:0:0:0:
87,276,12795,1,2,0:0:0:0:
99,238,12876,1,2,0:0:0:0:
0,185,13037,1,2,0:0:0:0:
35,169,13117,1,2,0:0:0:0:
70,150,13198,2,2,L|165:108,1,95
324,68,13521,6,0,L|238:30,1,95,4|0,0:0|0:0,0:0:0:0:
326,156,13843,2,8,L|413:195,1,95
474,122,14166,5,8,0:0:0:0:
344,258,14327,1,8,0:0:0:0:
284,78,14488,1,8,0:0:0:0:
380,80,14650,5,0,0:0:0:0:
326,157,14811,2,0,P|280:170|236:155,1,95
211,124,15053,1,8,0:0:0:0:
193,90,15134,1,8,0:0:0:0:
160,71,15214,1,8,0:0:0:0:
121,68,15295,1,8,0:0:0:0:
84,80,15376,1,8,0:0:0:0:
62,110,15456,1,12,0:0:0:0:
62,110,15940,6,0,B|96:168|96:168|46:217|81:292,1,190,4|0,0:0|0:0,0:0:0:0:
98,312,16343,1,0,0:0:0:0:
132,327,16424,2,0,P|177:338|228:331,1,95,8|0,0:0|0:0,0:0:0:0:
318,187,16747,2,0,P|273:176|222:183,1,95
151,233,17069,1,8,0:0:0:0:
193,97,17230,1,0,0:0:0:0:
336,96,17392,6,0,P|385:118|415:170,1,95
428,182,17634,1,0,0:0:0:0:
430,220,17714,1,8,0:0:0:0:
414,333,17876,2,0,P|365:311|335:259,1,95
261,330,18198,2,0,P|241:287|246:240,1,95,0|8,0:0|0:0,0:0:0:0:
151,233,18521,6,0,B|170:168|230:153|230:153|196:64,1,190,4|0,0:0|0:0,0:0:0:0:
116,27,19005,2,0,P|72:29|15:75,1,95,8|0,0:0|0:0,0:0:0:0:
98,120,19327,2,0,P|91:161|57:208,1,95
49,219,19569,1,0,0:0:0:0:
36,233,19650,2,0,P|8:271|0:317,1,95,8|0,0:0|0:0,0:0:0:0:
90,359,19972,5,0,0:0:0:0:
205,276,20134,1,0,0:0:0:0:
319,360,20295,1,8,0:0:0:0:
120,274,20456,2,0,P|133:232|181:198,1,95
293,278,20779,1,0,0:0:0:0:
322,253,20859,1,0,0:0:0:0:
340,220,20940,2,0,L|367:106,1,95,8|4,0:0|0:0,0:0:0:0:
333,36,21263,5,0,0:0:0:0:
454,111,21424,2,0,L|432:203,1,95,0|8,0:0|0:0,0:0:0:0:
408,295,21747,1,0,0:0:0:0:
256,215,21908,1,0,0:0:0:0:
104,295,22069,1,0,0:0:0:0:
104,295,22150,1,0,0:0:0:0:
104,295,22230,1,8,0:0:0:0:
256,347,22392,5,0,0:0:0:0:
353,219,22553,2,0,P|334:163|298:132,1,95
191,36,22876,2,0,P|203:82|235:117,1,95,8|0,0:0|0:0,0:0:0:0:
284,40,23198,1,0,0:0:0:0:
124,125,23359,1,0,0:0:0:0:
91,145,23440,1,0,0:0:0:0:
59,165,23521,1,8,0:0:0:0:
104,295,23682,6,0,B|175:337|219:269|288:308,1,190,4|0,0:0|0:0,0:0:0:0:
317,323,24085,1,0,0:0:0:0:
344,340,24166,1,8,0:0:0:0:
376,347,24247,1,0,0:0:0:0:
409,347,24327,1,0,0:0:0:0:
441,338,24408,1,0,0:0:0:0:
468,319,24488,6,0,L|481:264,3,47.5,0|0|0|0,0:0|0:0|0:0|0:0,3:3:0:0:
405,226,24811,2,4,L|392:171,3,47.5,4|4|4|4,3:0|3:0|3:0|3:0,0:0:0:0:
468,133,25134,6,0,P|445:78|387:41,1,95,8|0,0:0|0:0,0:0:0:0:
383,41,25376,1,0,0:0:0:0:
344,41,25456,1,0,0:0:0:0:
310,57,25537,1,0,0:0:0:0:
280,81,25618,1,0,0:0:0:0:
265,116,25698,1,0,0:0:0:0:
245,148,25779,1,0,0:0:0:0:
218,175,25859,1,0,0:0:0:0:
184,192,25940,1,0,0:0:0:0:
146,196,26021,1,0,0:0:0:0:
108,189,26101,1,8,0:0:0:0:
51,266,26263,6,0,P|147:291|233:272,1,190,4|0,0:0|0:0,0:0:0:0:
254,260,26666,1,0,0:0:0:0:
274,247,26747,1,0,0:0:0:0:
367,313,26908,1,0,0:0:0:0:
463,253,27069,2,0,P|486:211|486:149,1,95
362,62,27392,2,0,P|339:104|339:166,1,95,8|0,0:0|0:0,0:0:0:0:
429,133,27714,5,0,0:0:0:0:
261,42,27876,1,0,0:0:0:0:
261,42,27956,1,0,0:0:0:0:
261,42,28037,1,8,0:0:0:0:
429,133,28198,1,0,0:0:0:0:
254,156,28359,2,0,B|179:153|156:98|156:98|85:113,1,190,0|8,0:0|0:0,0:0:0:0:
25,243,28843,2,0,L|147:216,1,95,4|0,0:0|0:0,0:0:0:0:
228,250,29166,5,0,0:0:0:0:
215,285,29247,1,0,0:0:0:0:
201,320,29327,2,0,P|250:334|306:323,1,95,8|0,0:0|0:0,0:0:0:0:
464,322,29650,2,0,P|455:267|429:236,1,95
320,195,29972,1,8,0:0:0:0:
374,307,30134,1,0,0:0:0:0:
495,168,30295,1,0,0:0:0:0:
437,60,30456,1,0,0:0:0:0:
437,60,30537,1,0,0:0:0:0:
437,60,30618,2,0,P|389:58|343:77,1,95,8|0,0:0|0:0,0:0:0:0:
320,195,30940,5,0,0:0:0:0:
250,55,31101,1,0,0:0:0:0:
408,152,31263,1,8,0:0:0:0:
236,151,31424,2,0,B|180:139|156:91|156:91|71:107,1,190,4|0,0:0|0:0,0:0:0:0:
0,171,31908,2,0,P|45:202|66:249,1,95,8|0,0:0|0:0,0:0:0:0:
83,329,32230,1,0,0:0:0:0:
159,272,32392,1,0,0:0:0:0:
235,328,32553,1,8,0:0:0:0:
152,182,32714,6,0,P|144:134|181:74,1,95
290,41,33037,1,0,0:0:0:0:
308,213,33198,1,8,0:0:0:0:
290,41,33359,1,0,0:0:0:0:
236,151,33521,1,0,0:0:0:0:
398,83,33682,1,0,0:0:0:0:
398,83,33763,1,0,0:0:0:0:
398,83,33843,1,8,0:0:0:0:
401,180,34005,6,0,P|398:235|277:310,1,190,4|0,0:0|0:0,0:0:0:0:
152,212,34488,2,8,P|196:243|210:299,1,95,8|0,0:0|0:0,0:0:0:0:
116,298,34811,5,0,0:0:0:0:
83,278,34892,1,0,0:0:0:0:
61,246,34972,1,0,0:0:0:0:
49,210,35053,1,0,0:0:0:0:
44,172,35134,1,0,0:0:0:0:
44,133,35214,1,0,0:0:0:0:
53,96,35295,1,0,0:0:0:0:
70,62,35376,1,0,0:0:0:0:
102,42,35456,6,0,L|166:25,1,47.5,8|8,0:0|0:0,0:0:0:0:
160,155,35617,2,0,L|113:108,1,47.5,8|0,0:0|0:0,0:0:0:0:
227,43,35779,2,0,L|209:106,1,47.5,2|0,0:0|0:0,0:0:0:0:
251,164,35940,6,0,L|298:168,1,47.5,8|0,0:0|0:0,0:0:0:0:
382,97,36101,2,0,L|334:92,1,47.5,8|0,0:0|0:0,0:0:0:0:
372,225,36263,2,0,L|384:169,1,47.5,2|0,0:0|0:0,0:0:0:0:
474,129,36424,2,0,L|462:185,1,47.5,8|0,0:0|0:0,0:0:0:0:
451,256,36585,6,0,P|404:335|313:345,1,190,4|2,0:0|0:0,0:0:0:0:
275,257,37069,2,0,P|228:249|174:261,1,95,2|0,0:0|0:0,0:0:0:0:
57,334,37392,5,4,0:0:0:0:
227,336,37553,1,0,0:0:0:0:
107,213,37714,1,8,0:0:0:0:
107,213,38037,5,4,0:0:0:0:
45,53,38198,1,0,0:0:0:0:
203,117,38359,1,8,0:0:0:0:
203,117,38682,5,4,0:0:0:0:
284,267,38843,1,0,0:0:0:0:
323,99,39005,1,8,0:0:0:0:
211,210,39166,6,0,B|283:146|323:218|394:150,1,190,4|0,0:0|0:0,0:0:0:0:
407,63,39650,1,8,0:0:0:0:
407,63,39811,1,0,0:0:0:0:
256,26,39972,1,8,0:0:0:0:
256,26,40134,1,0,0:0:0:0:
103,63,40295,1,8,0:0:0:0:
103,63,40456,1,0,0:0:0:0:
198,205,40617,6,0,P|199:146|174:103,1,95
103,63,40940,1,8,0:0:0:0:
113,175,41101,2,0,L|313:130,1,190
392,118,41585,1,8,0:0:0:0:
288,256,41747,1,4,0:0:0:0:
288,256,42069,5,2,0:0:0:0:
456,225,42230,1,2,0:0:0:0:
456,225,42553,6,0,P|439:299|326:357,1,190,8|0,0:0|0:0,0:0:0:0:
56,225,43198,2,0,P|73:299|186:357,1,190,8|0,0:0|0:0,0:0:0:0:
256,329,43843,5,8,0:0:0:0:
332,155,44005,1,8,0:0:0:0:
255,226,44166,1,8,0:0:0:0:
178,52,44327,1,4,0:0:0:0:
151,159,44488,5,0,0:0:0:0:
302,42,44650,1,0,0:0:0:0:
302,42,44730,1,0,0:0:0:0:
302,42,44811,2,8,P|362:45|426:81,1,95,8|8,0:0|0:0,0:0:0:0:
462,261,45134,2,0,P|414:260|369:245,1,95
332,155,45456,1,8,0:0:0:0:
286,289,45617,5,8,0:0:0:0:
142,295,45779,1,8,3:0:0:0:
123,296,45859,1,8,3:0:0:0:
103,296,45940,1,8,3:0:0:0:
84,293,46021,1,8,3:0:0:0:
66,284,46101,1,8,3:0:0:0:
49,273,46182,1,8,3:0:0:0:
36,258,46263,1,8,3:0:0:0:
25,242,46343,1,8,3:0:0:0:
22,223,46424,1,8,3:0:0:0:
22,223,47069,6,0,P|31:171|14:113,1,95,4|0,0:0|0:0,0:0:0:0:
152,25,47392,2,0,P|143:77|160:135,1,95,8|0,0:0|0:0,0:0:0:0:
232,189,47714,1,0,0:0:0:0:
247,95,47876,1,0,0:0:0:0:
130,219,48037,1,8,0:0:0:0:
215,282,48198,5,0,0:0:0:0:
246,300,48279,1,0,0:0:0:0:
281,317,48359,2,0,P|328:289|346:249,1,95
344,159,48682,1,8,0:0:0:0:
419,314,48843,2,0,P|445:266|441:222,1,95
370,73,49166,2,0,P|344:113|345:160,1,95,0|8,0:0|0:0,0:0:0:0:
437,137,49488,1,0,0:0:0:0:
437,137,49569,1,0,0:0:0:0:
437,137,49650,1,0,0:0:0:0:
272,40,49811,5,0,0:0:0:0:
213,114,49972,2,0,L|107:78,1,95,8|0,0:0|0:0,0:0:0:0:
30,61,50295,1,0,0:0:0:0:
132,198,50456,1,0,0:0:0:0:
40,170,50617,1,8,0:0:0:0:
137,300,50779,5,0,0:0:0:0:
137,300,50859,1,0,0:0:0:0:
137,300,50940,2,0,P|197:313|249:290,1,95
288,230,51263,1,8,0:0:0:0:
436,301,51424,2,0,P|391:314|345:305,1,95
211,190,51747,2,0,P|290:145|366:193,1,190
288,230,52230,1,4,0:0:0:0:
192,95,52392,1,0,0:0:0:0:
123,161,52553,6,0,P|97:118|112:55,1,95,8|0,0:0|0:0,0:0:0:0:
211,190,52876,2,0,P|186:234|124:252,1,95
193,95,53198,2,0,P|243:93|290:138,1,95,8|0,0:0|0:0,0:0:0:0:
288,230,53521,5,0,0:0:0:0:
439,344,53682,1,8,0:0:0:0:
377,165,53843,1,0,0:0:0:0:
386,269,54005,1,0,0:0:0:0:
293,317,54166,2,0,P|254:329|183:309,1,95
159,167,54488,1,8,0:0:0:0:
245,237,54650,5,0,0:0:0:0:
245,237,54730,1,0,0:0:0:0:
245,237,54811,1,0,0:0:0:0:
86,97,54972,1,0,0:0:0:0:
146,264,55134,1,8,0:0:0:0:
248,144,55295,2,0,P|226:95|175:66,1,95
332,192,55617,2,0,P|361:154|368:108,1,95,0|8,0:0|0:0,0:0:0:0:
303,39,55940,2,0,P|382:109|476:87,1,190
401,24,56424,5,8,0:0:0:0:
333,192,56585,1,0,0:0:0:0:
437,233,56747,1,0,0:0:0:0:
372,105,56908,1,0,0:0:0:0:
231,91,57069,1,8,0:0:0:0:
231,91,57150,1,0,0:0:0:0:
231,91,57230,1,0,0:0:0:0:
231,91,57311,1,0,0:0:0:0:
231,91,57392,6,0,P|197:55|132:41,1,95,4|0,0:0|0:0,0:0:0:0:
135,251,57714,2,0,P|148:205|136:160,1,95,8|0,0:0|0:0,0:0:0:0:
54,204,58037,1,0,0:0:0:0:
229,248,58198,1,0,0:0:0:0:
50,297,58359,1,8,0:0:0:0:
222,345,58521,5,0,0:0:0:0:
257,332,58601,1,0,0:0:0:0:
293,319,58682,2,0,L|402:343,1,95
481,360,59005,1,8,0:0:0:0:
320,220,59166,2,0,L|217:253,1,95
136,271,59488,1,0,0:0:0:0:
65,123,59650,1,8,0:0:0:0:
229,144,59811,1,0,0:0:0:0:
229,144,59892,1,0,0:0:0:0:
229,144,59972,1,0,0:0:0:0:
144,176,60134,5,8,0:0:0:0:
214,237,60295,2,0,P|268:229|303:195,1,95,8|0,0:0|0:0,0:0:0:0:
243,56,60617,2,0,P|222:106|234:154,1,95
408,179,60940,1,8,0:0:0:0:
354,47,61101,5,0,0:0:0:0:
354,47,61182,1,0,0:0:0:0:
354,47,61263,1,0,0:0:0:0:
313,134,61424,1,0,0:0:0:0:
491,142,61585,1,8,0:0:0:0:
331,224,61747,2,0,P|306:254|301:330,1,95
384,297,62069,2,0,L|183:214,1,190
122,183,62553,5,4,0:0:0:0:
11,281,62714,1,0,0:0:0:0:
78,109,62876,2,0,P|122:96|174:111,1,95,8|0,0:0|0:0,0:0:0:0:
169,260,63198,2,0,P|135:228|122:175,1,95
221,337,63521,2,0,P|177:350|125:335,1,95,8|0,0:0|0:0,0:0:0:0:
213,166,63843,5,0,0:0:0:0:
317,326,64005,1,0,0:0:0:0:
169,259,64166,1,8,0:0:0:0:
355,233,64327,1,0,0:0:0:0:
355,233,64408,1,0,0:0:0:0:
355,233,64488,1,0,0:0:0:0:
232,215,64650,1,0,0:0:0:0:
271,97,64811,2,0,P|318:80|374:99,1,95,8|0,0:0|0:0,0:0:0:0:
319,172,65134,5,0,0:0:0:0:
181,68,65295,1,0,0:0:0:0:
213,165,65456,1,8,0:0:0:0:
84,57,65618,2,0,P|52:95|41:156,1,95
169,247,65940,2,0,P|200:211|213:165,1,95,0|8,0:0|0:0,0:0:0:0:
80,226,66263,2,0,P|86:283|204:329,1,190,0|8,0:0|0:0,0:0:0:0:
233,322,66666,5,8,0:0:0:0:
268,306,66747,1,8,0:0:0:0:
292,276,66827,1,8,0:0:0:0:
306,241,66908,1,8,0:0:0:0:
310,204,66988,1,8,0:0:0:0:
304,164,67069,5,8,3:0:0:0:
345,177,67150,1,8,0:0:0:0:
387,181,67230,1,8,0:0:0:0:
426,178,67311,1,8,0:0:0:0:
467,167,67392,2,8,P|479:117|459:63,1,95,8|8,0:0|0:0,3:0:0:0:
426,52,67634,6,0,L|368:28,1,47.5,0|4,0:0|0:0,0:0:0:0:
256,103,77553,5,2,0:0:0:0:
256,103,77714,1,0,0:0:0:0:
256,103,77876,1,0,0:0:0:0:
301,204,78037,6,0,P|246:214|192:195,1,95,4|0,0:0|0:0,0:0:0:0:
156,127,78359,1,8,0:0:0:0:
356,127,78521,2,0,P|385:158|392:234,1,95
393,356,78843,2,0,P|364:325|357:249,1,95,0|8,0:0|0:0,0:0:0:0:
447,281,79166,1,0,0:0:0:0:
288,344,79327,1,0,0:0:0:0:
154,240,79488,1,0,0:0:0:0:
243,259,79650,5,8,0:0:0:0:
180,330,79811,1,0,0:0:0:0:
87,308,79972,2,0,P|63:267|66:220,1,95
215,168,80295,1,8,0:0:0:0:
123,147,80456,5,0,0:0:0:0:
85,138,80537,1,0,0:0:0:0:
47,129,80618,2,0,L|99:44,1,95,4|0,0:0|0:0,0:0:0:0:
267,86,80940,1,8,0:0:0:0:
215,168,81101,2,0,P|215:219|254:265,1,95
269,344,81424,2,0,P|313:318|333:261,1,95,0|8,0:0|0:0,0:0:0:0:
306,188,81747,1,0,0:0:0:0:
416,243,81908,1,0,0:0:0:0:
410,119,82069,1,0,0:0:0:0:
332,281,82230,5,8,0:0:0:0:
477,189,82392,1,0,0:0:0:0:
328,106,82553,2,0,P|287:97|223:109,1,95
150,146,82876,1,8,0:0:0:0:
104,259,83037,5,0,0:0:0:0:
120,287,83118,1,0,0:0:0:0:
137,315,83198,2,0,P|178:324|242:312,2,95,4|0|8,0:0|0:0|0:0,0:0:0:0:
48,349,83682,2,0,L|10:261,1,95
48,57,84005,2,0,L|10:144,1,95,0|8,0:0|0:0,0:0:0:0:
84,203,84327,2,0,B|165:170|192:233|269:200,1,190
366,203,84811,1,8,0:0:0:0:
231,129,84972,5,0,0:0:0:0:
259,287,85134,1,0,0:0:0:0:
424,278,85295,1,0,0:0:0:0:
447,247,85376,1,0,0:0:0:0:
454,209,85456,1,8,0:0:0:0:
447,171,85537,1,0,0:0:0:0:
427,137,85618,2,0,P|412:88|439:26,1,95
422,46,85859,1,0,0:0:0:0:
422,46,85940,1,0,0:0:0:0:
507,89,86101,5,0,0:0:0:0:
366,202,86263,2,0,P|339:241|327:287,1,95
137,140,86585,2,0,P|173:170|196:211,1,95,0|8,0:0|0:0,0:0:0:0:
407,39,86908,2,0,P|364:59|331:93,1,95
256,168,87230,5,8,0:0:0:0:
341,315,87392,1,8,0:0:0:0:
170,314,87553,1,8,0:0:0:0:
170,314,87634,1,0,0:0:0:0:
170,314,87714,2,0,P|120:283|92:230,1,95,8|0,0:0|0:0,0:0:0:0:
88,217,87956,1,0,0:0:0:0:
78,180,88037,1,0,0:0:0:0:
78,142,88118,1,0,0:0:0:0:
84,104,88198,6,0,P|153:87|237:113,1,142.500005435944,4|2,0:0|0:0,0:0:0:0:
288,156,88682,2,0,L|371:154,1,71.2500027179719,2|0,0:0|0:0,0:0:0:0:
411,86,89005,5,12,0:0:0:0:
456,158,89327,1,8,0:0:0:0:
405,227,89650,1,4,0:0:0:0:
457,293,89972,1,0,0:0:0:0:
446,311,90053,1,0,0:0:0:0:
435,329,90134,1,0,0:0:0:0:
424,347,90214,1,0,0:0:0:0:
413,365,90295,2,0,P|363:386|274:364,1,142.500005435944,8|8,0:0|0:0,0:0:0:0:
219,286,90779,6,0,P|176:274|112:291,1,95,4|0,0:0|0:0,0:0:0:0:
60,351,91101,1,0,0:0:0:0:
39,319,91182,1,0,0:0:0:0:
28,282,91263,2,0,P|20:234|39:180,1,95,8|0,0:0|0:0,0:0:0:0:
153,81,91585,2,0,P|160:128|141:182,1,95,0|0,0:0|0:0,0:0:0:0:
59,109,91908,1,8,0:0:0:0:
252,55,92069,5,0,0:0:0:0:
242,91,92150,1,0,0:0:0:0:
232,127,92230,1,0,0:0:0:0:
205,242,92392,2,0,P|266:259|321:237,1,95,0|8,0:0|0:0,0:0:0:0:
366,188,92714,1,0,0:0:0:0:
381,351,92876,2,0,P|428:325|447:271,1,95
458,253,93118,1,0,0:0:0:0:
467,215,93198,1,0,0:0:0:0:
468,176,93279,1,0,0:0:0:0:
458,134,93359,6,0,P|407:119|360:28,1,142.500005435944,4|2,0:0|0:0,0:0:0:0:
283,79,93843,2,0,L|203:120,1,71.2500027179719,2|0,0:0|0:0,0:0:0:0:
145,154,94166,5,4,0:0:0:0:
57,277,94488,1,0,0:0:0:0:
48,135,94811,1,4,0:0:0:0:
150,249,95134,1,2,0:0:0:0:
163,265,95214,1,0,0:0:0:0:
176,281,95295,1,0,0:0:0:0:
189,298,95376,1,0,0:0:0:0:
203,313,95456,2,0,P|259:334|349:313,1,142.500005435944,8|8,0:0|0:0,0:0:0:0:
435,343,95940,6,0,P|431:295|405:253,1,95,4|0,0:0|0:0,0:0:0:0:
279,229,96263,1,0,0:0:0:0:
279,229,96343,1,0,0:0:0:0:
279,229,96424,2,8,P|282:181|308:139,1,95,8|0,0:0|0:0,0:0:0:0:
394,104,96747,5,0,0:0:0:0:
223,116,96908,1,0,0:0:0:0:
366,208,97069,1,8,0:0:0:0:
302,49,97230,1,0,0:0:0:0:
268,30,97311,1,0,0:0:0:0:
230,23,97392,2,8,P|188:28|139:67,1,95
39,189,97714,2,8,P|85:182|123:154,1,95
65,78,98037,5,0,0:0:0:0:
39,189,98198,1,0,0:0:0:0:
93,288,98359,1,8,0:0:0:0:
199,327,98521,6,0,B|244:340|244:340|288:326|288:326|333:347|389:326,1,190,4|0,0:0|0:0,0:0:0:0:
382,328,98924,1,0,0:0:0:0:
382,328,99005,1,0,0:0:0:0:
449,185,99166,5,8,0:0:0:0:
422,158,99247,1,0,0:0:0:0:
394,131,99327,1,0,0:0:0:0:
366,104,99408,1,0,0:0:0:0:
339,77,99488,2,0,L|302:44,1,47.5
174,42,99650,2,0,L|210:74,1,47.5
275,131,99811,6,0,P|246:175|188:191,1,95
172,201,100053,1,0,0:0:0:0:
134,204,100134,1,0,0:0:0:0:
97,194,100214,1,0,0:0:0:0:
68,169,100295,2,0,L|55:117,1,47.5
23,248,100456,2,0,L|35:299,1,47.5
57,377,100618,1,12,0:0:0:0:
57,377,101263,5,4,0:0:0:0:
126,312,101585,1,8,0:0:0:0:
216,283,101908,1,0,0:0:0:0:
309,300,102230,1,8,0:0:0:0:
385,356,102553,5,0,0:0:0:0:
408,351,102634,1,0,0:0:0:0:
430,342,102714,1,0,0:0:0:0:
447,325,102795,1,0,0:0:0:0:
462,307,102876,1,0,0:0:0:0:
473,286,102956,1,0,0:0:0:0:
481,263,103037,1,0,0:0:0:0:
484,239,103118,1,0,0:0:0:0:
484,215,103198,5,0,0:0:0:0:
446,223,103279,1,0,0:0:0:0:
407,222,103359,1,0,0:0:0:0:
370,210,103440,1,0,0:0:0:0:
335,194,103521,1,0,0:0:0:0:
307,167,103601,1,0,0:0:0:0:
286,132,103682,1,0,0:0:0:0:
277,91,103763,1,0,0:0:0:0:
271,53,103843,6,0,P|248:98|179:128,1,95,4|0,0:0|0:0,0:0:0:0:
173,46,104166,1,8,0:0:0:0:
359,80,104327,1,0,0:0:0:0:
225,214,104488,2,0,P|178:213|139:187,1,95,8|0,0:0|0:0,0:0:0:0:
31,240,104811,2,0,P|28:286|52:327,1,95,8|0,0:0|0:0,0:0:0:0:
262,347,105134,5,0,0:0:0:0:
114,264,105295,1,8,0:0:0:0:
165,349,105456,1,8,0:0:0:0:
298,246,105618,2,0,P|361:248|406:287,1,95,0|8,0:0|0:0,0:0:0:0:
474,358,105940,2,0,B|509:293|441:231|476:168,1,190
493,139,106343,1,0,0:0:0:0:
498,101,106424,2,0,P|470:65|400:46,1,95,12|0,0:0|0:0,0:0:0:0:
339,180,106747,6,0,L|418:128,1,95,8|0,0:0|0:0,0:0:0:0:
236,185,107069,2,0,L|278:100,1,95,8|0,0:0|0:0,0:0:0:0:
150,239,107392,2,0,L|144:144,1,95,8|0,0:0|0:0,0:0:0:0:
142,106,107634,1,0,0:0:0:0:
139,68,107714,1,8,0:0:0:0:
52,142,107876,1,0,0:0:0:0:
236,185,108037,1,8,0:0:0:0:
73,284,108198,5,0,0:0:0:0:
73,284,108279,1,0,0:0:0:0:
72,283,108359,2,0,P|107:317|153:328,1,95,8|0,0:0|0:0,0:0:0:0:
361,315,108682,2,0,P|327:282|281:271,1,95,8|0,0:0|0:0,0:0:0:0:
277,364,109005,5,12,0:0:0:0:
340,193,109166,1,0,0:0:0:0:
197,284,109327,1,8,0:0:0:0:
420,277,109488,2,0,L|477:192,1,95,0|8,0:0|0:0,0:0:0:0:
365,34,109811,2,0,L|409:125,1,95,0|8,0:0|0:0,0:0:0:0:
340,193,110134,2,0,L|238:185,1,95,0|8,0:0|0:0,3:0:0:0:
151,178,110456,5,0,0:0:0:0:
131,178,110537,1,0,0:0:0:0:
112,175,110617,1,0,0:0:0:0:
94,166,110698,1,0,0:0:0:0:
79,153,110779,1,0,0:0:0:0:
69,136,110859,1,0,0:0:0:0:
63,117,110940,5,8,0:0:0:0:
31,146,111021,1,0,0:0:0:0:
15,185,111101,1,0,0:0:0:0:
14,227,111182,1,0,0:0:0:0:
30,265,111263,2,0,P|59:300|107:320,1,95
248,217,111585,6,0,P|209:238|181:282,1,95,4|0,0:0|0:0,0:0:0:0:
341,242,111908,2,0,P|341:197|317:151,1,95,8|0,0:0|0:0,0:0:0:0:
273,306,112230,2,0,P|310:328|362:330,1,95
472,241,112553,1,8,0:0:0:0:
383,129,112714,5,0,0:0:0:0:
397,93,112795,1,0,0:0:0:0:
409,56,112876,2,0,P|362:42|307:60,1,95
279,139,113198,1,8,0:0:0:0:
451,220,113359,2,0,L|488:115,1,95
341,245,113682,2,0,L|403:318,1,95,0|8,0:0|0:0,0:0:0:0:
261,299,114005,1,0,0:0:0:0:
225,286,114085,1,0,0:0:0:0:
188,274,114166,2,0,P|136:286|98:333,1,95,4|0,0:0|0:0,0:0:0:0:
187,364,114488,5,8,0:0:0:0:
257,207,114650,1,0,0:0:0:0:
107,125,114811,1,0,0:0:0:0:
152,208,114972,1,0,0:0:0:0:
200,125,115134,2,0,P|189:76|146:41,1,95,8|0,0:0|0:0,0:0:0:0:
107,125,115456,5,0,0:0:0:0:
257,207,115617,1,0,0:0:0:0:
152,208,115779,1,8,0:0:0:0:
296,117,115940,2,0,P|346:127|385:170,1,95
448,299,116263,2,0,B|417:219|485:184|449:112,1,190
428,82,116666,1,0,0:0:0:0:
392,67,116747,2,0,L|281:37,1,95,4|0,0:0|0:0,0:0:0:0:
193,55,117069,5,8,0:0:0:0:
111,105,117230,1,0,0:0:0:0:
205,240,117392,1,0,0:0:0:0:
192,145,117553,1,0,0:0:0:0:
34,162,117714,1,8,0:0:0:0:
117,207,117876,1,0,0:0:0:0:
199,337,118037,6,0,L|310:292,1,95
290,206,118359,1,8,0:0:0:0:
364,373,118521,2,0,L|410:262,1,95
383,192,118843,1,0,0:0:0:0:
290,206,119005,1,8,0:0:0:0:
481,175,119166,5,0,0:0:0:0:
481,175,119247,1,0,0:0:0:0:
482,176,119327,2,0,P|502:130|494:83,1,95
419,28,119650,1,8,0:0:0:0:
333,68,119811,2,0,P|366:105|412:118,1,95
179,68,120134,2,0,P|145:105|99:118,1,95,0|8,0:0|0:0,0:0:0:0:
256,35,120456,5,0,0:0:0:0:
256,63,120537,1,0,0:0:0:0:
255,91,120617,1,0,0:0:0:0:
255,119,120698,1,0,0:0:0:0:
255,147,120779,1,0,0:0:0:0:
255,175,120859,1,0,0:0:0:0:
255,203,120940,2,0,L|255:307,1,95
339,314,121263,5,8,0:0:0:0:
166,262,121424,1,0,0:0:0:0:
342,227,121585,1,8,0:0:0:0:
171,177,121747,6,0,B|113:177|86:226|86:226|37:220|8:181,1,190,12|0,0:0|0:0,0:0:0:0:
71,116,122230,2,0,P|107:95|185:86,1,95,8|0,0:0|0:0,0:0:0:0:
256,119,122553,1,0,0:0:0:0:
256,27,122714,1,0,0:0:0:0:
171,176,122876,1,8,0:0:0:0:
340,187,123037,6,0,P|360:151|348:71,1,95
256,119,123359,1,0,0:0:0:0:
252,214,123521,2,0,P|273:249|348:278,1,95,8|0,0:0|0:0,0:0:0:0:
412,253,123843,5,0,0:0:0:0:
330,346,124005,1,0,0:0:0:0:
206,348,124166,1,8,0:0:0:0:
126,253,124327,2,0,P|92:229|17:231,1,95,4|0,0:0|0:0,0:0:0:0:
56,317,124650,5,0,0:0:0:0:
32,135,124811,1,8,0:0:0:0:
140,164,124972,1,0,0:0:0:0:
140,164,125053,1,0,0:0:0:0:
140,164,125134,1,0,0:0:0:0:
45,28,125295,1,0,0:0:0:0:
32,135,125456,1,8,0:0:0:0:
202,64,125617,6,0,P|257:64|321:91,1,95
461,119,125940,2,0,P|407:133|353:175,1,95,0|8,0:0|0:0,0:0:0:0:
225,178,126263,2,0,P|272:205|314:260,1,95
350,337,126585,1,0,0:0:0:0:
315,353,126666,1,0,0:0:0:0:
277,361,126747,1,0,0:0:0:0:
239,358,126827,1,0,0:0:0:0:
201,344,126908,6,0,B|153:325|136:271|136:271|48:253,1,190,4|0,0:0|0:0,0:0:0:0:
17,114,127392,2,0,L|134:139,1,95,8|0,0:0|0:0,0:0:0:0:
202,151,127714,5,0,0:0:0:0:
170,60,127876,1,0,0:0:0:0:
139,226,128037,1,8,0:0:0:0:
275,212,128198,2,0,P|293:174|281:106,1,95
202,151,128521,1,0,0:0:0:0:
366,193,128682,2,0,L|466:219,1,95,8|0,0:0|0:0,0:0:0:0:
336,279,129005,5,0,0:0:0:0:
297,126,129166,1,0,0:0:0:0:
394,100,129327,1,8,0:0:0:0:
202,151,129488,2,0,P|143:155|96:129,1,95
0,93,129811,5,2,0:0:0:0:
15,127,129892,1,2,0:0:0:0:
31,161,129972,1,10,0:0:0:0:
54,302,130134,1,2,0:0:0:0:
77,273,130215,1,2,0:0:0:0:
101,244,130295,1,10,0:0:0:0:
143,107,130456,1,2,0:0:0:0:
173,130,130537,1,2,0:0:0:0:
203,151,130617,1,10,0:0:0:0:
287,202,130779,5,2,0:0:0:0:
377,275,130940,1,0,0:0:0:0:
394,240,131021,1,0,0:0:0:0:
400,202,131101,1,0,0:0:0:0:
393,164,131182,1,0,0:0:0:0:
373,131,131263,2,0,L|281:60,1,95,8|0,0:0|0:0,0:0:0:0:
206,48,131585,5,0,0:0:0:0:
105,147,131747,1,0,0:0:0:0:
249,134,131908,1,8,0:0:0:0:
113,53,132069,6,0,P|41:72|20:101,1,95,4|0,0:0|0:0,0:0:0:0:
29,210,132392,1,0,0:0:0:0:
29,210,132472,1,0,0:0:0:0:
29,210,132553,2,0,P|66:238|112:242,1,95,8|0,0:0|0:0,0:0:0:0:
197,198,132876,1,0,0:0:0:0:
109,334,133037,1,0,0:0:0:0:
197,299,133198,2,0,L|297:260,1,95,8|0,0:0|0:0,0:0:0:0:
361,206,133521,5,0,0:0:0:0:
468,319,133682,1,0,0:0:0:0:
375,298,133843,1,8,0:0:0:0:
443,149,134005,2,0,P|410:115|365:104,1,95
197,196,134327,2,0,P|239:186|278:140,1,95,0|8,0:0|0:0,0:0:0:0:
192,101,134650,5,4,0:0:0:0:
286,253,134811,1,0,0:0:0:0:
114,245,134972,2,0,P|101:200|112:155,1,95,0|8,0:0|0:0,0:0:0:0:
197,196,135295,5,0,0:0:0:0:
197,196,135376,1,0,0:0:0:0:
197,196,135456,2,0,L|310:227,1,95
410,297,135779,2,0,L|318:322,1,95,8|0,0:0|0:0,0:0:0:0:
230,356,136101,5,0,0:0:0:0:
74,312,136263,1,0,0:0:0:0:
167,281,136424,5,8,0:0:0:0:
44,175,136586,1,0,0:0:0:0:
138,188,136747,5,0,0:0:0:0:
71,39,136909,1,0,0:0:0:0:
231,54,137069,1,8,0:0:0:0:
145,94,137230,5,4,0:0:0:0:
145,94,137311,1,0,0:0:0:0:
145,94,137392,1,0,0:0:0:0:
224,145,137553,1,0,0:0:0:0:
309,104,137714,2,0,P|360:93|417:116,1,95,8|0,0:0|0:0,0:0:0:0:
432,234,138037,2,0,P|399:201|354:188,1,95
349,278,138359,2,0,P|384:316|392:377,1,95,8|0,0:0|0:0,0:0:0:0:
117,357,138682,6,0,P|130:311|163:278,1,95
256,250,139005,2,0,L|256:345,1,95,8|0,0:0|0:0,0:0:0:0:
183,174,139327,1,0,0:0:0:0:
325,173,139488,1,0,0:0:0:0:
255,47,139650,1,8,0:0:0:0:
256,192,139811,12,4,142392,0:0:0:0:
