osu file format v13

[General]
AudioFilename: Swing it!!.mp3
AudioLeadIn: 1000
PreviewTime: 163646
Countdown: 0
SampleSet: Soft
StackLeniency: 0.7
Mode: 0
LetterboxInBreaks: 0
WidescreenStoryboard: 0

[Editor]
Bookmarks: 176505
DistanceSpacing: 0.8
BeatDivisor: 4
GridSize: 4
TimelineZoom: 2.3

[Metadata]
Title:Swing It!!
TitleUnicode:Swing It!!
Artist:Fear, and Loathing in Las Vegas
ArtistUnicode:Fear, and Loathing in Las Vegas
Creator:Guy
Version:Extra
Source:
Tags:PHASE 2
BeatmapID:482147
BeatmapSetID:204159

[Difficulty]
HPDrainRate:7
CircleSize:4
OverallDifficulty:8
ApproachRate:9.2
SliderMultiplier:1.8
SliderTickRate:1

[Events]
//Background and Video events
0,0,"kawaii.jpg",0,0
//Break Periods
2,118295,119747
//Storyboard Layer 0 (Background)
//Storyboard Layer 1 (Fail)
//Storyboard Layer 2 (Pass)
//Storyboard Layer 3 (Foreground)
//Storyboard Sound Samples
//Background Colour Transformations
3,100,163,162,255

[TimingPoints]
925,317.460317460317,4,2,1,80,1,0
38861,-100,4,2,1,90,0,1
59337,-100,4,2,1,80,0,0
66639,-83.3333333333333,4,2,1,80,0,0
66956,-100,4,2,1,80,0,0
74581,365.853658536585,4,2,1,80,1,0
74581,-76.9230769230769,4,2,1,80,0,0
76044,-100,4,2,1,80,0,0
76959,-100,4,2,1,50,0,0
77507,-100,4,2,1,80,0,0
88483,-100,4,2,1,50,0,0
88849,-100,4,2,1,65,0,0
89215,-100,4,2,1,80,0,0
115556,317.460317460317,4,2,1,80,1,0
115556,-133.333333333333,4,2,1,80,0,0
115635,-133.333333333333,4,2,1,20,0,0
120317,-133.333333333333,4,2,1,80,0,0
131424,317.460317460317,4,2,1,80,1,0
149201,-100,4,2,1,60,0,0
149836,-100,4,2,1,70,0,0
150471,-100,4,2,1,82,0,0
151106,-100,4,2,1,94,0,0
151741,-100,4,2,1,100,0,0
151979,-100,4,2,1,80,0,0
164281,-100,4,2,1,90,0,1
169836,-100,4,2,1,100,0,1
169995,-100,4,2,1,90,0,1
171106,-100,4,2,1,100,0,1
171265,-100,4,2,1,90,0,1
179995,-100,4,2,1,100,0,1
180154,-100,4,2,1,90,0,1
181265,-100,4,2,1,100,0,1
181423,-100,4,2,1,90,0,1
217614,-100,4,2,1,80,0,0

[Colours]
Combo1 : 255,0,204
Combo2 : 39,231,124
Combo3 : 232,139,0
Combo4 : 1,197,254
Combo5 : 170,201,48

[HitObjects]
64,204,925,6,0,L|72:264,1,45,4|2,0:0|0:0,0:0:0:0:
152,308,1083,2,0,L|157:263,1,45,2|2,0:0|0:0,0:0:0:0:
152,176,1242,2,0,P|136:104|128:32,1,135,2|0,0:0|0:0,0:0:0:0:
128,43,1559,1,8,0:0:0:0:
224,104,1718,1,0,0:0:0:0:
124,28,1877,1,0,0:0:0:0:
56,144,2036,6,0,P|48:200|48:244,1,90,2|0,0:0|0:0,0:0:0:0:
232,324,2353,1,2,0:0:0:0:
232,324,2432,1,2,0:0:0:0:
232,324,2512,2,0,P|240:268|240:224,1,90,2|2,0:0|0:0,0:0:0:0:
144,80,2829,2,0,B|153:122|153:122|144:168|144:168|153:223,2,135,8|2|2,0:0|0:0|0:0,0:0:0:0:
252,128,3464,5,2,0:0:0:0:
288,144,3544,1,2,0:0:0:0:
328,140,3623,1,2,0:0:0:0:
360,116,3702,1,2,0:0:0:0:
376,80,3782,2,0,B|432:116|432:116|512:112,1,135,2|0,0:0|0:0,0:0:0:0:
500,112,4099,1,8,0:0:0:0:
404,208,4258,1,0,0:0:0:0:
296,60,4417,1,2,0:0:0:0:
404,208,4575,6,0,P|416:264|420:324,1,90,2|0,0:0|0:0,0:0:0:0:
248,360,4893,1,2,0:0:0:0:
252,324,4972,1,2,0:0:0:0:
260,288,5051,1,2,0:0:0:0:
292,168,5210,1,2,0:0:0:0:
172,304,5369,1,8,0:0:0:0:
204,96,5528,1,2,0:0:0:0:
268,256,5686,2,0,P|284:292|312:336,1,90,2|8,0:0|0:0,0:0:0:0:
448,120,6004,6,0,L|456:76,1,45,2|2,0:0|0:0,0:0:0:0:
364,48,6163,2,0,L|368:104,1,45,2|2,0:0|0:0,0:0:0:0:
384,188,6321,2,0,P|396:256|400:328,1,135,2|0,0:0|0:0,0:0:0:0:
399,321,6639,1,8,0:0:0:0:
276,296,6798,1,0,0:0:0:0:
380,160,6956,1,0,0:0:0:0:
328,380,7115,6,0,P|316:340|312:284,1,90,2|0,0:0|0:0,0:0:0:0:
452,96,7432,1,2,0:0:0:0:
452,96,7512,1,2,0:0:0:0:
452,96,7591,2,0,P|464:136|468:192,1,90,2|2,0:0|0:0,0:0:0:0:
276,296,7909,1,8,0:0:0:0:
328,172,8067,1,2,0:0:0:0:
144,276,8226,1,2,0:0:0:0:
288,316,8385,1,2,0:0:0:0:
176,216,8544,5,2,0:0:0:0:
180,180,8623,1,2,0:0:0:0:
184,144,8702,1,2,0:0:0:0:
188,108,8782,1,2,0:0:0:0:
192,72,8861,1,2,0:0:0:0:
96,180,9020,1,0,0:0:0:0:
264,272,9178,2,0,P|304:256|352:248,1,90,8|2,0:0|0:0,0:0:0:0:
480,292,9496,1,0,0:0:0:0:
284,180,9655,6,0,P|276:124|276:76,1,90,2|0,0:0|0:0,0:0:0:0:
444,184,9972,1,2,0:0:0:0:
444,184,10051,1,2,0:0:0:0:
444,184,10131,1,2,0:0:0:0:
248,276,10290,1,2,0:0:0:0:
368,116,10448,1,8,0:0:0:0:
332,284,10607,1,2,0:0:0:0:
200,184,10766,1,8,0:0:0:0:
196,200,10845,1,2,0:0:0:0:
192,216,10924,1,2,0:0:0:0:
188,232,11004,1,2,0:0:0:0:
184,248,11083,6,0,P|128:232|84:216,1,90,4|0,0:0|0:0,0:0:0:0:
320,204,11401,1,8,0:0:0:0:
216,104,11559,1,0,0:0:0:0:
268,280,11718,1,2,0:0:0:0:
312,112,11877,1,2,0:0:0:0:
144,164,12036,1,0,0:0:0:0:
272,288,12194,6,0,L|288:192,1,90,8|0,0:0|0:0,0:0:0:0:
416,160,12512,1,2,0:0:0:0:
320,12,12671,2,0,L|334:100,1,90,8|0,0:0|0:0,0:0:0:0:
220,216,12988,1,2,0:0:0:0:
384,292,13147,1,0,0:0:0:0:
384,292,13226,1,0,0:0:0:0:
384,292,13305,1,8,0:0:0:0:
308,180,13464,1,0,0:0:0:0:
228,352,13623,6,0,P|180:336|136:328,1,90,4|0,0:0|0:0,0:0:0:0:
80,224,13940,1,8,0:0:0:0:
276,260,14099,1,0,0:0:0:0:
168,164,14258,1,2,0:0:0:0:
228,352,14417,2,0,L|320:344,1,90,2|0,0:0|0:0,0:0:0:0:
492,188,14734,6,0,L|402:180,1,90,8|0,0:0|0:0,0:0:0:0:
224,264,15051,2,0,L|316:256,1,90,8|0,0:0|0:0,0:0:0:0:
320,60,15369,2,0,B|304:104|304:104|296:164,1,90,8|0,0:0|0:0,0:0:0:0:
392,256,15686,1,8,0:0:0:0:
212,168,15845,2,0,L|228:308,1,135,8|0,0:0|0:0,0:0:0:0:
176,360,16163,6,0,P|72:356|52:272,1,180,4|8,0:0|0:0,0:0:0:0:
292,224,16639,1,0,0:0:0:0:
292,224,16718,1,0,0:0:0:0:
292,224,16798,1,2,0:0:0:0:
127,300,16956,1,2,0:0:0:0:
300,380,17115,1,0,0:0:0:0:
208,180,17274,6,0,P|200:120|200:76,1,90,8|0,0:0|0:0,0:0:0:0:
392,192,17591,2,0,P|390:236|383:281,1,90,2|8,0:0|0:0,0:0:0:0:
144,292,17909,2,0,L|136:236,1,45
292,224,18067,2,0,L|298:268,1,45
152,328,18226,2,0,L|100:304,1,45
288,184,18385,2,0,L|340:208,1,45,8|0,0:0|0:0,0:0:0:0:
292,344,18544,1,8,0:0:0:0:
164,160,18702,6,0,P|176:88|188:56,1,90,2|0,0:0|0:0,0:0:0:0:
220,256,19020,1,8,0:0:0:0:
64,184,19178,1,0,0:0:0:0:
212,340,19337,2,0,P|296:296|288:212,1,180,2|0,0:0|0:0,0:0:0:0:
120,268,19813,5,8,0:0:0:0:
204,96,19972,1,0,0:0:0:0:
72,180,20131,1,8,0:0:0:0:
252,248,20290,2,0,L|348:232,1,90,0|8,0:0|0:0,0:0:0:0:
432,136,20607,1,0,0:0:0:0:
392,288,20766,1,2,0:0:0:0:
288,172,20924,1,8,0:0:0:0:
468,232,21083,1,0,0:0:0:0:
468,232,21163,1,0,0:0:0:0:
468,232,21242,6,0,P|480:296|480:332,1,90,4|0,0:0|0:0,0:0:0:0:
312,328,21559,1,8,0:0:0:0:
364,204,21718,1,0,0:0:0:0:
208,272,21877,1,2,0:0:0:0:
280,158,22036,1,2,0:0:0:0:
116,200,22194,1,0,0:0:0:0:
206,100,22353,1,8,0:0:0:0:
292,248,22512,5,0,0:0:0:0:
160,192,22671,1,2,0:0:0:0:
324,132,22829,1,8,0:0:0:0:
188,72,22988,1,0,0:0:0:0:
200,224,23147,1,2,0:0:0:0:
372,192,23305,2,0,P|372:148|368:96,1,90,2|8,0:0|0:0,0:0:0:0:
272,288,23623,1,0,0:0:0:0:
272,288,23702,1,0,0:0:0:0:
272,288,23782,5,4,0:0:0:0:
288,184,23940,1,0,0:0:0:0:
364,352,24099,2,0,P|424:332|460:328,1,90,8|0,0:0|0:0,0:0:0:0:
450,328,24417,1,2,0:0:0:0:
272,288,24575,1,2,0:0:0:0:
272,288,24893,6,0,P|268:232|256:180,1,90,8|0,0:0|0:0,0:0:0:0:
96,232,25210,2,0,P|148:248|188:252,1,90,8|0,0:0|0:0,0:0:0:0:
416,152,25528,2,0,P|364:136|324:132,1,90,8|0,0:0|0:0,0:0:0:0:
148,328,25845,1,8,0:0:0:0:
368,316,26004,1,8,0:0:0:0:
244,132,26163,1,0,0:0:0:0:
256,300,26321,5,4,0:0:0:0:
164,220,26480,1,0,0:0:0:0:
328,188,26639,2,0,P|340:120|336:84,1,90,8|0,0:0|0:0,0:0:0:0:
164,220,26956,1,2,0:0:0:0:
344,296,27115,1,2,0:0:0:0:
148,352,27274,1,0,0:0:0:0:
359,384,27432,6,0,L|343:284,1,90,8|0,0:0|0:0,0:0:0:0:
256,88,27750,2,0,L|241:176,1,90,2|8,0:0|0:0,0:0:0:0:
204,296,28067,2,0,P|248:312|268:316,1,45
344,296,28226,2,0,P|372:284|392:272,1,45
428,180,28385,1,0,0:0:0:0:
284,228,28544,1,8,0:0:0:0:
444,328,28702,1,8,0:0:0:0:
348,168,28861,6,0,B|344:100|364:24|364:24|392:64,1,180,4|8,0:0|0:0,0:0:0:0:
484,252,29337,1,0,0:0:0:0:
432,144,29496,1,2,0:0:0:0:
312,284,29655,1,2,0:0:0:0:
404,232,29813,2,0,P|400:280|392:332,1,90,0|8,0:0|0:0,0:0:0:0:
228,328,30131,5,0,0:0:0:0:
268,184,30290,1,2,0:0:0:0:
328,368,30448,1,8,0:0:0:0:
152,292,30607,1,0,0:0:0:0:
152,292,30686,1,0,0:0:0:0:
152,292,30766,1,4,0:0:0:0:
336,256,30924,1,4,0:3:0:0:
200,144,31083,1,4,0:3:0:0:
244,336,31242,2,0,L|288:352,1,45,8|8,0:0|0:0,0:0:0:0:
432,292,31401,6,0,P|428:224|416:176,1,90,4|0,0:0|0:0,0:0:0:0:
292,44,31718,2,0,P|284:88|283:133,1,90,8|0,0:0|0:0,0:0:0:0:
192,224,32036,1,2,0:0:0:0:
312,264,32194,1,0,0:0:0:0:
204,112,32353,2,0,L|108:120,1,90,8|0,0:0|0:0,0:0:0:0:
48,300,32671,6,0,B|136:312|136:312|228:316,1,180,2|8,0:0|0:0,0:0:0:0:
280,168,33147,1,0,0:0:0:0:
280,168,33226,1,0,0:0:0:0:
280,168,33305,1,2,0:0:0:0:
136,192,33464,1,0,0:0:0:0:
312,264,33623,1,8,0:0:0:0:
112,196,33782,1,0,0:0:0:0:
216,60,33940,6,0,P|204:124|200:180,1,90,2|0,0:0|0:0,0:0:0:0:
380,328,34258,2,0,P|392:264|396:208,1,90,8|0,0:0|0:0,0:0:0:0:
320,92,34575,1,2,0:0:0:0:
236,240,34734,1,0,0:0:0:0:
320,92,34893,1,8,0:0:0:0:
164,180,35051,1,0,0:0:0:0:
332,180,35210,5,2,0:0:0:0:
212,336,35369,1,0,0:0:0:0:
248,152,35528,1,8,0:0:0:0:
296,352,35686,2,0,P|344:336|392:332,1,90,0|2,0:0|0:0,0:0:0:0:
156,268,36004,1,0,0:0:0:0:
332,180,36163,2,0,B|324:244|324:244|304:316,1,135,8|0,0:0|0:0,0:0:0:0:
296,352,36480,6,0,L|192:356,1,90,4|0,0:0|0:0,0:0:0:0:
44,228,36798,2,0,L|148:224,1,90,4|0,0:0|0:0,0:0:0:0:
264,156,37115,1,8,0:3:0:0:
272,124,37194,1,8,0:3:0:0:
272,92,37274,1,8,0:3:0:0:
192,276,37432,1,8,0:0:0:0:
316,344,37591,5,8,0:3:0:0:
316,344,37671,1,8,0:3:0:0:
316,344,37750,1,8,0:0:0:0:
388,222,37909,1,8,0:0:0:0:
236,312,38067,1,2,0:0:0:0:
272,124,38226,1,2,0:0:0:0:
152,336,38385,1,8,0:0:0:0:
136,68,38544,1,8,0:0:0:0:
140,72,38861,6,0,P|228:96|284:20,1,180,4|0,0:0|0:0,0:0:0:0:
281,37,39337,1,8,0:0:0:0:
116,160,39496,1,0,0:0:0:0:
216,220,39655,1,2,0:0:0:0:
200,20,39813,1,2,0:0:0:0:
136,240,39972,2,0,P|124:288|120:344,1,90,8|0,0:0|0:0,0:0:0:0:
192,144,40290,5,2,0:0:0:0:
60,220,40448,1,0,0:0:0:0:
284,280,40607,2,0,P|296:232|300:184,1,90,8|0,0:0|0:0,0:0:0:0:
150,76,40924,2,0,P|114:144|194:224,1,180,2|8,0:0|0:0,0:0:0:0:
336,356,41401,6,0,P|360:304|376:172,1,180,4|0,0:0|0:0,0:0:0:0:
264,268,41877,1,8,0:0:0:0:
460,248,42036,1,0,0:0:0:0:
348,148,42194,1,2,0:0:0:0:
316,296,42353,1,2,0:0:0:0:
312,120,42512,1,8,0:0:0:0:
392,288,42671,1,0,0:0:0:0:
420,72,42829,5,2,0:0:0:0:
248,164,42988,1,2,0:0:0:0:
468,196,43147,1,8,0:0:0:0:
292,288,43305,2,0,P|220:276|192:268,1,90,2|2,0:0|0:0,0:0:0:0:
128,200,43623,1,0,0:0:0:0:
192,348,43782,1,8,0:0:0:0:
312,272,43940,6,0,B|352:240|352:240|404:288|480:280,1,180,4|2,0:0|0:0,0:0:0:0:
470,280,44417,1,8,0:0:0:0:
352,340,44575,1,0,0:0:0:0:
288,200,44734,2,0,P|292:152|304:104,1,90,2|2,0:0|0:0,0:0:0:0:
400,80,45051,1,8,0:0:0:0:
268,216,45210,6,0,P|208:204|176:192,1,90,2|0,0:0|0:0,0:0:0:0:
232,108,45528,1,2,0:0:0:0:
376,176,45686,1,8,0:0:0:0:
132,232,45845,2,0,B|128:136|128:136|108:40,1,180,4|0,0:0|0:0,0:0:0:0:
32,132,46321,1,8,0:0:0:0:
184,296,46480,6,0,P|268:312|328:228,1,180,4|2,0:0|0:0,0:0:0:0:
232,108,46956,1,4,0:3:0:0:
216,136,47036,1,4,0:3:0:0:
208,164,47115,1,4,0:3:0:0:
340,360,47274,1,4,0:3:0:0:
244,236,47432,1,0,0:0:0:0:
428,304,47591,1,4,0:3:0:0:
192,328,47750,5,8,0:3:0:0:
328,236,47909,1,4,0:3:0:0:
180,160,48067,1,0,0:0:0:0:
288,328,48226,2,0,L|392:320,1,90,4|8,0:3|0:0,0:0:0:0:
410,318,48464,1,8,0:0:0:0:
410,318,48544,1,8,0:0:0:0:
244,304,48702,1,8,0:0:0:0:
340,180,48861,1,8,0:0:0:0:
320,368,49020,6,0,B|256:368|220:324|220:324|184:340|144:332,1,180,4|2,0:0|0:0,0:0:0:0:
156,160,49496,2,0,P|172:208|176:256,1,90,8|0,0:0|0:0,0:0:0:0:
60,352,49813,2,0,P|44:304|40:256,1,90,2|2,0:0|0:0,0:0:0:0:
192,80,50131,1,8,0:0:0:0:
72,180,50290,1,2,0:0:0:0:
216,236,50448,5,2,0:0:0:0:
100,92,50607,1,2,0:0:0:0:
248,152,50766,1,8,0:0:0:0:
124,252,50924,1,2,0:0:0:0:
324,272,51083,2,0,L|324:72,1,180,2|8,0:0|0:0,0:0:0:0:
156,168,51559,6,0,B|88:164|44:228|44:228|20:208|24:172,1,180,4|2,0:0|0:0,0:0:0:0:
216,100,52036,2,0,P|236:148|244:200,1,90,8|0,0:0|0:0,0:0:0:0:
104,368,52353,1,2,0:0:0:0:
136,260,52512,1,2,0:0:0:0:
212,344,52671,1,8,0:0:0:0:
160,172,52829,1,0,0:0:0:0:
300,376,52988,6,0,P|348:348|400:336,1,90,2|2,0:0|0:0,0:0:0:0:
484,360,53305,1,8,0:0:0:0:
320,264,53464,2,0,P|304:220|292:168,1,90,0|2,0:0|0:0,0:0:0:0:
296,80,53782,1,2,0:0:0:0:
440,216,53940,1,8,0:0:0:0:
312,272,54099,6,0,P|220:268|204:184,1,180,4|0,0:0|0:0,0:0:0:0:
392,56,54575,2,0,P|388:116|376:168,1,90,8|0,0:0|0:0,0:0:0:0:
270,215,54893,1,2,0:0:0:0:
220,104,55051,1,2,0:0:0:0:
136,284,55210,1,8,0:0:0:0:
292,332,55369,6,0,P|284:280|276:240,1,90,4|0,0:0|0:0,0:0:0:0:
84,112,55686,1,2,0:0:0:0:
188,212,55845,1,8,0:0:0:0:
268,36,56004,1,0,0:0:0:0:
180,232,56163,1,2,0:0:0:0:
360,188,56321,1,2,0:0:0:0:
168,128,56480,1,8,0:0:0:0:
368,264,56639,6,0,P|424:228|406:127,1,180,4|2,0:0|0:0,0:0:0:0:
184,44,57115,2,0,L|192:140,1,90,8|0,0:0|0:0,0:0:0:0:
144,300,57432,1,2,0:0:0:0:
256,204,57591,1,2,0:0:0:0:
76,152,57750,5,8,0:0:0:0:
80,184,57829,1,8,0:0:0:0:
84,216,57909,1,8,0:0:0:0:
88,248,57988,1,8,0:0:0:0:
92,280,58067,6,0,L|100:332,1,45,6|2,0:0|0:0,0:0:0:0:
204,216,58226,2,0,L|196:164,1,45,2|2,0:0|0:0,0:0:0:0:
204,340,58385,2,0,P|228:356|256:364,1,45,8|10,0:0|0:0,0:0:0:0:
320,296,58544,2,0,P|321:267|314:238,1,45,8|8,0:0|0:0,0:0:0:0:
228,244,58702,5,2,0:0:0:0:
256,268,58782,1,2,0:0:0:0:
287,285,58861,1,2,0:0:0:0:
320,296,58940,1,2,0:0:0:0:
356,300,59020,1,8,0:0:0:0:
391,297,59099,1,8,0:0:0:0:
425,287,59178,1,8,0:0:0:0:
458,274,59258,1,8,0:0:0:0:
486,254,59337,6,0,P|502:218|506:162,1,90,4|0,0:0|0:0,0:0:0:0:
440,100,59575,1,2,0:0:0:0:
440,100,59655,2,0,P|398:100|350:128,1,90,8|2,0:0|0:0,0:0:0:0:
248,208,59972,1,0,0:0:0:0:
392,328,60131,1,2,0:0:0:0:
392,328,60210,1,2,0:0:0:0:
392,328,60290,2,0,L|380:200,1,90,8|0,0:0|0:0,0:0:0:0:
164,176,60607,5,0,0:0:0:0:
264,292,60766,1,2,0:0:0:0:
240,128,60924,2,0,L|228:28,1,90,8|0,0:0|0:0,0:0:0:0:
308,8,61163,1,0,0:0:0:0:
308,8,61242,2,0,L|320:108,1,90,2|0,0:0|0:0,0:0:0:0:
256,264,61559,2,0,P|152:196|132:192,1,135,4|0,0:0|0:0,0:0:0:0:
64,200,61877,5,2,0:0:0:0:
160,348,62036,1,0,0:0:0:0:
160,348,62115,1,0,0:0:0:0:
160,348,62194,1,8,0:0:0:0:
256,264,62353,2,0,P|244:196|240:160,1,90,2|0,0:0|0:0,0:0:0:0:
320,104,62671,1,2,0:0:0:0:
424,284,62829,2,0,P|384:300|332:316,1,90,8|0,0:0|0:0,0:0:0:0:
164,260,63147,5,2,0:0:0:0:
148,224,63226,1,2,0:0:0:0:
136,184,63305,1,2,0:0:0:0:
136,144,63385,1,2,0:0:0:0:
144,104,63464,2,0,P|176:72|216:48,1,90,8|0,0:0|0:0,0:0:0:0:
336,224,63782,5,2,0:0:0:0:
360,252,63861,1,2,0:0:0:0:
396,260,63940,1,2,0:0:0:0:
432,248,64020,1,2,0:0:0:0:
456,220,64099,1,8,0:0:0:0:
456,184,64178,1,2,0:0:0:0:
448,148,64258,1,2,0:0:0:0:
428,120,64337,1,2,0:0:0:0:
396,104,64417,6,0,P|328:124|296:128,1,90,4|0,0:0|0:0,0:0:0:0:
232,116,64655,1,0,0:0:0:0:
232,116,64734,1,8,0:0:0:0:
364,220,64893,2,0,P|356:280|340:332,1,90,2|0,0:0|0:0,0:0:0:0:
224,384,65210,1,2,0:0:0:0:
216,364,65290,1,2,0:0:0:0:
208,344,65369,2,0,P|197:300|192:255,1,90,8|2,0:0|0:0,0:0:0:0:
312,104,65686,5,0,0:0:0:0:
272,232,65845,1,2,0:0:0:0:
148,180,66004,2,0,L|60:148,1,90,8|0,0:0|0:0,0:0:0:0:
36,136,66242,1,2,0:0:0:0:
36,136,66321,1,2,0:0:0:0:
228,216,66480,1,2,0:0:0:0:
304,20,66639,2,0,L|320:192,1,161.999995056153,4|0,0:0|0:0,0:0:0:0:
326,256,66956,5,4,0:0:0:0:
232,116,67115,1,0,0:0:0:0:
232,116,67194,1,0,0:0:0:0:
232,116,67274,1,8,0:0:0:0:
240,292,67432,2,0,P|248:340|260:384,1,90,2|0,0:0|0:0,0:0:0:0:
392,328,67750,1,2,0:0:0:0:
208,204,67909,2,0,L|120:224,1,90,8|0,0:0|0:0,0:0:0:0:
12,120,68226,5,2,0:0:0:0:
44,128,68305,1,2,0:0:0:0:
76,132,68385,1,2,0:0:0:0:
108,136,68464,1,2,0:0:0:0:
140,136,68544,2,0,P|192:124|240:116,1,90,8|0,0:0|0:0,0:0:0:0:
404,92,68861,5,2,0:0:0:0:
436,116,68940,1,2,0:0:0:0:
452,152,69020,1,2,0:0:0:0:
452,192,69099,1,2,0:0:0:0:
440,232,69178,1,8,0:0:0:0:
412,260,69258,1,8,0:0:0:0:
376,276,69337,1,8,0:0:0:0:
336,276,69417,1,8,0:0:0:0:
300,264,69496,6,0,P|240:260|208:264,1,90,4|0,0:0|0:0,0:0:0:0:
80,176,69813,2,0,P|140:180|172:176,1,90,8|0,0:0|0:0,0:0:0:0:
296,112,70131,1,0,0:0:0:0:
176,36,70290,1,0,0:0:0:0:
168,176,70448,2,0,P|164:224|170:273,1,90,8|0,0:0|0:0,0:0:0:0:
248,324,70766,5,0,0:0:0:0:
88,264,70924,1,0,0:0:0:0:
260,216,71083,2,0,P|264:168|258:119,1,90,8|0,0:0|0:0,0:0:0:0:
232,40,71401,1,2,0:0:0:0:
352,140,71559,1,2,0:0:0:0:
168,176,71718,1,8,0:0:0:0:
320,24,71877,1,0,0:0:0:0:
320,24,71956,1,0,0:0:0:0:
320,24,72036,6,0,L|316:120,1,90,2|0,0:0|0:0,0:0:0:0:
216,240,72353,1,8,0:0:0:0:
400,300,72512,2,0,P|376:212|296:212,1,180,0|2,0:0|0:0,0:0:0:0:
144,344,72988,1,8,0:0:0:0:
336,271,73147,1,0,0:0:0:0:
232,160,73305,2,0,P|216:104|212:68,1,90,8|0,0:0|0:0,0:0:0:0:
448,136,73623,2,0,P|441:180|428:223,1,90,8|0,0:0|0:0,0:0:0:0:
296,344,73940,6,0,L|232:332,2,60,8|8|8,0:0|0:0|0:0,0:0:0:0:
168,240,74258,2,0,L|226:251,2,60,8|8|8,0:0|0:0|0:0,0:0:0:0:
320,256,74581,6,0,L|300:128,1,116.999994644165,2|0,0:0|0:0,0:0:0:0:
380,84,74855,2,0,L|400:212,1,116.999994644165,0|0,0:0|0:0,0:0:0:0:
404,288,75129,2,0,P|372:328|296:348,2,116.999994644165,0|0|0,0:0|0:0|0:0,0:0:0:0:
248,196,75678,2,0,L|240:116,1,58.4999973220826
236,60,75861,1,0,0:0:0:0:
320,256,76044,6,0,P|392:288|452:272,2,135,12|8|8,0:0|0:0|0:0,0:0:0:0:
196,300,76776,2,0,P|140:324|112:328,1,90,8|2,0:0|0:0,0:0:0:0:
88,324,77050,1,2,0:0:0:0:
92,300,77141,1,2,0:0:0:0:
96,276,77233,1,2,0:0:0:0:
100,252,77324,1,2,0:0:0:0:
104,228,77416,1,2,0:0:0:0:
108,204,77507,6,0,L|128:64,1,135,4|8,0:0|0:0,0:0:0:0:
204,32,77873,2,0,P|241:54|285:70,1,90,2|8,0:0|0:0,0:0:0:0:
272,224,78239,2,0,P|352:192|432:200,1,135,2|8,0:0|0:0,0:0:0:0:
476,228,78605,2,0,P|476:164|460:124,1,90,2|8,0:0|0:0,0:0:0:0:
276,128,78971,6,0,P|212:156|128:152,1,135,2|8,0:0|0:0,0:0:0:0:
76,124,79337,1,2,0:0:0:0:
200,232,79520,1,8,0:0:0:0:
288,88,79702,2,0,B|300:132|300:132|304:184,1,90,2|0,0:0|0:0,0:0:0:0:
232,244,79977,2,0,B|220:200|220:200|216:148,1,90,8|0,0:0|0:0,0:0:0:0:
328,56,80251,2,0,L|336:100,1,45,8|0,0:0|0:0,0:0:0:0:
296,288,80434,6,0,P|224:320|152:240,1,180,2|2,0:0|0:0,0:0:0:0:
300,208,80983,2,0,P|336:220|356:224,1,45,8|0,0:0|0:0,0:0:0:0:
420,248,81166,2,0,L|408:108,1,135,2|8,0:0|0:0,0:0:0:0:
352,56,81532,1,2,0:0:0:0:
264,188,81715,1,8,0:0:0:0:
244,176,81806,1,0,0:0:0:0:
224,168,81898,6,0,P|156:144|92:132,1,135,4|8,0:0|0:0,0:0:0:0:
16,140,82263,1,0,0:0:0:0:
104,296,82446,2,0,P|96:268|100:240,1,45,8|0,0:0|0:0,0:0:0:0:
184,240,82629,2,0,P|252:244|300:192,1,135,2|8,0:0|0:0,0:0:0:0:
272,120,82995,2,0,P|264:80|264:64,1,45,2|0,0:0|0:0,0:0:0:0:
340,32,83178,2,0,P|348:72|348:88,1,45,8|0,0:0|0:0,0:0:0:0:
384,160,83361,6,0,P|368:232|372:304,1,135,4|8,0:0|0:0,0:0:0:0:
448,352,83727,2,0,P|460:296|456:256,1,90,2|8,0:0|0:0,0:0:0:0:
280,272,84093,2,0,P|220:292|148:296,1,135,2|8,0:0|0:0,0:0:0:0:
72,276,84459,1,2,0:0:0:0:
180,200,84641,1,8,0:0:0:0:
192,332,84824,5,2,0:0:0:0:
56,268,85007,1,0,0:0:0:0:
56,268,85099,1,8,0:0:0:0:
56,268,85190,1,2,0:0:0:0:
188,188,85373,1,8,0:0:0:0:
200,344,85556,6,0,P|264:324|316:312,1,90,2|0,0:0|0:0,0:0:0:0:
280,232,85830,2,0,P|341:257|389:282,1,90,8|0,0:0|0:0,0:0:0:0:
416,200,86105,2,0,P|432:225|440:244,1,45,8|0,0:0|0:0,0:0:0:0:
428,320,86288,5,2,0:0:0:0:
336,168,86471,2,0,L|340:120,2,45,0|8|0,0:0|0:0|0:0,0:0:0:0:
320,292,86837,1,8,0:0:0:0:
200,256,87020,2,0,P|192:180|192:116,1,135,2|8,0:0|0:0,0:0:0:0:
204,32,87385,2,0,P|140:56|112:64,1,90,2|8,0:0|0:0,0:0:0:0:
292,96,87751,5,2,0:0:0:0:
116,140,87934,2,0,L|104:184,1,45,8|8,0:3|0:3,0:0:0:0:
276,236,88117,2,0,L|264:192,1,45,8|8,0:3|0:3,0:0:0:0:
156,312,88300,2,0,L|168:268,1,45,8|8,0:3|0:3,0:0:0:0:
416,256,88483,6,0,L|404:300,1,45,8|8,0:0|0:0,0:0:0:0:
268,336,88666,2,0,L|235:303,1,45,8|8,0:0|0:0,0:0:0:0:
272,164,88849,2,0,L|316:152,1,45,8|8,0:0|0:0,0:0:0:0:
320,255,89032,1,8,0:0:0:0:
320,255,89123,1,8,0:0:0:0:
320,255,89215,6,0,B|256:235|256:235|184:223,1,135,4|8,0:0|0:0,0:0:0:0:
112,240,89580,2,0,B|104:192|104:192|108:136,1,90,2|8,0:0|0:0,0:0:0:0:
304,40,89946,2,0,P|324:100|324:188,1,135,2|8,0:0|0:0,0:0:0:0:
320,255,90312,2,0,P|312:299|312:315,1,45,2|0,0:0|0:0,0:0:0:0:
388,340,90495,2,0,P|396:296|396:280,1,45,8|0,0:0|0:0,0:0:0:0:
404,192,90678,6,0,P|340:176|268:144,1,135,2|8,0:0|0:0,0:0:0:0:
212,100,91044,1,2,0:0:0:0:
300,24,91227,2,0,L|292:72,1,45,8|0,0:0|0:0,0:0:0:0:
204,184,91410,2,0,B|204:228|204:228|216:272,1,90,2|0,0:0|0:0,0:0:0:0:
300,320,91684,2,0,B|300:276|300:276|288:232,1,90,8|0,0:0|0:0,0:0:0:0:
160,168,91959,2,0,L|168:216,1,45,8|0,0:0|0:0,0:0:0:0:
288,360,92141,6,0,L|420:332,2,135,2|8|8,0:0|0:0|0:0,0:0:0:0:
108,352,92873,2,0,P|104:264|96:212,1,135,2|8,0:0|0:0,0:0:0:0:
32,152,93239,2,0,P|24:200|24:252,1,90,2|8,0:0|0:0,0:0:0:0:
192,312,93605,2,0,B|248:272|248:272|320:276,1,135,4|8,0:0|0:0,0:0:0:0:
412,284,93971,2,0,L|400:256|388:228,1,45,2|0,0:0|0:0,0:0:0:0:
344,140,94154,2,0,L|332:168|320:196,1,45,8|0,0:0|0:0,0:0:0:0:
271,346,94337,5,2,0:0:0:0:
224,192,94520,1,0,0:0:0:0:
224,192,94611,1,8,0:0:0:0:
224,192,94702,1,2,0:0:0:0:
324,272,94885,1,8,0:0:0:0:
152,384,95068,6,0,P|128:324|132:248,1,135,4|8,0:0|0:0,0:0:0:0:
144,176,95434,2,0,P|156:128|156:88,1,90,2|8,0:0|0:0,0:0:0:0:
72,216,95800,2,0,P|124:252|204:232,1,135,2|8,0:0|0:0,0:0:0:0:
256,192,96166,1,2,0:0:0:0:
212,320,96349,1,8,0:0:0:0:
164,152,96532,5,2,0:0:0:0:
288,280,96715,1,0,0:0:0:0:
320,276,96806,1,8,0:0:0:0:
348,264,96898,1,2,0:0:0:0:
368,164,97080,1,8,0:0:0:0:
252,340,97263,6,0,P|228:256|228:248,1,90,2|0,0:0|0:0,0:0:0:0:
144,268,97538,2,0,P|156:224|180:184,1,90,8|0,0:0|0:0,0:0:0:0:
100,164,97812,2,0,P|124:128|140:112,1,45,8|0,0:0|0:0,0:0:0:0:
184,64,97995,6,0,P|244:88|336:92,1,135,2|8,0:0|0:0,0:0:0:0:
344,176,98361,2,0,P|384:156|444:148,1,90,2|8,0:0|0:0,0:0:0:0:
280,320,98727,2,0,P|260:256|264:176,1,135,2|8,0:0|0:0,0:0:0:0:
288,112,99093,1,2,0:0:0:0:
188,272,99276,1,8,0:0:0:0:
360,352,99459,5,2,0:0:0:0:
344,176,99641,1,8,0:3:0:0:
344,176,99733,1,8,0:3:0:0:
344,176,99824,2,0,L|336:216|332:236,1,45,8|0,0:3|0:0,0:0:0:0:
252,360,100007,1,8,0:3:0:0:
232,328,100099,1,8,0:3:0:0:
224,292,100190,1,8,0:3:0:0:
230,256,100282,1,8,0:3:0:0:
244,224,100373,1,8,0:3:0:0:
256,192,100465,1,2,0:0:0:0:
260,152,100556,5,0,0:0:0:0:
236,120,100648,1,0,0:0:0:0:
196,108,100739,1,2,0:0:0:0:
156,116,100830,1,0,0:0:0:0:
128,144,100922,6,0,P|60:148|4:116,2,135,2|2|2,0:0|0:0|0:0,0:0:0:0:
237,63,101654,2,0,L|245:155,1,90,2|0,0:0|0:0,0:0:0:0:
324,180,101928,2,0,L|316:88,1,90,2|0,0:0|0:0,0:0:0:0:
300,12,102202,1,2,0:0:0:0:
260,228,102385,2,0,P|244:284|240:364,2,135,2|2|2,0:0|0:0|0:0,0:0:0:0:
155,93,103117,1,2,0:0:0:0:
159,109,103209,1,2,0:0:0:0:
163,125,103300,1,2,0:0:0:0:
167,141,103391,1,2,0:0:0:0:
171,157,103483,2,0,L|179:193,6,22.5,4|0|0|0|0|0|0,0:0|0:0|0:0|0:0|0:0|0:0|0:0,0:0:0:0:
181,198,103849,6,0,P|125:182|89:178,1,90,4|0,0:0|0:0,0:0:0:0:
79,177,104123,1,8,0:0:0:0:
65,177,104215,1,2,0:0:0:0:
100,300,104398,1,8,0:0:0:0:
181,198,104580,2,0,P|188:268|188:308,1,90,2|0,0:0|0:0,0:0:0:0:
266,320,104855,2,0,P|259:250|259:210,1,90,8|0,0:0|0:0,0:0:0:0:
264,152,105129,1,8,0:0:0:0:
368,228,105312,6,0,P|396:184|472:164,1,135,2|8,0:0|0:0,0:0:0:0:
452,248,105678,2,0,P|448:296|448:344,1,90,2|8,0:0|0:0,0:0:0:0:
296,272,106044,1,2,0:0:0:0:
336,136,106227,1,0,0:0:0:0:
336,136,106318,1,8,0:0:0:0:
336,136,106410,1,2,0:0:0:0:
376,308,106593,1,4,0:3:0:0:
228,344,106776,6,0,P|212:300|204:252,1,90,2|0,0:0|0:0,0:0:0:0:
204,244,107050,1,8,0:0:0:0:
205,230,107141,1,2,0:0:0:0:
136,340,107324,1,8,0:0:0:0:
168,152,107507,1,2,0:0:0:0:
80,280,107690,1,0,0:0:0:0:
172,136,107873,2,0,P|184:88|192:40,1,90,2|4,0:0|0:3,0:0:0:0:
8,116,108239,6,0,P|15:160|26:203,1,90,2|0,0:0|0:0,0:0:0:0:
31,216,108513,1,8,0:0:0:0:
36,228,108605,1,2,0:0:0:0:
184,296,108788,1,8,0:0:0:0:
280,156,108971,2,0,B|320:148|320:148|368:164|368:164|412:156,1,135,2|8,0:0|0:0,0:0:0:0:
488,144,109337,1,2,0:0:0:0:
372,88,109520,1,8,0:0:0:0:
316,224,109702,6,0,B|252:232|252:232|216:216|204:176,1,135,2|8,0:0|0:0,0:0:0:0:
216,104,110068,1,2,0:0:0:0:
188,280,110251,1,8,0:0:0:0:
404,216,110434,1,2,0:0:0:0:
284,304,110617,1,0,0:0:0:0:
284,304,110709,1,8,0:0:0:0:
284,304,110800,1,2,0:0:0:0:
264,156,110983,1,8,0:0:0:0:
220,356,111166,6,0,P|176:356|120:364,1,90,2|0,0:0|0:0,0:0:0:0:
72,264,111440,2,0,P|116:272|172:272,1,90,8|0,0:0|0:0,0:0:0:0:
240,276,111715,1,8,0:0:0:0:
312,172,111898,2,0,B|280:112|280:112|288:28,1,135,2|8,0:0|0:0,0:0:0:0:
376,28,112263,2,0,P|387:45|400:68,1,45,8|0,0:0|0:0,0:0:0:0:
460,136,112446,2,0,P|444:176|436:192,1,45,8|0,0:0|0:0,0:0:0:0:
372,240,112629,6,0,P|360:280|352:328,1,90,2|0,0:0|0:0,0:0:0:0:
350,341,112904,1,8,0:0:0:0:
349,354,112995,1,2,0:0:0:0:
444,288,113178,1,8,0:0:0:0:
288,224,113361,2,0,P|272:168|264:128,1,90,2|0,0:0|0:0,0:0:0:0:
263,123,113635,1,8,0:0:0:0:
262,109,113727,1,2,0:0:0:0:
416,28,113910,1,8,0:0:0:0:
368,236,114093,1,4,0:0:0:0:
136,96,114276,5,8,0:3:0:0:
140,124,114367,1,8,0:3:0:0:
144,152,114459,1,8,0:3:0:0:
148,180,114550,1,8,0:3:0:0:
152,208,114641,1,8,0:3:0:0:
156,236,114733,1,8,0:3:0:0:
160,264,114824,1,8,0:3:0:0:
164,292,114916,1,8,0:3:0:0:
168,320,115007,6,0,L|212:308,1,45,8|0,0:0|0:0,0:0:0:0:
320,240,115190,2,0,L|276:228,1,45,8|8,0:0|0:0,0:0:0:0:
96,180,115373,2,0,L|104:232,1,45,8|8,0:0|0:0,0:0:0:0:
320,344,115556,1,4,0:1:0:0:
256,192,115635,12,0,118095,3:0:0:0:
108,96,120317,6,0,L|116:164,1,67.5000025749208,0|2,0:0|0:0,0:0:0:0:
204,152,120635,2,0,P|196:232|192:296,1,135.000005149842,4|0,0:0|0:0,0:0:0:0:
256,352,121111,1,0,0:0:0:0:
344,316,121270,2,0,P|392:308|432:300,1,67.5000025749208,8|0,0:0|0:0,0:0:0:0:
284,100,121746,5,2,0:0:0:0:
268,264,122063,1,2,0:0:0:0:
212,168,122222,2,0,P|196:108|196:80,1,67.5000025749208,2|0,0:0|0:0,0:0:0:0:
380,36,122540,2,0,P|372:112|356:176,1,135.000005149842,8|0,0:0|0:0,0:0:0:0:
176,344,123175,6,0,P|152:268|40:300,1,202.500007724762,2|0,0:0|0:0,0:0:0:0:
40,296,123809,2,0,P|31:240|31:228,1,67.5000025749208,8|0,0:0|0:0,0:0:0:0:
69,139,124127,5,0,0:0:0:0:
176,164,124286,1,2,0:0:0:0:
69,139,124444,1,0,0:0:0:0:
189,247,124603,1,2,0:0:0:0:
221,88,124762,2,0,P|228:52|240:16,1,67.5000025749208,2|0,0:0|0:0,0:0:0:0:
332,156,125079,2,0,P|325:120|313:84,1,67.5000025749208,8|0,0:0|0:0,0:0:0:0:
216,228,125397,5,0,0:0:0:0:
212,80,125555,1,0,0:0:0:0:
340,164,125714,2,0,P|348:200|348:300,1,135.000005149842,4|0,0:0|0:0,0:0:0:0:
248,328,126190,1,0,0:0:0:0:
168,256,126349,2,0,P|176:208|180:188,1,67.5000025749208,8|0,0:0|0:0,0:0:0:0:
248,112,126667,1,0,0:0:0:0:
96,148,126825,6,0,P|112:116|136:80,1,67.5000025749208,2|0,0:0|0:0,0:0:0:0:
204,20,127143,1,2,0:0:0:0:
252,216,127302,2,0,P|244:268|244:304,1,67.5000025749208,2|0,0:0|0:0,0:0:0:0:
340,340,127619,2,0,P|380:328|344:196,1,202.500007724762,8|0,0:0|0:0,0:0:0:0:
344,196,128254,6,0,B|280:220|280:220|204:212,1,135.000005149842,2|0,0:0|0:0,0:0:0:0:
268,136,128730,1,0,0:0:0:0:
220,288,128889,2,0,L|144:280,1,67.5000025749208,8|0,0:0|0:0,0:0:0:0:
88,200,129206,1,0,0:0:0:0:
240,304,129365,6,0,L|316:296,1,67.5000025749208,2|0,0:0|0:0,0:0:0:0:
408,280,129682,1,2,0:0:0:0:
208,216,129841,2,0,P|200:164|200:132,1,67.5000025749208,2|0,0:0|0:0,0:0:0:0:
344,36,130159,6,0,L|340:140,1,101.250003862381,2|2,0:0|0:0,0:0:0:0:
112,280,131424,6,0,L|120:332,2,45,4|0|2,0:0|0:0|0:0,0:0:0:0:
96,184,131741,1,0,0:0:0:0:
208,280,131900,1,2,0:0:0:0:
232,136,132058,2,0,P|240:84|244:44,1,90,8|0,0:0|0:0,0:0:0:0:
289,219,132376,6,0,L|296:264,2,45,2|0|2,0:0|0:0|0:0,0:0:0:0:
328,124,132693,1,0,0:0:0:0:
184,212,132852,1,2,0:0:0:0:
392,288,133011,2,0,L|376:188,1,90,8|0,0:0|0:0,0:0:0:0:
220,108,133328,5,2,0:0:0:0:
248,284,133487,1,2,0:0:0:0:
388,176,133646,1,8,0:0:0:0:
236,296,133804,1,0,0:0:0:0:
400,164,133963,6,0,L|384:256,1,90,2|2,0:0|0:0,0:0:0:0:
152,304,134281,1,0,0:0:0:0:
268,372,134439,1,2,0:0:0:0:
224,224,134598,2,0,P|208:156|204:116,1,90,8|0,0:0|0:0,0:0:0:0:
192,12,134916,5,2,0:0:0:0:
344,40,135074,2,0,P|337:84|325:127,1,90,2|0,0:0|0:0,0:0:0:0:
140,200,135392,1,0,0:0:0:0:
304,248,135550,1,8,0:0:0:0:
194,93,135709,1,2,0:0:0:0:
194,93,135789,1,2,0:0:0:0:
194,93,135868,2,0,B|218:157|218:157|226:245,2,135,4|4|4,0:3|0:3|0:3,0:0:0:0:
160,280,136503,6,0,L|152:328,1,45,4|0,0:0|0:0,0:0:0:0:
252,364,136662,2,0,L|244:316,1,45,2|0,0:0|0:0,0:0:0:0:
304,248,136820,1,2,0:0:0:0:
148,348,136979,1,0,0:0:0:0:
376,384,137138,2,0,L|368:288,1,90,8|0,0:0|0:0,0:0:0:0:
193,93,137455,6,0,L|197:153,1,45,2|0,0:0|0:0,0:0:0:0:
280,184,137614,2,0,L|276:124,1,45,2|0,0:0|0:0,0:0:0:0:
164,64,137773,2,0,L|172:164,1,90,0|2,0:0|0:0,0:0:0:0:
256,312,138090,6,0,P|332:280|392:264,1,135,8|0,0:0|0:0,0:0:0:0:
382,266,138408,1,2,0:0:0:0:
216,216,138566,1,2,0:0:0:0:
416,96,138725,2,0,P|408:144|396:196,1,90,8|0,0:0|0:0,0:0:0:0:
152,264,139043,5,2,0:0:0:0:
200,132,139201,1,2,0:0:0:0:
288,240,139360,1,0,0:0:0:0:
128,208,139519,1,2,0:0:0:0:
280,132,139677,1,8,0:0:0:0:
116,96,139836,1,0,0:0:0:0:
320,48,139995,5,2,0:0:0:0:
160,104,140154,1,2,0:0:0:0:
352,164,140312,1,0,0:0:0:0:
190,216,140471,1,2,0:0:0:0:
352,272,140630,1,8,0:0:0:0:
252,128,140789,5,2,0:0:0:0:
252,128,140868,1,2,0:0:0:0:
252,128,140947,1,8,0:0:0:0:
252,304,141106,1,8,0:0:0:0:
352,164,141265,1,8,0:0:0:0:
190,216,141424,1,8,0:0:0:0:
352,272,141582,6,0,P|392:284|444:296,1,90,4|0,0:0|0:0,0:0:0:0:
277,216,141900,1,8,0:0:0:0:
168,340,142058,1,0,0:0:0:0:
168,340,142138,1,0,0:0:0:0:
168,340,142217,2,0,P|152:288|152:248,1,90,2|0,0:0|0:0,0:0:0:0:
260,128,142535,2,0,P|276:180|276:220,1,90,8|0,0:0|0:0,0:0:0:0:
76,328,142852,5,2,0:0:0:0:
152,252,143011,2,0,P|140:180|124:148,1,90,0|8,0:0|0:0,0:0:0:0:
44,96,143328,1,0,0:0:0:0:
152,252,143487,2,0,P|204:248|268:232,1,90,2|0,0:0|0:0,0:0:0:0:
368,188,143804,1,8,0:0:0:0:
256,108,143963,1,0,0:0:0:0:
148,256,144122,6,0,L|132:156,1,90,2|0,0:0|0:0,0:0:0:0:
356,96,144439,1,8,0:0:0:0:
268,204,144598,1,0,0:0:0:0:
360,92,144757,2,0,L|376:192,1,90,2|0,0:0|0:0,0:0:0:0:
244,312,145074,2,0,P|164:292|88:280,1,135,8|0,0:0|0:0,0:0:0:0:
112,283,145392,5,2,0:0:0:0:
200,216,145550,1,0,0:0:0:0:
320,352,145709,2,0,P|352:280|384:224,1,135,8|0,0:0|0:0,0:0:0:0:
379,231,146027,1,2,0:0:0:0:
432,336,146185,1,0,0:0:0:0:
280,236,146344,2,0,P|272:174|270:141,1,90,8|0,0:0|0:0,0:0:0:0:
376,40,146662,6,0,P|460:100|428:176,1,180,4|8,0:0|0:0,0:0:0:0:
208,304,147138,2,0,P|168:316|116:320,1,90,0|2,0:0|0:0,0:0:0:0:
64,184,147455,2,0,P|108:187|151:200,1,90,0|8,0:0|0:0,0:0:0:0:
260,220,147773,1,0,0:0:0:0:
304,116,147931,6,0,P|360:156|436:132,1,135,2|0,0:0|0:0,0:0:0:0:
421,144,148249,2,0,B|424:96|424:96|420:48,1,90,8|0,0:0|0:0,0:0:0:0:
212,24,148566,2,0,B|212:92|212:92|228:160,1,135,2|0,0:0|0:0,0:0:0:0:
227,157,148884,2,0,P|223:227|215:267,1,90,8|0,0:0|0:0,0:0:0:0:
72,252,149201,6,0,L|68:208,3,45,6|2|2|2,0:0|0:0|0:0|0:0,0:0:0:0:
16,88,149519,2,0,L|20:148,3,45,8|0|0|0,0:0|0:0|0:0|0:0,0:0:0:0:
44,160,149836,5,8,0:0:0:0:
72,180,149916,1,2,0:0:0:0:
104,192,149995,1,2,0:0:0:0:
140,196,150074,1,2,0:0:0:0:
176,184,150154,1,8,0:0:0:0:
208,168,150233,1,2,0:0:0:0:
228,140,150312,1,2,0:0:0:0:
240,104,150392,1,2,0:0:0:0:
240,68,150471,5,8,0:0:0:0:
268,96,150550,1,2,0:0:0:0:
280,136,150630,1,2,0:0:0:0:
284,176,150709,1,2,0:0:0:0:
276,216,150789,1,8,0:0:0:0:
256,252,150868,1,2,0:0:0:0:
244,292,150947,1,2,0:0:0:0:
244,332,151027,1,2,0:0:0:0:
256,372,151106,5,8,0:0:0:0:
296,348,151185,1,2,0:0:0:0:
300,304,151265,1,2,0:0:0:0:
272,268,151344,1,2,0:0:0:0:
228,260,151423,1,8,0:0:0:0:
192,284,151503,1,2,0:0:0:0:
152,304,151582,1,2,0:0:0:0:
108,316,151662,1,2,0:0:0:0:
64,312,151741,6,0,P|20:280|28:200,1,135,4|0,0:0|0:0,0:0:0:0:
40,128,152058,2,0,P|52:78|48:26,1,90,8|0,0:0|0:0,0:0:0:0:
128,184,152376,2,0,P|127:228|138:272,1,90,2|0,0:0|0:0,0:0:0:0:
228,160,152693,2,0,P|240:110|236:58,1,90,8|0,0:0|0:0,0:0:0:0:
308,220,153011,6,0,P|396:240|448:168,1,180,2|8,0:0|0:0,0:0:0:0:
228,160,153487,2,0,P|216:216|224:272,1,90,0|2,0:0|0:0,0:0:0:0:
367,166,153804,2,0,P|368:121|357:77,1,90,0|8,0:0|0:0,0:0:0:0:
220,64,154122,1,0,0:0:0:0:
296,260,154281,6,0,L|484:228,1,180,2|8,0:0|0:0,0:0:0:0:
332,344,154757,2,0,P|260:348|204:264,1,180
252,92,155233,2,0,L|244:184,1,90,8|0,0:0|0:0,0:0:0:0:
120,300,155550,5,2,0:0:0:0:
80,200,155709,1,0,0:0:0:0:
224,304,155868,2,0,P|272:300|324:284,1,90,8|0,0:0|0:0,0:0:0:0:
360,152,156185,1,2,0:0:0:0:
256,200,156344,1,0,0:0:0:0:
416,248,156503,1,8,0:0:0:0:
224,192,156662,1,0,0:0:0:0:
416,248,156820,6,0,P|420:148|348:120,1,180,4|2,0:0|0:0,0:0:0:0:
248,176,157297,1,0,0:0:0:0:
252,52,157455,2,0,L|154:66,1,90,8|0,0:0|0:0,0:0:0:0:
149,60,157693,1,0,0:0:0:0:
135,56,157773,1,2,0:0:0:0:
248,176,157931,1,8,0:0:0:0:
360,120,158090,5,2,0:0:0:0:
236,184,158249,1,8,0:0:0:0:
416,208,158408,1,8,0:0:0:0:
312,64,158566,1,0,0:0:0:0:
312,64,158646,1,2,0:0:0:0:
312,64,158725,1,2,0:0:0:0:
344,260,158884,1,8,0:0:0:0:
412,148,159043,1,8,0:0:0:0:
240,224,159201,1,8,0:0:0:0:
112,80,159360,5,2,0:0:0:0:
116,92,159439,1,2,0:0:0:0:
120,104,159519,1,2,0:0:0:0:
124,116,159598,1,2,0:0:0:0:
128,128,159677,1,2,0:0:0:0:
224,16,159836,2,0,L|216:112,1,90,8|0,0:0|0:0,0:0:0:0:
96,212,160154,1,2,0:0:0:0:
312,100,160312,2,0,L|280:196,1,90,8|2,0:0|0:0,0:0:0:0:
283,185,160550,1,2,0:0:0:0:
283,185,160630,1,2,0:0:0:0:
212,312,160789,6,0,P|196:240|196:208,1,90,2|0,0:0|0:0,0:0:0:0:
380,176,161106,1,8,0:0:0:0:
292,300,161265,1,0,0:0:0:0:
216,120,161423,1,2,0:0:0:0:
192,132,161503,1,2,0:0:0:0:
168,140,161582,1,8,0:3:0:0:
140,144,161662,1,8,0:3:0:0:
112,144,161741,1,2,0:0:0:0:
84,140,161820,1,2,0:0:0:0:
60,132,161900,1,4,0:0:0:0:
248,220,162058,5,2,0:0:0:0:
128,192,162217,1,2,0:0:0:0:
272,96,162376,1,8,0:0:0:0:
280,272,162535,1,2,0:0:0:0:
376,160,162693,1,2,0:0:0:0:
172,76,162852,2,0,L|184:176,1,90,8|2,0:0|0:0,0:0:0:0:
416,304,163170,5,8,0:0:0:0:
381,276,163249,1,8,0:0:0:0:
338,263,163328,1,2,0:0:0:0:
293,269,163408,1,2,0:0:0:0:
256,294,163487,1,8,0:3:0:0:
221,322,163566,1,8,0:3:0:0:
179,335,163646,1,2,0:0:0:0:
134,330,163725,1,2,0:0:0:0:
97,305,163804,1,8,0:0:0:0:
332,112,163963,1,8,0:0:0:0:
336,108,164281,6,0,L|320:304,1,180,4|2,0:0|0:0,0:0:0:0:
196,364,164757,2,0,L|180:264,1,90,8|0,0:0|0:0,0:0:0:0:
88,216,165074,1,2,0:0:0:0:
244,184,165233,1,2,0:0:0:0:
116,112,165392,1,8,0:0:0:0:
268,200,165550,6,0,L|360:196,1,90,2|0,0:0|0:0,0:0:0:0:
452,288,165868,2,0,L|360:292,1,90,2|8,0:0|0:0,0:0:0:0:
180,236,166185,1,2,0:0:0:0:
288,136,166344,2,0,P|300:192|304:224,1,90,2|0,0:0|0:0,0:0:0:0:
144,348,166662,1,8,0:0:0:0:
144,348,166820,6,0,P|100:284|-16:316,1,180,4|2,0:0|0:0,0:0:0:0:
232,376,167297,2,0,P|232:324|228:276,1,90,8|0,0:0|0:0,0:0:0:0:
116,216,167614,1,2,0:0:0:0:
240,292,167773,1,2,0:0:0:0:
240,144,167931,1,8,0:0:0:0:
104,220,168090,1,2,0:0:0:0:
252,296,168249,6,0,P|304:288|344:280,1,90,0|2,0:0|0:0,0:0:0:0:
148,136,168566,1,8,0:0:0:0:
152,296,168725,1,2,0:0:0:0:
292,216,168884,1,2,0:0:0:0:
92,244,169043,1,0,0:0:0:0:
216,360,169201,1,8,0:0:0:0:
120,176,169360,6,0,L|136:368,1,180,4|2,0:0|0:0,0:0:0:0:
367,366,169836,2,0,L|359:258,1,90,4|2,0:0|0:0,0:0:0:0:
304,160,170154,1,2,0:0:0:0:
312,296,170312,1,2,0:0:0:0:
428,224,170471,1,8,0:0:0:0:
204,100,170630,6,0,L|220:292,1,180,4|2,0:0|0:0,0:0:0:0:
448,336,171106,2,0,L|440:228,1,90,4|2,0:0|0:0,0:0:0:0:
308,136,171423,1,2,0:0:0:0:
116,224,171582,2,0,P|124:152|132:108,1,90,0|8,0:0|0:0,0:0:0:0:
336,56,171900,6,0,P|384:92|344:212,2,180,4|2|2,0:0|0:0|0:0,0:0:0:0:
240,248,172693,1,2,0:0:0:0:
308,136,172852,1,2,0:0:0:0:
320,304,173011,1,8,0:0:0:0:
152,272,173170,6,0,P|160:192|160:168,1,90,4|0,0:0|0:0,0:0:0:0:
52,92,173487,2,0,P|44:172|44:196,1,90,2|8,0:0|0:0,0:0:0:0:
184,360,173804,1,0,0:0:0:0:
252,280,173963,1,2,0:0:0:0:
84,216,174122,1,2,0:0:0:0:
80,324,174281,1,8,0:0:0:0:
336,356,174439,6,0,P|320:224|320:176,1,180,4|2,0:0|0:0,0:0:0:0:
340,40,174916,1,8,0:0:0:0:
408,184,175074,1,0,0:0:0:0:
340,40,175233,1,2,0:0:0:0:
240,116,175392,2,0,P|164:100|140:92,1,90,2|8,0:0|0:0,0:0:0:0:
336,136,175709,5,2,0:0:0:0:
220,40,175868,1,0,0:0:0:0:
228,196,176027,1,2,0:0:0:0:
368,128,176185,2,0,P|368:72|364:32,1,90,8|2,0:0|0:0,0:0:0:0:
200,200,176503,2,0,P|200:144|204:104,1,90,2|0,0:0|0:0,0:0:0:0:
444,80,176820,1,8,0:0:0:0:
304,240,176979,6,0,P|236:168|152:204,1,180,4|2,0:0|0:0,0:0:0:0:
160,372,177455,2,0,P|176:316|180:280,1,90,8|0,0:0|0:0,0:0:0:0:
88,124,177773,2,0,P|72:180|68:216,1,90,2|2,0:0|0:0,0:0:0:0:
260,312,178090,1,8,0:0:0:0:
360,148,178249,1,0,0:0:0:0:
180,284,178408,6,0,P|172:220|172:176,1,90,0|2,0:0|0:0,0:0:0:0:
244,100,178725,1,8,0:0:0:0:
284,236,178884,1,0,0:0:0:0:
348,108,179043,1,2,0:0:0:0:
192,188,179201,1,2,0:0:0:0:
340,288,179360,1,8,0:0:0:0:
248,60,179519,6,0,L|232:256,1,180,4|2,0:0|0:0,0:0:0:0:
28,308,179995,2,0,L|36:204,1,90,4|0,0:0|0:0,0:0:0:0:
176,80,180312,1,2,0:0:0:0:
164,232,180471,1,2,0:0:0:0:
44,144,180630,1,8,0:0:0:0:
328,32,180789,6,0,L|312:228,1,180,4|2,0:0|0:0,0:0:0:0:
104,348,181265,2,0,L|112:244,1,90,4|0,0:0|0:0,0:0:0:0:
120,112,181582,1,2,0:0:0:0:
268,196,181741,2,0,P|284:236|300:292,1,90,0|8,0:0|0:0,0:0:0:0:
104,348,182058,6,0,P|56:332|68:200,1,180,4|8,0:0|0:0,0:0:0:0:
44,218,182455,1,8,0:0:0:0:
44,218,182535,1,8,0:0:0:0:
200,124,182693,1,8,0:0:0:0:
176,272,182852,1,0,0:0:0:0:
92,116,183011,1,2,0:0:0:0:
92,116,183090,1,2,0:0:0:0:
92,116,183170,1,8,0:3:0:0:
200,312,183328,6,0,L|196:216,1,90,4|0,0:0|0:0,0:0:0:0:
288,132,183646,2,0,L|292:228,1,90,2|0,0:0|0:0,0:0:0:0:
184,336,183963,1,2,0:0:0:0:
344,296,184122,1,2,0:3:0:0:
356,316,184201,1,0,0:0:0:0:
368,336,184281,1,4,0:3:0:0:
200,200,184439,1,4,0:3:0:0:
280,376,184598,6,0,B|364:348|364:348|464:348,1,180,4|2,0:0|0:0,0:0:0:0:
296,284,185074,2,0,P|284:236|280:184,1,90,2|0,0:0|0:0,0:0:0:0:
428,48,185392,1,8,0:0:0:0:
452,152,185550,2,0,P|396:144|352:128,1,90,2|0,0:0|0:0,0:0:0:0:
112,220,185868,2,0,P|154:206|199:201,1,90,2|0,0:0|0:0,0:0:0:0:
248,96,186185,5,2,0:0:0:0:
384,264,186344,2,0,P|341:277|296:282,1,90,2|0,0:0|0:0,0:0:0:0:
32,268,186662,2,0,P|28:180|104:124,1,180,8|0,0:0|0:0,0:0:0:0:
296,36,187138,6,0,P|280:108|272:228,1,180,4|2,0:0|0:0,0:0:0:0:
352,312,187614,2,0,P|364:272|368:204,1,90
200,100,187931,1,8,0:0:0:0:
143,224,188090,2,0,P|147:268|160:312,1,90,2|0,0:0|0:0,0:0:0:0:
344,356,188408,6,0,P|396:344|444:336,1,90,2|0,0:0|0:0,0:0:0:0:
208,324,188725,2,0,P|156:312|108:304,1,90,2|0,0:0|0:0,0:0:0:0:
308,232,189043,1,2,0:0:0:0:
136,180,189201,1,8,0:0:0:0:
208,324,189360,2,0,P|260:316|296:308,1,90,2|0,0:0|0:0,0:0:0:0:
460,172,189677,6,0,P|448:124|320:132,1,180,4|2,0:0|0:0,0:0:0:0:
160,64,190154,2,0,P|160:120|172:172,1,90,2|0,0:0|0:0,0:0:0:0:
292,328,190471,1,8,0:0:0:0:
188,264,190630,2,0,P|132:276|100:288,1,90,2|0,0:0|0:0,0:0:0:0:
292,328,190947,6,0,P|276:236|268:132,1,180,2|2,0:0|0:0,0:0:0:0:
388,40,191423,2,0,P|380:104|372:140,1,90,2|0,0:0|0:0,0:0:0:0:
180,248,191741,1,8,0:0:0:0:
328,260,191900,2,0,L|420:268,1,90,2|0,0:0|0:0,0:0:0:0:
180,248,192217,6,0,P|96:168|40:188,1,180,4|2,0:0|0:0,0:0:0:0:
228,368,192693,2,0,P|244:324|252:276,1,90
96,252,193011,5,8,0:0:0:0:
97,256,193090,1,8,0:0:0:0:
98,260,193170,1,2,0:0:0:0:
253,204,193328,1,8,0:0:0:0:
252,200,193408,1,8,0:0:0:0:
251,196,193487,1,2,0:0:0:0:
114,147,193646,5,8,0:0:0:0:
115,151,193725,1,8,0:0:0:0:
116,155,193804,1,2,0:0:0:0:
188,268,193963,1,8,0:0:0:0:
187,264,194043,1,8,0:0:0:0:
186,260,194122,1,2,0:0:0:0:
256,373,194281,1,8,0:0:0:0:
257,377,194360,1,8,0:0:0:0:
258,381,194439,1,2,0:0:0:0:
272,236,194598,1,4,0:3:0:0:
132,352,194757,6,0,P|88:336|92:220,1,180,4|2,0:0|0:0,0:0:0:0:
288,64,195233,2,0,L|276:164,1,90,8|2,0:0|0:0,0:0:0:0:
256,292,195550,1,2,0:0:0:0:
328,176,195709,1,2,0:0:0:0:
132,280,195868,1,8,0:0:0:0:
300,348,196027,6,0,L|292:248,1,90,4|0,0:0|0:0,0:0:0:0:
192,160,196344,1,2,0:0:0:0:
388,240,196503,1,8,0:0:0:0:
164,296,196662,1,2,0:0:0:0:
164,296,196741,1,2,0:0:0:0:
164,296,196820,1,2,0:0:0:0:
280,152,196979,2,0,P|264:228|260:264,1,90,2|8,0:0|0:0,0:0:0:0:
428,332,197297,6,0,P|416:236|344:244,1,180,4|2,0:0|0:0,0:0:0:0:
104,356,197773,2,0,P|84:284|88:244,1,90,8|2,0:0|0:0,0:0:0:0:
88,248,198011,1,2,0:0:0:0:
96,228,198090,1,2,0:0:0:0:
208,312,198249,1,2,0:0:0:0:
160,140,198408,1,8,0:0:0:0:
328,216,198566,6,0,P|320:272|308:316,1,90,4|0,0:0|0:0,0:0:0:0:
196,360,198884,2,0,P|185:316|179:271,1,90,2|8,0:0|0:0,0:0:0:0:
308,132,199201,1,2,0:0:0:0:
288,144,199281,1,2,0:0:0:0:
268,156,199360,2,0,P|220:144|172:140,1,90,2|2,0:0|0:0,0:0:0:0:
72,56,199677,1,8,0:0:0:0:
20,300,199836,6,0,P|84:240|204:268,1,180,4|2,0:0|0:0,0:0:0:0:
334,352,200312,2,0,P|282:329|250:301,1,90,8|2,0:0|0:0,0:0:0:0:
247,298,200550,1,2,0:0:0:0:
242,285,200630,1,2,0:0:0:0:
269,116,200789,2,0,P|275:171|267:213,1,90,2|8,0:0|0:0,0:0:0:0:
116,324,201106,6,0,L|92:136,1,180,4|2,0:0|0:0,0:0:0:0:
324,52,201582,1,8,0:0:0:0:
224,152,201741,1,2,0:0:0:0:
224,152,201820,1,2,0:0:0:0:
224,152,201900,1,2,0:0:0:0:
360,196,202058,1,2,0:0:0:0:
240,68,202217,1,8,0:0:0:0:
208,236,202376,6,0,B|200:304|180:344|180:344|148:360|108:340,1,180,4|2,0:0|0:0,0:0:0:0:
96,136,202852,2,0,P|104:192|116:236,1,90,2|0,0:0|0:0,0:0:0:0:
272,336,203170,2,0,P|282:292|288:247,1,90,8|0,0:0|0:0,0:0:0:0:
368,68,203487,1,2,0:0:0:0:
372,88,203566,1,2,0:0:0:0:
376,112,203646,1,2,0:0:0:0:
380,136,203725,1,2,0:0:0:0:
384,160,203804,6,0,P|328:144|272:132,1,90,2|0,0:0|0:0,0:0:0:0:
120,92,204122,1,2,0:0:0:0:
99,109,204201,1,2,0:0:0:0:
82,130,204281,1,2,0:0:0:0:
69,154,204360,1,2,0:0:0:0:
63,180,204439,1,8,0:0:0:0:
128,312,204598,1,0,0:0:0:0:
204,156,204757,1,8,0:0:0:0:
284,344,204916,6,0,B|304:300|292:256|292:256|276:212|300:168,1,180,4|2,0:0|0:0,0:0:0:0:
456,200,205392,2,0,P|404:216|360:220,1,90,2|0,0:0|0:0,0:0:0:0:
128,312,205709,2,0,P|180:296|224:292,1,90,8|2,0:0|0:0,0:0:0:0:
380,320,206027,1,0,0:0:0:0:
200,192,206185,1,8,0:3:0:0:
308,116,206344,6,0,L|296:212,1,90,2|8,0:0|0:0,0:0:0:0:
188,376,206662,1,0,0:0:0:0:
280,312,206820,1,2,0:0:0:0:
160,240,206979,2,0,P|144:184|140:128,1,90,8|0,0:3|0:0,0:0:0:0:
368,64,207297,1,0,0:0:0:0:
280,180,207455,1,0,0:0:0:0:
412,224,207614,5,4,0:0:0:0:
256,168,207773,1,0,0:0:0:0:
468,104,207931,2,0,L|460:228,1,90,2|0,0:0|0:0,0:0:0:0:
220,264,208249,1,8,0:0:0:0:
220,264,208408,1,2,0:0:0:0:
344,160,208566,1,0,0:0:0:0:
228,348,208725,6,0,P|160:328|144:224,1,180,2|2,0:0|0:0,0:0:0:0:
156,196,209122,1,2,0:0:0:0:
168,164,209201,2,0,P|176:108|172:68,1,90,2|0,0:0|0:0,0:0:0:0:
60,296,209519,1,8,0:0:0:0:
240,208,209677,1,2,0:0:0:0:
80,120,209836,2,0,L|88:224,1,90,0|8,0:0|0:0,0:0:0:0:
272,320,210154,5,4,0:0:0:0:
296,152,210312,1,0,0:0:0:0:
376,228,210471,2,0,P|384:128|380:84,1,135
380,72,210789,1,8,0:0:0:0:
248,148,210947,1,0,0:0:0:0:
380,232,211106,1,0,0:0:0:0:
184,208,211265,6,0,P|180:264|192:320,1,90,2|0,0:0|0:0,0:0:0:0:
328,360,211582,1,2,0:0:0:0:
328,360,211662,1,2,0:0:0:0:
328,360,211741,2,0,P|332:304|320:248,1,90,2|0,0:0|0:0,0:0:0:0:
192,128,212058,1,8,0:0:0:0:
192,128,212217,1,0,0:0:0:0:
232,316,212376,5,8,0:0:0:0:
260,296,212455,1,8,0:0:0:0:
296,284,212535,1,8,0:0:0:0:
332,284,212614,1,8,0:0:0:0:
368,292,212693,1,8,0:0:0:0:
393,318,212773,1,8,0:0:0:0:
401,352,212852,2,0,P|437:357|455:357,1,45,8|0,0:0|0:0,0:0:0:0:
464,284,213011,6,0,B|496:196|496:196|468:156|456:100,1,180,4|2,0:0|0:0,0:0:0:0:
316,40,213487,1,8,0:0:0:0:
336,192,213646,1,0,0:0:0:0:
196,212,213804,1,2,0:0:0:0:
352,108,213963,1,8,0:0:0:0:
284,256,214122,1,2,0:0:0:0:
256,100,214281,5,2,0:0:0:0:
396,256,214439,1,8,0:0:0:0:
252,88,214598,1,2,0:0:0:0:
200,296,214757,1,2,0:0:0:0:
376,208,214916,1,8,0:0:0:0:
148,176,215074,1,2,0:0:0:0:
288,316,215233,6,0,L|276:216,1,90,2|8,0:0|0:0,0:0:0:0:
168,96,215550,1,2,0:0:0:0:
124,256,215709,1,2,0:0:0:0:
124,256,215868,2,0,L|112:156,1,90,8|2,0:0|0:0,0:0:0:0:
256,80,216185,1,2,0:0:0:0:
200,308,216344,6,0,P|296:252|372:248,1,180,4|2,0:0|0:0,0:0:0:0:
500,312,216820,1,8,0:0:0:0:
356,236,216979,1,2,0:0:0:0:
456,100,217138,5,2,0:0:0:0:
452,136,217217,1,2,0:0:0:0:
448,172,217297,1,2,0:0:0:0:
444,208,217376,1,2,0:0:0:0:
440,244,217455,2,0,L|431:306,1,45,8|2,0:0|0:0,0:0:0:0:
256,148,217614,1,4,0:0:0:0:
