osu file format v13

[General]
AudioFilename: Rave-up Tonight - Fear, and Loathing in Las Vegas.mp3
AudioLeadIn: 1000
PreviewTime: 168501
Countdown: 0
SampleSet: Soft
StackLeniency: 0.7
Mode: 0
LetterboxInBreaks: 1
WidescreenStoryboard: 0

[Editor]
DistanceSpacing: 1.1
BeatDivisor: 4
GridSize: 4
TimelineZoom: 2.6

[Metadata]
Title:Rave-up Tonight
TitleUnicode:Rave-up Tonight
Artist:Fear, and Loathing in Las Vegas
ArtistUnicode:Fear, and Loathing in Las Vegas
Creator:lightr
Version:Normal
Source:
Tags:J-pop Electronic core post-hardcore dance Jemmmmy Natsu PHASE 2 MOBILE SUIT GUNDAM EXTREME VS. MAXI BOOST
BeatmapID:430849
BeatmapSetID:176832

[Difficulty]
HPDrainRate:3
CircleSize:3
OverallDifficulty:4
ApproachRate:5
SliderMultiplier:1
SliderTickRate:1

[Events]
//Background and Video events
0,0,"bb.jpg",0,0
//Break Periods
2,97350,107950
2,161241,167625
//Storyboard Layer 0 (Background)
//Storyboard Layer 1 (Fail)
//Storyboard Layer 2 (Pass)
//Storyboard Layer 3 (Foreground)
//Storyboard Sound Samples
//Background Colour Transformations
3,100,163,162,255

[TimingPoints]
1150,375,4,2,1,80,1,0
5556,-100,4,2,1,60,0,0
18306,-100,4,2,2,60,0,0
20462,-100,4,2,1,60,0,0
23556,-100,4,2,1,60,0,0
32650,-100,4,2,1,70,0,0
44650,-100,4,2,1,50,0,0
55525,-100,4,2,1,70,0,0
71650,-100,4,2,1,90,0,1
97150,-100,4,1,1,80,0,0
109150,324.324324324324,4,2,1,70,1,0
137690,-100,4,1,1,90,0,1
158447,-100,4,1,1,60,0,0
159744,-100,4,2,1,60,0,0
168825,-100,4,2,1,90,0,1
189582,-100,4,2,1,60,0,0
202231,-100,4,2,1,5,0,0

[Colours]
Combo1 : 255,128,64
Combo2 : 15,231,242
Combo3 : 255,0,128
Combo4 : 255,85,255

[HitObjects]
256,192,1150,12,4,3962,0:0:0:0:
56,241,5650,6,0,B|104:249|104:249|156:241,1,100,6|0,0:0|0:0,0:0:0:0:
260,204,6400,2,0,B|308:196|308:196|360:204,1,100
440,280,7150,2,0,L|456:212,1,50
452,176,7525,2,0,L|440:127,1,50
352,60,8087,2,0,P|332:104|328:168,1,100
328,212,8650,6,0,P|292:240|252:252,2,75
376,188,9400,2,0,P|432:184|492:200,1,100
420,288,10150,2,0,P|364:292|304:276,1,100
268,264,10712,2,0,P|204:252|116:272,1,150
28,328,11650,6,0,P|12:288|20:240,2,75,0|0|0,0:0|0:0|0:0,0:0:0:0:
76,356,12400,2,0,P|128:368|184:352,1,100
268,300,13150,2,0,B|332:272|380:304|380:304|416:280,1,150
484,204,14087,2,0,L|424:184,1,50
348,121,14650,6,0,P|406:82|489:91,2,150,0|0|0,0:0|0:0|0:0,0:0:0:0:
436,186,16150,2,0,L|410:232,1,50
348,319,16712,1,0,0:0:0:0:
280,228,17087,2,0,P|236:240|200:296,1,100
184,332,17650,6,0,P|144:344|96:348,2,75,6|0|0,0:0|0:0|0:0,0:0:0:0:
240,324,18400,2,0,P|296:324|348:340,1,100,0|2,0:0|0:0,0:0:0:0:
440,356,19150,2,0,P|456:304|456:248,1,100,0|2,0:0|0:0,0:0:0:0:
348,252,19900,2,0,P|350:202|365:154,1,100,0|2,0:0|0:0,0:0:0:0:
476,164,20650,6,0,P|465:110|424:60,1,100,6|0,0:0|0:0,0:0:0:0:
392,48,21212,2,0,P|336:48|280:80,1,100
216,140,21962,2,0,P|168:164|120:160,2,100
148,52,23087,2,0,L|84:64,1,50
24,140,23650,5,2,0:0:0:0:
56,244,24025,1,2,0:0:0:0:
152,296,24400,1,2,0:0:0:0:
256,260,24775,1,2,0:0:0:0:
360,296,25150,6,0,P|408:280|452:232,1,100,2|2,0:0|0:0,0:0:0:0:
435,136,25900,2,0,P|388:150|352:185,1,100,2|2,0:0|0:0,0:0:0:0:
276,264,26650,5,6,0:0:0:0:
196,188,27025,1,2,0:0:0:0:
140,284,27400,1,2,0:0:0:0:
48,220,27775,1,2,0:0:0:0:
256,192,28150,12,6,29650,0:0:0:0:
256,192,30400,5,6,0:0:0:0:
68,308,31150,2,0,L|128:328,1,50,6|2,0:0|0:0,0:0:0:0:
168,300,31525,2,0,L|228:320,1,50,2|2,0:0|0:0,0:0:0:0:
268,296,31900,2,0,L|376:332,1,100,6|8,0:0|0:0,0:0:0:0:
456,268,32650,6,0,P|452:212|464:152,1,100,6|8,0:0|0:0,0:0:0:0:
400,72,33400,2,0,P|348:80|288:68,1,100,2|8,0:0|0:0,0:0:0:0:
248,60,33962,2,0,P|216:104|208:168,1,100
236,194,34525,2,0,P|270:238|276:304,2,100,8|2|8,0:0|0:0|0:0,0:0:0:0:
168,280,35650,6,0,P|136:284|100:280,1,50,2|0,0:0|0:0,0:0:0:0:
68,256,36025,2,0,P|60:224|60:196,1,50,8|0,0:0|0:0,0:0:0:0:
72,152,36400,2,0,P|96:100|132:64,1,100,2|8,0:0|0:0,0:0:0:0:
176,84,36962,2,0,P|224:92|284:80,1,100
328,72,37525,1,8,0:0:0:0:
420,132,37900,1,2,0:0:0:0:
376,232,38275,1,8,0:0:0:0:
288,168,38650,6,0,P|236:160|176:172,1,100,2|8,0:0|0:0,0:0:0:0:
108,240,39400,2,0,B|108:292|108:292|136:340,1,100,2|8,0:0|0:0,0:0:0:0:
184,356,39962,2,0,B|236:356|236:356|284:328,1,100
288,276,40525,2,0,L|288:168,2,100,8|2|8,0:0|0:0|0:0,0:0:0:0:
372,348,41650,6,0,P|428:332|464:284,1,100,2|8,0:0|0:0,0:0:0:0:
416,200,42400,2,0,P|424:140|448:92,1,100,2|8,0:0|0:0,0:0:0:0:
468,56,42962,1,0,0:0:0:0:
360,64,43337,6,0,L|304:76,1,50,8|8,0:0|0:0,0:0:0:0:
212,120,43900,2,0,L|156:132,1,50,8|2,0:0|0:0,0:0:0:0:
108,144,44275,1,8,0:0:0:0:
24,216,44650,6,0,P|64:248|124:252,2,100,2|2|2,0:0|0:0|0:0,0:0:0:0:
108,144,45775,1,2,0:0:0:0:
212,120,46150,2,0,L|316:96,2,100,0|2|2,0:0|0:0|0:0,0:0:0:0:
108,144,47275,1,2,0:0:0:0:
192,216,47650,6,0,P|256:248|300:256,1,100,2|2,0:0|0:0,0:0:0:0:
384,212,48400,2,0,P|392:264|372:320,1,100,2|2,0:0|0:0,0:0:0:0:
276,352,49150,2,0,L|168:356,2,100,2|2|2,0:0|0:0|0:0,0:0:0:0:
380,308,50275,1,2,0:0:0:0:
396,200,50650,6,0,P|384:144|356:104,1,100,2|2,0:0|0:0,0:0:0:0:
288,188,51400,2,0,P|240:196|176:184,1,100,2|2,0:0|0:0,0:0:0:0:
112,112,52150,2,0,P|85:154|76:203,1,100,2|2,0:0|0:0,0:0:0:0:
120,304,52900,2,0,P|76:316|12:292,1,100,2|2,0:0|0:0,0:0:0:0:
76,202,53650,5,2,0:0:0:0:
76,202,54025,1,2,0:0:0:0:
148,124,54400,1,2,0:0:0:0:
148,124,54775,1,2,0:0:0:0:
256,96,55150,2,0,L|328:108,1,50,2|8,0:0|0:0,0:0:0:0:
360,112,55525,1,8,0:0:0:0:
292,196,55900,2,0,B|276:272|276:272|336:320,1,150,2|8,0:0|0:0,0:0:0:0:
380,344,56650,5,6,0:0:0:0:
480,300,57025,1,8,0:0:0:0:
424,204,57400,1,2,0:0:0:0:
432,96,57775,1,8,0:0:0:0:
328,60,58150,2,0,P|276:80|224:80,1,100,2|8,0:0|0:0,0:0:0:0:
124,56,58900,2,0,P|100:108|100:168,1,100,2|8,0:0|0:0,0:0:0:0:
48,248,59650,6,0,P|76:296|120:324,2,100,2|8|2,0:0|0:0|0:0,0:0:0:0:
156,220,60775,1,8,0:0:0:0:
260,180,61150,2,0,L|324:160,1,50,2|0,0:0|0:0,0:0:0:0:
360,152,61525,2,0,L|400:248,1,100,8|2,0:0|0:0,0:0:0:0:
360,348,62275,1,8,0:0:0:0:
260,304,62650,6,0,P|208:301|153:325,2,100,2|8|2,0:0|0:0|0:0,0:0:0:0:
360,260,63775,1,8,0:0:0:0:
444,188,64150,2,0,P|452:132|444:72,1,100,2|8,0:0|0:0,0:0:0:0:
356,28,64900,2,0,P|348:84|356:144,1,100,2|8,0:0|0:0,0:0:0:0:
444,188,65650,6,0,P|404:224|344:236,1,100,2|8,0:0|0:0,0:0:0:0:
260,188,66400,2,0,P|208:204|172:252,1,100,2|2,0:0|0:0,0:0:0:0:
157,287,66962,1,8,0:0:0:0:
256,192,67150,12,8,68650,0:0:0:0:
219,276,70337,6,2,B|257:263|300:276,2,75,2|0|2,1:0|1:0|1:0,0:0:0:0:
80,96,71650,6,0,P|136:88|200:100,1,100,6|8,0:0|0:0,0:0:0:0:
232,112,72212,1,0,0:0:0:0:
268,152,72400,2,0,L|268:260,1,100,2|8,0:0|0:0,0:0:0:0:
192,332,73150,2,0,L|88:332,1,100,2|8,0:0|0:0,0:0:0:0:
32,240,73900,2,0,L|32:124,1,100,2|8,0:0|0:0,0:0:0:0:
116,68,74650,6,0,P|164:92|232:92,1,100,2|8,0:0|0:0,0:0:0:0:
264,80,75212,1,0,0:0:0:0:
316,60,75400,2,0,P|368:52|416:64,1,100,2|8,0:0|0:0,0:0:0:0:
464,160,76150,1,2,0:0:0:0:
464,160,76525,1,8,0:0:0:0:
422,261,76900,1,2,0:0:0:0:
422,261,77275,1,8,0:0:0:0:
322,308,77650,6,0,P|286:320|250:344,2,75,6|0|0,0:0|0:0|0:0,0:0:0:0:
376,332,78400,2,0,P|426:344|476:328,1,100,2|8,0:0|0:0,0:0:0:0:
424,236,79150,2,0,P|424:176|408:136,1,100,2|8,0:0|0:0,0:0:0:0:
308,96,79900,2,0,L|192:96,1,100,2|8,0:0|0:0,0:0:0:0:
108,140,80650,6,0,P|91:187|93:236,2,100,2|8|2,0:0|0:0|0:0,0:0:0:0:
200,204,81775,1,8,0:0:0:0:
292,140,82150,6,0,L|352:100,1,50,2|8,0:0|0:0,0:0:0:0:
440,84,82712,2,0,L|440:192,1,100,8|8,0:0|0:0,0:0:0:0:
340,312,83650,6,0,P|304:320|256:308,2,75,6|0|0,0:0|0:0|0:0,0:0:0:0:
392,300,84400,2,0,P|436:276|468:228,1,100,2|8,0:0|0:0,0:0:0:0:
460,128,85150,2,0,L|344:128,1,100,2|8,0:0|0:0,0:0:0:0:
252,140,85900,2,0,P|208:164|176:212,1,100,2|8,0:0|0:0,0:0:0:0:
208,308,86650,6,0,L|88:284,1,100,2|8,0:0|0:0,0:0:0:0:
40,204,87400,1,2,0:0:0:0:
104,116,87775,1,8,0:0:0:0:
208,84,88150,2,0,P|256:92|316:80,2,100,2|8|2,0:0|0:0|0:0,0:0:0:0:
104,116,89275,1,8,0:0:0:0:
168,204,89650,6,0,P|204:244|256:260,1,100,6|8,0:0|0:0,0:0:0:0:
344,212,90400,2,0,P|308:172|256:156,1,100,2|8,0:0|0:0,0:0:0:0:
168,204,91150,2,0,P|160:252|136:300,1,100,2|8,0:0|0:0,0:0:0:0:
64,216,91900,2,0,P|72:168|96:120,1,100,2|8,0:0|0:0,0:0:0:0:
188,64,92650,6,0,B|244:64|244:64|280:80|280:80|340:80,2,150,2|0|8,0:0|0:0|0:0,0:0:0:0:
192,176,94150,1,2,0:0:0:0:
292,224,94525,2,0,L|408:224,1,100,8|2,0:0|0:0,0:0:0:0:
476,296,95275,1,8,0:0:0:0:
256,192,95650,12,4,97150,0:0:0:0:
256,332,109150,6,0,P|308:320|352:288,1,100,8|8,0:0|0:0,0:0:0:0:
392,196,109798,2,0,L|504:208,1,100,8|0,0:0|0:0,0:0:0:0:
464,100,110447,2,0,L|364:89,1,100,8|8,0:0|0:0,0:0:0:0:
260,128,111095,2,0,P|212:140|156:136,1,100,8|8,0:0|0:0,0:0:0:0:
68,80,111744,6,0,P|52:124|64:184,2,100,6|2|0,0:0|0:0|0:0,0:0:0:0:
161,137,112717,1,2,0:0:0:0:
184,244,113041,2,0,L|204:356,1,100,2|2,0:0|0:0,0:0:0:0:
296,288,113690,2,0,P|348:296|396:336,1,100,2|2,0:0|0:0,0:0:0:0:
464,244,114339,6,0,B|400:168|312:176|312:176|336:104|284:52,1,300,6|0,0:0|0:0,0:0:0:0:
180,40,115636,2,0,L|136:96,1,50,2|8,0:0|0:0,0:0:0:0:
56,216,116285,2,0,P|96:252|160:268,1,100,2|2,0:0|0:0,0:0:0:0:
248,284,116933,6,0,B|344:212|344:332|452:248|452:248|408:172,1,300,6|2,0:0|0:0,0:0:0:0:
360,84,118231,2,0,L|296:64,1,50,2|8,0:0|0:0,0:0:0:0:
152,36,118879,2,0,L|48:80,1,100,2|2,0:0|0:0,0:0:0:0:
0,168,119528,6,0,B|40:240|128:224|128:224|120:308|188:360,1,300,6|2,0:0|0:0,0:0:0:0:
288,340,120825,2,0,B|308:264|308:264|372:204,2,150,2|0|2,0:0|0:0|0:0,0:0:0:0:
396,320,122122,6,0,P|448:336|512:324,1,100,6|2,0:0|0:0,0:0:0:0:
456,228,122771,2,0,P|460:172|480:120,1,100,0|2,0:0|0:0,0:0:0:0:
408,44,123420,2,0,P|312:32|212:96,1,200,0|2,0:0|0:0,0:0:0:0:
120,276,124717,6,0,P|164:304|224:296,1,100,6|8,0:0|0:0,0:0:0:0:
196,192,125366,2,0,P|152:164|92:172,1,100,2|8,0:0|0:0,0:0:0:0:
28,244,126014,1,2,0:0:0:0:
68,348,126339,1,8,0:0:0:0:
172,308,126663,2,0,P|224:296|280:308,1,100,2|8,0:0|0:0,0:0:0:0:
372,348,127312,6,0,L|372:232,1,100,6|8,0:0|0:0,0:0:0:0:
480,272,127960,2,0,L|480:156,1,100,2|8,0:0|0:0,0:0:0:0:
372,144,128609,2,0,L|372:28,2,100,2|8|2,0:0|0:0|0:0,0:0:0:0:
292,220,129582,1,8,0:0:0:0:
204,152,129906,6,0,P|144:164|100:192,1,100,6|8,0:0|0:0,0:0:0:0:
96,292,130555,2,0,P|145:284|189:260,1,100,2|8,0:0|0:0,0:0:0:0:
292,220,131204,2,0,P|340:248|372:300,1,100,2|8,0:0|0:0,0:0:0:0:
460,340,131852,2,0,P|472:292|456:228,1,100,2|8,0:0|0:0,0:0:0:0:
420,140,132501,5,6,0:0:0:0:
420,140,132825,1,8,0:0:0:0:
336,72,133149,1,6,0:0:0:0:
336,72,133474,1,8,0:0:0:0:
228,48,133798,2,0,P|176:52|120:92,1,100,6|8,0:0|0:0,0:0:0:0:
118,182,134447,2,0,P|168:179|212:156,1,100,6|8,0:0|0:0,0:0:0:0:
320,156,135095,5,6,0:0:0:0:
256,192,135258,12,6,137041,0:0:0:0:
256,316,137690,6,0,L|368:292,1,100,4|8,0:0|0:0,0:0:0:0:
388,188,138339,2,0,L|276:212,1,100,0|8,0:0|0:0,0:0:0:0:
184,240,138987,2,0,L|72:216,1,100,0|8,0:0|0:0,0:0:0:0:
52,112,139636,2,0,L|164:136,1,100,0|8,0:0|0:0,0:0:0:0:
256,156,140285,5,0,0:0:0:0:
256,156,140609,1,8,0:0:0:0:
364,128,140933,2,0,B|416:140|416:140|460:180,1,100,0|8,0:0|0:0,0:0:0:0:
364,236,141582,2,0,B|393:280|393:280|398:339,1,100,0|8,0:0|0:0,0:0:0:0:
288,316,142231,2,0,L|176:316,1,100,0|8,0:0|0:0,0:0:0:0:
100,252,142879,6,0,P|116:196|100:144,2,100,4|8|0,0:0|0:0|0:0,0:0:0:0:
52,352,143852,1,8,0:0:0:0:
160,336,144177,2,0,P|208:328|268:336,1,100,0|8,0:0|0:0,0:0:0:0:
368,356,144825,2,0,P|416:364|476:356,1,100,0|8,0:0|0:0,0:0:0:0:
420,260,145474,6,0,P|400:204|368:152,1,100,0|8,0:0|0:0,0:0:0:0:
316,80,146122,1,0,0:0:0:0:
316,80,146447,1,8,0:0:0:0:
272,180,146771,2,0,B|200:136|212:60|212:60|116:80|96:176,1,300,0|8,0:0|0:0,0:0:0:0:
88,268,148068,6,0,B|128:304|128:304|184:316,1,100,4|8,0:0|0:0,0:0:0:0:
280,288,148717,2,0,B|332:277|332:277|387:296,1,100,0|8,0:0|0:0,0:0:0:0:
464,224,149366,1,0,0:0:0:0:
376,156,149690,1,8,0:0:0:0:
272,184,150014,2,0,L|208:204,2,50,0|0|8,0:0|0:0|0:0,0:0:0:0:
376,156,150663,6,0,P|408:144|460:96,1,100,0|8,0:0|0:0,0:0:0:0:
360,44,151312,2,0,P|328:56|276:104,1,100,0|8,0:0|0:0,0:0:0:0:
188,36,151960,2,0,P|168:84|176:144,2,100,0|8|0,0:0|0:0|0:0,0:0:0:0:
296,48,152933,1,8,0:0:0:0:
377,121,153258,6,0,B|365:157|365:157|381:181|381:181|381:213|361:249|317:261|285:249,1,200,4|0,0:0|0:0,0:0:0:0:
178,244,154231,1,8,0:0:0:0:
116,152,154555,2,0,L|228:128,1,100,0|8,0:0|0:0,0:0:0:0:
300,64,155204,2,0,L|412:40,1,100,0|8,0:0|0:0,0:0:0:0:
484,112,155852,6,0,B|408:168|476:248|476:248|392:216|352:300,1,300,0|8,0:0|0:0,0:0:0:0:
260,348,157149,2,0,P|208:332|168:288,1,100,0|8,0:0|0:0,0:0:0:0:
144,196,157798,1,0,0:0:0:0:
212,112,158122,1,8,0:0:0:0:
256,192,158447,12,0,161041,0:0:0:0:
408,264,168825,6,0,L|408:160,1,100,6|8,0:0|0:0,0:0:0:0:
332,84,169474,1,2,0:0:0:0:
248,156,169798,1,8,0:0:0:0:
148,108,170122,2,0,P|116:84|88:32,1,100,2|8,0:0|0:0,0:0:0:0:
32,128,170771,2,0,P|28:176|40:228,1,100,2|8,0:0|0:0,0:0:0:0:
120,300,171420,6,0,P|168:324|236:328,2,100,2|8|0,0:0|0:0|0:0,0:0:0:0:
144,192,172393,1,8,0:0:0:0:
208,104,172717,2,0,P|252:92|312:108,1,100,2|8,0:0|0:0,0:0:0:0:
256,204,173366,2,0,P|300:216|360:200,1,100,2|8,0:0|0:0,0:0:0:0:
404,108,174014,6,0,P|452:164|420:288,1,200,6|2,0:0|0:0,0:0:0:0:
352,204,174987,1,8,0:0:0:0:
248,172,175312,2,0,P|196:172|140:200,1,100,2|8,0:0|0:0,0:0:0:0:
84,276,175960,1,2,0:0:0:0:
160,356,176285,1,8,0:0:0:0:
264,324,176609,6,0,P|309:305|359:305,1,100,2|8,0:0|0:0,0:0:0:0:
456,360,177258,2,0,P|472:312|460:256,1,100,2|8,0:0|0:0,0:0:0:0:
380,196,177906,2,0,B|298:148|321:66|321:66|390:17|472:80,1,300,2|8,0:0|0:0,0:0:0:0:
484,176,179204,6,0,P|460:276|372:300,1,200,6|2,0:0|0:0,0:0:0:0:
276,252,180177,1,8,0:0:0:0:
196,176,180501,2,0,P|244:144|296:144,1,100,2|8,0:0|0:0,0:0:0:0:
336,160,180987,2,0,P|408:168|488:120,1,150,0|8,0:0|0:0,0:0:0:0:
392,64,181798,1,2,0:0:0:0:
284,68,182122,6,0,P|228:64|184:44,2,100,8|2|8,0:0|0:0|0:0,0:0:0:0:
392,64,183095,2,0,L|396:176,1,100,2|8,0:0|0:0,0:0:0:0:
284,172,183744,2,0,L|288:284,1,100,2|8,0:0|0:0,0:0:0:0:
176,276,184393,6,0,P|128:348|48:280,1,200,6|2,0:0|0:0,0:0:0:0:
96,196,185366,1,8,0:0:0:0:
144,96,185690,2,0,P|69:44|16:117,1,200,2|2,0:0|0:0,0:0:0:0:
96,196,186663,1,8,0:0:0:0:
188,256,186987,6,0,P|244:272|304:264,1,100,2|8,0:0|0:0,0:0:0:0:
348,180,187636,2,0,P|296:164|232:172,1,100,2|8,0:0|0:0,0:0:0:0:
285,269,188285,2,0,P|392:276|456:204,1,200
296,60,189582,5,6,0:0:0:0:
256,192,189744,12,6,192177,0:0:0:0:
256,312,192825,6,0,P|304:296|360:312,1,100,2|8,0:0|0:0,0:0:0:0:
448,256,193474,2,0,L|444:140,1,100,2|8,0:0|0:0,0:0:0:0:
360,88,194122,1,2,0:0:0:0:
264,140,194447,1,8,0:0:0:0:
160,100,194771,6,0,B|140:128|140:128|156:160|156:160|124:216|160:284,1,200,6|2,0:0|0:0,0:0:0:0:
256,340,195744,1,8,0:0:0:0:
360,308,196068,2,0,P|403:276|424:220,1,100,2|8,0:0|0:0,0:0:0:0:
412,180,196555,2,0,L|256:144,1,150,0|8,0:0|0:0,0:0:0:0:
160,116,197366,6,0,P|128:180|152:264,2,150,6|6|6,0:0|0:0|0:0,0:0:0:0:
408,68,199636,6,0,L|408:180,1,100,8|6,0:0|0:0,0:0:0:0:
256,192,200122,12,0,202231,0:0:0:0:
