osu file format v14

[General]
AudioFilename: 01. Rave-Up Tonight.mp3
AudioLeadIn: 0
PreviewTime: 168465
Countdown: 0
SampleSet: Normal
StackLeniency: 0.7
Mode: 1
LetterboxInBreaks: 0
WidescreenStoryboard: 0

[Editor]
DistanceSpacing: 1.2
BeatDivisor: 4
GridSize: 32
TimelineZoom: 1

[Metadata]
Title:Rave-Up Tonight
TitleUnicode:Rave-Up Tonight
Artist:Fear, and Loathing in Las Vegas
ArtistUnicode:Fear, and Loathing in Las Vegas
Creator:qoot8123
Version:Inner Oni
Source:
Tags:J-pop Electronic core post-hardcore dubstep dance phase 2
BeatmapID:563660
BeatmapSetID:244532

[Difficulty]
HPDrainRate:6
CircleSize:5
OverallDifficulty:6
ApproachRate:5
SliderMultiplier:1.4
SliderTickRate:1

[Events]
//Background and Video events
0,0,"bg.jpg",0,0
//Break Periods
//Storyboard Layer 0 (Background)
//Storyboard Layer 1 (Fail)
//Storyboard Layer 2 (Pass)
//Storyboard Layer 3 (Foreground)
//Storyboard Sound Samples

[TimingPoints]
1114,375,4,1,0,100,1,0
44567,-100,4,1,0,80,0,0
55207,-100,4,1,0,85,0,0
55582,-100,4,1,0,90,0,0
55957,-100,4,1,0,95,0,0
56192,-100,4,1,0,100,0,0
67301,-99.009900990099,4,1,0,100,0,0
67489,-98.0392156862745,4,1,0,100,0,0
67676,-97.0873786407767,4,1,0,100,0,0
67864,-95.2380952380952,4,1,0,100,0,0
68051,-93.4579439252336,4,1,0,100,0,0
68239,-91.743119266055,4,1,0,100,0,0
68426,-90.0900900900901,4,1,0,100,0,0
68614,-88.4955752212389,4,1,0,100,0,0
70114,-86.9565217391304,4,1,0,100,0,0
71614,-83.3333333333333,4,1,0,100,0,1
97114,-83.3333333333333,4,1,0,100,0,0
109114,324.324324324324,4,1,0,100,1,0
109114,-97.0873786407767,4,1,0,100,0,0
109438,-107.52688172043,4,1,0,100,0,0
113005,-106.382978723404,4,1,0,100,0,0
113168,-105.263157894737,4,1,0,100,0,0
113330,-104.166666666667,4,1,0,100,0,0
113492,-103.092783505155,4,1,0,100,0,0
113654,-102.040816326531,4,1,0,100,0,0
123384,-101.010101010101,4,1,0,100,0,0
124032,-100,4,1,0,100,0,0
133438,-99.009900990099,4,1,0,100,0,0
133762,-98.0392156862745,4,1,0,100,0,0
134249,-97.0873786407767,4,1,0,100,0,0
134411,-96.1538461538461,4,1,0,100,0,0
134897,-95.2380952380952,4,1,0,100,0,0
135059,-94.3396226415094,4,1,0,100,0,0
136762,-90.9090909090909,4,1,0,100,0,0
137249,-87.719298245614,4,1,0,100,0,0
137492,-84.7457627118644,4,1,0,100,0,0
137654,-83.3333333333333,4,1,0,100,0,1
158411,-83.3333333333333,4,1,0,50,0,0
159708,-83.3333333333333,4,1,0,40,0,0
163600,-100,4,1,0,40,0,0
164897,-100,4,1,0,50,0,0
166195,-100,4,1,0,60,0,0
168789,-83.3333333333333,4,1,0,100,0,1
189546,-83.3333333333333,4,1,0,100,0,0

[Colours]
Combo1 : 238,121,251
Combo2 : 123,249,113

[HitObjects]
256,192,1114,12,0,2239,0:0:0:0:
256,192,2426,5,0,0:0:0:0:
256,192,2520,1,0,0:0:0:0:
256,192,2614,1,8,0:0:0:0:
256,192,2895,1,0,0:0:0:0:
256,192,3176,1,8,0:0:0:0:
256,192,3457,1,8,0:0:0:0:
256,192,3739,1,4,0:0:0:0:
256,192,3926,1,4,0:0:0:0:
256,192,5614,1,0,0:0:0:0:
256,192,6364,1,8,0:0:0:0:
256,192,7114,1,8,0:0:0:0:
256,192,7676,1,8,0:0:0:0:
256,192,8051,1,8,0:0:0:0:
256,192,8614,1,0,0:0:0:0:
256,192,9364,1,8,0:0:0:0:
256,192,10114,1,8,0:0:0:0:
256,192,10676,1,8,0:0:0:0:
256,192,11239,1,8,0:0:0:0:
256,192,11614,1,0,0:0:0:0:
256,192,12364,1,8,0:0:0:0:
256,192,13114,1,8,0:0:0:0:
256,192,13676,1,8,0:0:0:0:
256,192,14051,1,8,0:0:0:0:
256,192,14614,1,0,0:0:0:0:
256,192,15176,1,8,0:0:0:0:
256,192,15739,1,8,0:0:0:0:
256,192,16114,1,8,0:0:0:0:
256,192,16301,1,8,0:0:0:0:
256,192,16676,1,8,0:0:0:0:
256,192,17051,1,8,0:0:0:0:
256,192,17426,1,8,0:0:0:0:
256,192,17614,1,0,0:0:0:0:
224,192,17989,1,8,0:0:0:0:
256,192,18364,1,8,0:0:0:0:
256,192,18739,1,8,0:0:0:0:
256,192,18926,1,8,0:0:0:0:
256,192,19114,1,8,0:0:0:0:
256,192,19489,1,8,0:0:0:0:
256,192,19676,1,8,0:0:0:0:
256,192,20051,1,8,0:0:0:0:
256,192,20426,1,8,0:0:0:0:
256,192,20614,1,0,0:0:0:0:
256,192,20989,1,8,0:0:0:0:
256,192,21364,1,8,0:0:0:0:
256,192,21739,1,8,0:0:0:0:
256,192,21926,1,8,0:0:0:0:
256,192,22301,1,8,0:0:0:0:
256,192,22676,1,8,0:0:0:0:
256,192,23051,1,8,0:0:0:0:
256,192,23239,1,8,0:0:0:0:
256,192,23614,1,0,0:0:0:0:
256,192,23989,1,0,0:0:0:0:
256,192,24176,1,8,0:0:0:0:
256,192,24270,1,8,0:0:0:0:
256,192,24364,1,0,0:0:0:0:
256,192,24551,1,8,0:0:0:0:
256,192,24739,1,0,0:0:0:0:
256,192,24926,1,8,0:0:0:0:
256,192,25114,1,0,0:0:0:0:
256,192,25489,1,0,0:0:0:0:
256,192,25676,1,8,0:0:0:0:
256,192,25864,1,0,0:0:0:0:
256,192,26051,1,8,0:0:0:0:
256,192,26145,1,8,0:0:0:0:
256,192,26239,1,0,0:0:0:0:
256,192,26426,1,8,0:0:0:0:
256,192,26614,1,0,0:0:0:0:
256,192,26989,1,0,0:0:0:0:
256,192,27364,1,0,0:0:0:0:
256,192,27551,1,0,0:0:0:0:
256,192,27739,1,8,0:0:0:0:
256,192,28114,1,0,0:0:0:0:
256,192,28301,1,0,0:0:0:0:
256,192,28489,1,0,0:0:0:0:
256,192,28676,1,0,0:0:0:0:
256,192,28864,1,0,0:0:0:0:
256,192,29051,1,0,0:0:0:0:
256,192,29239,1,8,0:0:0:0:
256,192,29426,1,8,0:0:0:0:
256,192,29614,1,4,0:0:0:0:
256,192,30364,1,4,0:0:0:0:
256,192,31114,1,4,0:0:0:0:
256,192,31301,1,0,0:0:0:0:
256,192,31489,1,0,0:0:0:0:
256,192,31676,1,0,0:0:0:0:
256,192,31864,1,0,0:0:0:0:
288,192,31957,1,0,0:0:0:0:
288,192,32051,1,0,0:0:0:0:
256,192,32145,1,0,0:0:0:0:
256,192,32239,1,8,0:0:0:0:
256,192,32614,1,4,0:0:0:0:
288,192,32801,1,0,0:0:0:0:
288,192,32895,1,0,0:0:0:0:
256,192,32989,1,8,0:0:0:0:
256,192,33176,1,8,0:0:0:0:
256,192,33270,1,8,0:0:0:0:
256,192,33364,1,0,0:0:0:0:
256,192,33457,1,0,0:0:0:0:
256,192,33645,1,0,0:0:0:0:
256,192,33739,1,8,0:0:0:0:
256,192,33926,1,8,0:0:0:0:
256,192,34114,1,0,0:0:0:0:
256,192,34301,1,0,0:0:0:0:
256,192,34489,1,8,0:0:0:0:
256,192,34676,1,8,0:0:0:0:
256,192,34770,1,8,0:0:0:0:
256,192,34864,1,0,0:0:0:0:
256,192,35051,1,8,0:0:0:0:
256,192,35239,1,8,0:0:0:0:
256,192,35614,1,0,0:0:0:0:
256,192,35801,1,0,0:0:0:0:
256,192,35989,1,8,0:0:0:0:
256,192,36176,1,8,0:0:0:0:
256,192,36364,1,0,0:0:0:0:
256,192,36457,1,0,0:0:0:0:
256,192,36645,1,0,0:0:0:0:
256,192,36739,1,8,0:0:0:0:
256,192,36926,1,8,0:0:0:0:
256,192,37114,1,0,0:0:0:0:
256,192,37301,1,0,0:0:0:0:
256,192,37395,1,0,0:0:0:0:
256,192,37489,1,8,0:0:0:0:
256,192,37582,1,8,0:0:0:0:
256,192,37676,1,0,0:0:0:0:
256,192,37770,1,0,0:0:0:0:
256,192,37864,1,8,0:0:0:0:
256,192,38051,1,8,0:0:0:0:
256,192,38239,1,8,0:0:0:0:
256,192,38614,1,4,0:0:0:0:
256,192,38801,1,0,0:0:0:0:
256,192,38895,1,0,0:0:0:0:
256,192,38989,1,8,0:0:0:0:
256,192,39176,1,8,0:0:0:0:
256,192,39270,1,8,0:0:0:0:
256,192,39364,1,0,0:0:0:0:
256,192,39457,1,0,0:0:0:0:
256,192,39645,1,0,0:0:0:0:
256,192,39739,1,8,0:0:0:0:
256,192,39926,1,8,0:0:0:0:
256,192,40114,1,0,0:0:0:0:
256,192,40301,1,0,0:0:0:0:
256,192,40489,1,8,0:0:0:0:
256,192,40676,1,0,0:0:0:0:
256,192,40770,1,0,0:0:0:0:
256,192,40864,1,8,0:0:0:0:
256,192,41051,1,0,0:0:0:0:
256,192,41239,1,8,0:0:0:0:
256,192,41614,1,0,0:0:0:0:
256,192,41989,1,8,0:0:0:0:
256,192,42176,1,0,0:0:0:0:
256,192,42270,1,0,0:0:0:0:
256,192,42364,1,8,0:0:0:0:
256,192,42457,1,0,0:0:0:0:
256,192,42645,1,0,0:0:0:0:
256,192,42739,1,8,0:0:0:0:
256,192,42926,1,8,0:0:0:0:
256,192,43301,1,8,0:0:0:0:
256,192,43489,1,8,0:0:0:0:
256,192,43864,1,8,0:0:0:0:
256,192,44051,1,8,0:0:0:0:
256,192,44239,1,8,0:0:0:0:
256,192,44332,1,8,0:0:0:0:
256,192,44426,1,8,0:0:0:0:
256,192,44520,1,8,0:0:0:0:
256,192,44614,1,0,0:0:0:0:
256,192,44707,1,0,0:0:0:0:
256,192,44801,1,0,0:0:0:0:
256,192,44895,1,0,0:0:0:0:
256,192,44989,1,8,0:0:0:0:
256,192,45176,1,0,0:0:0:0:
256,192,45364,1,0,0:0:0:0:
256,192,45457,1,0,0:0:0:0:
256,192,45551,1,0,0:0:0:0:
256,192,45645,1,0,0:0:0:0:
256,192,45739,1,8,0:0:0:0:
256,192,45926,1,0,0:0:0:0:
256,192,46114,1,8,0:0:0:0:
256,192,46301,1,0,0:0:0:0:
256,192,46395,1,0,0:0:0:0:
256,192,46489,1,8,0:0:0:0:
256,192,46676,1,0,0:0:0:0:
256,192,46770,1,0,0:0:0:0:
256,192,46864,1,0,0:0:0:0:
256,192,47051,1,0,0:0:0:0:
256,192,47145,1,0,0:0:0:0:
256,192,47239,1,8,0:0:0:0:
256,192,47332,1,8,0:0:0:0:
256,192,47426,1,8,0:0:0:0:
256,192,47520,1,8,0:0:0:0:
256,192,47614,1,0,0:0:0:0:
256,192,47801,1,0,0:0:0:0:
256,192,47895,1,0,0:0:0:0:
256,192,47989,1,0,0:0:0:0:
256,192,48176,1,8,0:0:0:0:
256,192,48270,1,8,0:0:0:0:
256,192,48364,1,0,0:0:0:0:
256,192,48551,1,0,0:0:0:0:
256,192,48645,1,0,0:0:0:0:
256,192,48739,1,0,0:0:0:0:
256,192,48926,1,8,0:0:0:0:
256,192,49114,1,0,0:0:0:0:
256,192,49207,1,0,0:0:0:0:
256,192,49301,1,0,0:0:0:0:
256,192,49395,1,0,0:0:0:0:
256,192,49489,1,8,0:0:0:0:
256,192,49676,1,8,0:0:0:0:
256,192,49770,1,8,0:0:0:0:
256,192,49864,1,0,0:0:0:0:
256,192,49957,1,0,0:0:0:0:
256,192,50051,1,0,0:0:0:0:
256,192,50145,1,0,0:0:0:0:
256,192,50239,1,8,0:0:0:0:
256,192,50426,1,8,0:0:0:0:
256,192,50614,1,0,0:0:0:0:
256,192,50707,1,0,0:0:0:0:
256,192,50801,1,0,0:0:0:0:
256,192,50895,1,0,0:0:0:0:
256,192,50989,1,8,0:0:0:0:
256,192,51176,1,8,0:0:0:0:
256,192,51364,1,0,0:0:0:0:
256,192,51551,1,0,0:0:0:0:
256,192,51645,1,0,0:0:0:0:
256,192,51739,1,8,0:0:0:0:
256,192,51926,1,8,0:0:0:0:
256,192,52114,1,0,0:0:0:0:
256,192,52207,1,0,0:0:0:0:
256,192,52301,1,0,0:0:0:0:
256,192,52395,1,0,0:0:0:0:
256,192,52489,1,8,0:0:0:0:
256,192,52676,1,8,0:0:0:0:
256,192,52770,1,8,0:0:0:0:
256,192,52864,1,0,0:0:0:0:
256,192,53051,1,0,0:0:0:0:
256,192,53145,1,0,0:0:0:0:
256,192,53239,1,8,0:0:0:0:
256,192,53332,1,8,0:0:0:0:
256,192,53426,1,8,0:0:0:0:
256,192,53520,1,8,0:0:0:0:
256,192,53614,1,0,0:0:0:0:
256,192,53801,1,0,0:0:0:0:
256,192,53895,1,0,0:0:0:0:
256,192,53989,1,8,0:0:0:0:
256,192,54176,5,8,0:0:0:0:
256,192,54270,1,8,0:0:0:0:
256,192,54364,1,0,0:0:0:0:
256,192,54551,1,0,0:0:0:0:
256,192,54645,1,0,0:0:0:0:
256,192,54739,5,0,0:0:0:0:
256,192,54926,5,8,0:0:0:0:
256,192,55114,5,0,0:0:0:0:
256,192,55301,1,12,0:0:0:0:
256,192,55489,1,12,0:0:0:0:
256,192,55676,1,0,0:0:0:0:
256,192,55770,1,8,0:0:0:0:
256,192,55864,1,0,0:0:0:0:
256,192,56051,1,8,0:0:0:0:
256,192,56145,1,0,0:0:0:0:
256,192,56239,1,8,0:0:0:0:
256,192,56332,1,8,0:0:0:0:
256,192,56426,1,8,0:0:0:0:
256,192,56520,1,8,0:0:0:0:
256,192,56614,1,0,0:0:0:0:
256,192,56801,1,0,0:0:0:0:
256,192,56895,1,0,0:0:0:0:
256,192,56989,1,8,0:0:0:0:
256,192,57176,1,8,0:0:0:0:
256,192,57270,1,8,0:0:0:0:
256,192,57364,1,0,0:0:0:0:
256,192,57551,1,0,0:0:0:0:
288,192,57645,1,0,0:0:0:0:
256,192,57739,1,8,0:0:0:0:
256,192,57926,1,8,0:0:0:0:
256,192,58020,1,8,0:0:0:0:
256,192,58114,1,0,0:0:0:0:
256,192,58207,1,0,0:0:0:0:
256,192,58301,1,0,0:0:0:0:
256,192,58489,1,8,0:0:0:0:
256,192,58676,1,0,0:0:0:0:
256,192,58770,1,0,0:0:0:0:
256,192,58864,1,0,0:0:0:0:
256,192,59051,1,0,0:0:0:0:
256,192,59239,1,8,0:0:0:0:
256,192,59332,1,8,0:0:0:0:
256,192,59426,1,0,0:0:0:0:
256,192,59520,1,0,0:0:0:0:
256,192,59614,1,8,0:0:0:0:
256,192,59801,1,0,0:0:0:0:
256,192,59989,1,8,0:0:0:0:
256,192,60176,1,8,0:0:0:0:
256,192,60270,1,8,0:0:0:0:
256,192,60364,1,0,0:0:0:0:
256,192,60551,1,0,0:0:0:0:
256,192,60645,1,0,0:0:0:0:
256,192,60739,1,8,0:0:0:0:
256,192,60926,1,0,0:0:0:0:
256,192,61020,1,0,0:0:0:0:
256,192,61114,1,0,0:0:0:0:
256,192,61301,1,8,0:0:0:0:
256,192,61489,1,8,0:0:0:0:
256,192,61676,1,0,0:0:0:0:
256,192,61770,1,0,0:0:0:0:
256,192,61957,1,0,0:0:0:0:
256,192,62051,1,8,0:0:0:0:
256,192,62239,1,8,0:0:0:0:
256,192,62426,1,0,0:0:0:0:
256,192,62520,1,0,0:0:0:0:
256,192,62614,1,8,0:0:0:0:
256,192,62801,1,8,0:0:0:0:
256,192,62989,1,8,0:0:0:0:
256,192,63176,1,0,0:0:0:0:
256,192,63270,1,0,0:0:0:0:
256,192,63364,1,0,0:0:0:0:
256,192,63551,1,8,0:0:0:0:
256,192,63645,1,0,0:0:0:0:
256,192,63739,1,0,0:0:0:0:
256,192,63832,1,8,0:0:0:0:
256,192,64020,1,8,0:0:0:0:
256,192,64114,1,0,0:0:0:0:
256,192,64301,1,0,0:0:0:0:
256,192,64395,1,0,0:0:0:0:
256,192,64489,1,8,0:0:0:0:
256,192,64676,1,8,0:0:0:0:
256,192,64770,1,8,0:0:0:0:
256,192,64864,1,0,0:0:0:0:
256,192,65051,1,8,0:0:0:0:
256,192,65239,1,8,0:0:0:0:
256,224,65426,1,0,0:0:0:0:
256,224,65520,1,0,0:0:0:0:
256,224,65614,1,0,0:0:0:0:
256,192,65801,1,8,0:0:0:0:
256,192,65895,1,8,0:0:0:0:
256,192,65989,1,0,0:0:0:0:
256,192,66176,1,8,0:0:0:0:
256,192,66364,1,0,0:0:0:0:
256,192,66551,1,8,0:0:0:0:
256,192,66645,1,8,0:0:0:0:
256,192,66739,1,0,0:0:0:0:
256,192,66926,1,12,0:0:0:0:
256,192,67301,1,0,0:0:0:0:
256,192,67489,1,0,0:0:0:0:
256,192,67676,1,0,0:0:0:0:
256,192,67864,1,8,0:0:0:0:
256,192,68051,1,8,0:0:0:0:
256,192,68239,1,8,0:0:0:0:
256,192,68426,1,8,0:0:0:0:
256,192,68614,1,0,0:0:0:0:
256,192,70301,1,12,0:0:0:0:
256,192,70582,1,4,0:0:0:0:
256,192,70864,1,12,0:0:0:0:
256,192,71614,1,4,0:0:0:0:
256,192,71895,1,0,0:0:0:0:
256,192,71989,1,8,0:0:0:0:
256,192,72176,1,0,0:0:0:0:
256,192,72270,1,0,0:0:0:0:
256,192,72364,1,8,0:0:0:0:
256,192,72551,1,8,0:0:0:0:
256,192,72739,1,0,0:0:0:0:
256,192,72926,1,8,0:0:0:0:
256,192,73020,1,0,0:0:0:0:
256,192,73114,1,8,0:0:0:0:
256,192,73301,1,0,0:0:0:0:
256,192,73489,1,8,0:0:0:0:
256,192,73676,1,8,0:0:0:0:
256,192,74051,1,0,0:0:0:0:
256,192,74239,1,8,0:0:0:0:
256,192,74426,1,0,0:0:0:0:
256,192,74520,1,0,0:0:0:0:
256,192,74614,1,0,0:0:0:0:
256,192,74895,1,0,0:0:0:0:
256,192,74989,1,8,0:0:0:0:
256,192,75176,1,0,0:0:0:0:
256,192,75270,1,0,0:0:0:0:
256,192,75364,1,8,0:0:0:0:
256,192,75551,1,8,0:0:0:0:
256,192,75739,1,8,0:0:0:0:
256,192,75926,1,0,0:0:0:0:
256,192,76020,1,0,0:0:0:0:
256,192,76114,1,8,0:0:0:0:
256,192,76301,1,0,0:0:0:0:
256,192,76395,1,0,0:0:0:0:
256,192,76489,1,0,0:0:0:0:
256,192,76676,1,8,0:0:0:0:
256,192,76864,1,0,0:0:0:0:
256,192,77051,1,0,0:0:0:0:
256,192,77145,1,0,0:0:0:0:
256,192,77239,1,8,0:0:0:0:
256,192,77614,1,4,0:0:0:0:
256,192,77895,1,0,0:0:0:0:
256,192,77989,1,8,0:0:0:0:
256,192,78176,1,8,0:0:0:0:
256,192,78364,1,0,0:0:0:0:
256,192,78551,1,0,0:0:0:0:
256,192,78739,1,8,0:0:0:0:
256,192,78926,1,0,0:0:0:0:
256,192,79020,1,0,0:0:0:0:
256,192,79114,1,0,0:0:0:0:
256,192,79301,1,0,0:0:0:0:
256,192,79489,1,8,0:0:0:0:
256,192,79676,1,8,0:0:0:0:
256,192,79864,1,0,0:0:0:0:
256,192,80051,1,0,0:0:0:0:
256,192,80145,1,0,0:0:0:0:
256,192,80239,1,8,0:0:0:0:
256,192,80426,1,0,0:0:0:0:
256,192,80614,1,0,0:0:0:0:
256,192,80989,1,8,0:0:0:0:
256,192,81176,1,8,0:0:0:0:
256,192,81364,1,0,0:0:0:0:
256,192,81551,1,0,0:0:0:0:
256,192,81645,1,0,0:0:0:0:
256,192,81739,1,8,0:0:0:0:
256,192,81926,1,0,0:0:0:0:
256,192,82114,1,4,0:0:0:0:
256,192,82301,1,4,0:0:0:0:
256,192,82676,1,12,0:0:0:0:
256,192,83051,1,12,0:0:0:0:
256,192,83426,1,8,0:0:0:0:
256,192,83614,1,4,0:0:0:0:
256,192,83895,1,0,0:0:0:0:
256,192,83989,1,8,0:0:0:0:
256,192,84176,1,8,0:0:0:0:
256,192,84364,1,0,0:0:0:0:
256,192,84457,1,0,0:0:0:0:
224,224,84551,1,0,0:0:0:0:
256,192,84739,1,8,0:0:0:0:
256,192,84926,1,0,0:0:0:0:
256,192,85020,1,0,0:0:0:0:
256,192,85114,1,8,0:0:0:0:
256,192,85301,1,0,0:0:0:0:
256,192,85489,1,8,0:0:0:0:
256,192,85676,1,8,0:0:0:0:
256,192,86051,1,0,0:0:0:0:
256,192,86239,1,8,0:0:0:0:
256,192,86426,1,0,0:0:0:0:
256,192,86520,1,0,0:0:0:0:
256,192,86614,1,8,0:0:0:0:
256,192,86989,1,8,0:0:0:0:
256,192,87176,1,8,0:0:0:0:
288,192,87364,1,0,0:0:0:0:
256,192,87551,1,8,0:0:0:0:
256,192,87739,1,8,0:0:0:0:
256,192,87926,1,8,0:0:0:0:
256,192,88020,1,8,0:0:0:0:
256,192,88114,1,0,0:0:0:0:
256,192,88301,1,0,0:0:0:0:
256,192,88395,1,0,0:0:0:0:
256,192,88489,1,8,0:0:0:0:
256,192,88676,1,0,0:0:0:0:
256,192,88770,1,0,0:0:0:0:
256,192,88864,1,0,0:0:0:0:
256,192,89051,1,0,0:0:0:0:
256,192,89239,1,8,0:0:0:0:
256,192,89614,1,4,0:0:0:0:
256,192,89989,1,8,0:0:0:0:
256,192,90176,1,0,0:0:0:0:
256,192,90270,1,0,0:0:0:0:
256,192,90364,1,0,0:0:0:0:
256,192,90551,1,0,0:0:0:0:
256,192,90739,1,8,0:0:0:0:
256,192,90926,1,0,0:0:0:0:
256,192,91020,1,0,0:0:0:0:
256,192,91114,1,8,0:0:0:0:
256,192,91301,1,0,0:0:0:0:
256,192,91489,1,8,0:0:0:0:
256,192,91676,1,0,0:0:0:0:
256,192,91770,1,0,0:0:0:0:
256,192,91864,1,0,0:0:0:0:
256,192,92051,1,0,0:0:0:0:
256,192,92239,1,8,0:0:0:0:
256,192,92426,1,0,0:0:0:0:
256,192,92614,1,8,0:0:0:0:
256,192,92989,1,8,0:0:0:0:
256,192,93176,1,0,0:0:0:0:
256,192,93364,1,0,0:0:0:0:
256,192,93551,1,0,0:0:0:0:
256,192,93739,1,8,0:0:0:0:
256,192,93926,1,0,0:0:0:0:
256,192,94020,1,0,0:0:0:0:
256,192,94114,1,8,0:0:0:0:
256,192,94301,1,8,0:0:0:0:
256,192,94489,1,0,0:0:0:0:
256,192,94676,1,8,0:0:0:0:
256,192,94864,1,0,0:0:0:0:
256,192,94957,1,0,0:0:0:0:
256,192,95051,1,0,0:0:0:0:
256,192,95145,1,0,0:0:0:0:
256,192,95239,1,8,0:0:0:0:
256,192,95426,1,0,0:0:0:0:
256,192,95614,1,4,0:0:0:0:
256,192,95801,1,8,0:0:0:0:
256,192,95895,1,8,0:0:0:0:
256,192,95989,1,8,0:0:0:0:
256,192,96082,1,8,0:0:0:0:
256,192,96176,1,8,0:0:0:0:
256,192,96270,1,8,0:0:0:0:
256,192,96364,1,0,0:0:0:0:
256,192,96551,1,8,0:0:0:0:
256,192,96645,1,8,0:0:0:0:
256,192,96739,1,0,0:0:0:0:
256,192,96926,1,8,0:0:0:0:
256,192,97020,1,8,0:0:0:0:
256,192,97114,1,0,0:0:0:0:
256,192,97207,1,0,0:0:0:0:
256,192,97301,1,0,0:0:0:0:
256,192,97395,1,0,0:0:0:0:
256,192,97489,1,8,0:0:0:0:
256,192,97676,1,0,0:0:0:0:
256,192,97864,1,8,0:0:0:0:
256,192,98051,1,8,0:0:0:0:
256,192,98145,1,0,0:0:0:0:
256,192,98332,1,8,0:0:0:0:
256,192,98426,1,0,0:0:0:0:
256,192,98520,1,8,0:0:0:0:
256,192,98614,1,0,0:0:0:0:
256,192,98801,1,0,0:0:0:0:
256,192,98895,1,8,0:0:0:0:
256,192,99082,1,8,0:0:0:0:
256,192,99176,1,0,0:0:0:0:
256,192,99364,1,0,0:0:0:0:
256,192,99551,1,0,0:0:0:0:
256,192,99645,1,8,0:0:0:0:
256,192,99832,1,8,0:0:0:0:
256,192,99926,1,0,0:0:0:0:
256,192,100020,1,0,0:0:0:0:
256,192,100114,1,8,0:0:0:0:
256,192,100301,1,0,0:0:0:0:
256,192,100489,1,8,0:0:0:0:
256,192,100676,1,0,0:0:0:0:
256,192,100770,1,0,0:0:0:0:
256,192,100864,1,8,0:0:0:0:
256,192,101051,1,8,0:0:0:0:
256,192,101145,1,8,0:0:0:0:
256,192,101332,1,8,0:0:0:0:
256,192,101426,1,0,0:0:0:0:
256,192,101520,1,0,0:0:0:0:
256,192,101614,1,8,0:0:0:0:
256,192,101801,1,0,0:0:0:0:
256,192,101989,1,8,0:0:0:0:
256,192,102176,1,8,0:0:0:0:
256,192,102270,1,8,0:0:0:0:
256,192,102364,1,0,0:0:0:0:
256,192,102551,1,8,0:0:0:0:
256,192,102739,1,8,0:0:0:0:
256,192,102926,1,8,0:0:0:0:
256,192,103020,1,8,0:0:0:0:
256,192,103114,1,0,0:0:0:0:
256,192,103207,1,0,0:0:0:0:
256,192,103301,1,0,0:0:0:0:
256,192,103395,1,0,0:0:0:0:
256,192,103489,1,8,0:0:0:0:
256,192,103676,1,8,0:0:0:0:
256,192,103864,1,0,0:0:0:0:
256,192,104051,1,8,0:0:0:0:
256,192,104145,1,0,0:0:0:0:
256,192,104332,1,8,0:0:0:0:
256,192,104426,1,0,0:0:0:0:
256,192,104520,1,8,0:0:0:0:
256,192,104614,1,0,0:0:0:0:
256,192,104801,1,0,0:0:0:0:
256,192,104895,1,8,0:0:0:0:
256,192,105082,1,8,0:0:0:0:
256,192,105176,1,0,0:0:0:0:
256,192,105364,1,0,0:0:0:0:
256,192,105551,1,0,0:0:0:0:
256,192,105645,1,8,0:0:0:0:
256,192,105832,1,8,0:0:0:0:
256,192,105926,1,0,0:0:0:0:
256,192,106020,1,0,0:0:0:0:
256,192,106114,1,8,0:0:0:0:
256,192,106301,1,0,0:0:0:0:
256,192,106489,1,8,0:0:0:0:
256,192,106676,1,0,0:0:0:0:
256,192,106770,1,0,0:0:0:0:
256,192,106864,1,8,0:0:0:0:
256,192,107051,1,8,0:0:0:0:
256,192,107145,1,8,0:0:0:0:
256,192,107332,1,8,0:0:0:0:
256,192,107426,1,0,0:0:0:0:
256,192,107520,1,0,0:0:0:0:
256,192,107614,1,8,0:0:0:0:
256,192,107801,1,8,0:0:0:0:
256,192,107895,1,8,0:0:0:0:
256,192,107989,1,0,0:0:0:0:
256,192,108176,1,8,0:0:0:0:
256,192,108364,1,0,0:0:0:0:
224,192,108551,1,8,0:0:0:0:
256,192,108645,1,8,0:0:0:0:
256,192,108739,1,8,0:0:0:0:
256,192,108832,1,8,0:0:0:0:
256,192,108926,1,0,0:0:0:0:
256,192,109020,1,0,0:0:0:0:
256,192,109114,1,8,0:0:0:0:
256,192,109438,1,8,0:0:0:0:
256,192,109762,1,8,0:0:0:0:
256,192,109924,1,0,0:0:0:0:
256,192,110086,1,8,0:0:0:0:
256,192,110249,1,8,0:0:0:0:
256,192,110411,1,8,0:0:0:0:
256,192,110573,1,0,0:0:0:0:
256,192,110735,1,8,0:0:0:0:
256,192,111059,1,8,0:0:0:0:
256,192,111222,1,8,0:0:0:0:
256,192,111384,1,8,0:0:0:0:
256,192,111465,1,8,0:0:0:0:
256,192,111546,1,8,0:0:0:0:
256,192,111627,1,8,0:0:0:0:
256,192,111708,1,0,0:0:0:0:
256,192,112032,1,0,0:0:0:0:
256,192,112357,1,0,0:0:0:0:
256,192,112519,1,0,0:0:0:0:
256,192,112681,1,8,0:0:0:0:
256,192,112843,1,0,0:0:0:0:
256,192,113005,1,0,0:0:0:0:
256,192,113168,1,0,0:0:0:0:
256,192,113330,1,0,0:0:0:0:
256,192,113492,1,0,0:0:0:0:
256,192,113654,1,0,0:0:0:0:
256,192,113735,1,0,0:0:0:0:
256,192,113816,1,0,0:0:0:0:
256,192,113897,1,0,0:0:0:0:
256,192,113978,1,8,0:0:0:0:
256,192,114303,1,0,0:0:0:0:
256,192,114384,1,0,0:0:0:0:
256,192,114465,1,0,0:0:0:0:
256,192,114546,1,0,0:0:0:0:
256,192,114627,1,0,0:0:0:0:
256,192,114951,1,0,0:0:0:0:
256,192,115114,1,8,0:0:0:0:
256,192,115276,1,0,0:0:0:0:
256,192,115600,1,0,0:0:0:0:
256,192,115843,1,8,0:0:0:0:
256,192,116086,1,8,0:0:0:0:
256,192,116249,1,0,0:0:0:0:
256,192,116411,1,8,0:0:0:0:
256,192,116573,1,0,0:0:0:0:
256,192,116735,1,8,0:0:0:0:
256,192,116897,1,0,0:0:0:0:
256,192,116978,1,0,0:0:0:0:
256,192,117059,1,0,0:0:0:0:
256,192,117141,1,0,0:0:0:0:
256,192,117222,1,0,0:0:0:0:
256,192,117546,1,0,0:0:0:0:
256,192,117708,1,8,0:0:0:0:
256,192,117870,1,0,0:0:0:0:
256,192,118195,1,0,0:0:0:0:
256,192,118438,1,8,0:0:0:0:
256,192,118681,1,8,0:0:0:0:
256,192,118843,1,0,0:0:0:0:
256,192,119005,1,8,0:0:0:0:
256,192,119168,1,0,0:0:0:0:
256,192,119330,1,8,0:0:0:0:
256,192,119492,1,0,0:0:0:0:
256,192,119573,1,0,0:0:0:0:
256,192,119654,1,0,0:0:0:0:
256,192,119735,1,0,0:0:0:0:
256,192,119816,1,0,0:0:0:0:
256,192,120141,1,8,0:0:0:0:
256,192,120303,1,8,0:0:0:0:
256,192,120384,1,8,0:0:0:0:
256,192,120465,1,0,0:0:0:0:
256,192,120789,1,0,0:0:0:0:
256,192,121032,1,8,0:0:0:0:
256,192,121276,1,8,0:0:0:0:
256,192,121438,1,0,0:0:0:0:
256,192,121519,1,0,0:0:0:0:
256,192,121600,1,8,0:0:0:0:
256,192,121681,1,0,0:0:0:0:
256,192,121762,1,0,0:0:0:0:
256,192,121924,1,8,0:0:0:0:
256,192,122086,1,0,0:0:0:0:
256,192,122168,1,0,0:0:0:0:
256,192,122249,1,0,0:0:0:0:
256,192,122330,1,0,0:0:0:0:
256,192,122411,1,0,0:0:0:0:
256,192,122735,1,0,0:0:0:0:
256,192,122897,1,8,0:0:0:0:
256,192,122978,1,8,0:0:0:0:
256,192,123059,1,0,0:0:0:0:
256,192,123384,1,0,0:0:0:0:
256,192,123546,1,8,0:0:0:0:
256,192,123627,1,8,0:0:0:0:
256,192,123708,1,0,0:0:0:0:
256,192,123870,1,8,0:0:0:0:
256,192,124032,1,0,0:0:0:0:
256,192,124113,1,0,0:0:0:0:
256,192,124195,1,0,0:0:0:0:
256,192,124276,1,0,0:0:0:0:
256,192,124357,1,8,0:0:0:0:
256,192,124438,1,8,0:0:0:0:
256,192,124519,1,8,0:0:0:0:
256,192,124600,1,8,0:0:0:0:
256,192,124681,1,0,0:0:0:0:
256,192,125005,1,8,0:0:0:0:
256,192,125330,1,0,0:0:0:0:
256,192,125492,1,0,0:0:0:0:
256,192,125654,1,8,0:0:0:0:
256,192,125978,1,0,0:0:0:0:
256,192,126141,1,0,0:0:0:0:
256,192,126222,1,0,0:0:0:0:
256,192,126303,1,8,0:0:0:0:
256,192,126465,1,0,0:0:0:0:
256,192,126627,1,0,0:0:0:0:
256,192,126789,1,0,0:0:0:0:
256,192,126951,1,8,0:0:0:0:
256,192,127113,1,0,0:0:0:0:
256,192,127195,1,0,0:0:0:0:
256,192,127276,1,0,0:0:0:0:
256,192,127600,1,8,0:0:0:0:
256,192,127924,1,0,0:0:0:0:
256,192,128086,1,0,0:0:0:0:
256,192,128249,1,8,0:0:0:0:
256,192,128573,1,0,0:0:0:0:
256,192,128735,1,0,0:0:0:0:
256,192,128816,1,0,0:0:0:0:
256,192,128897,1,8,0:0:0:0:
256,192,129059,1,0,0:0:0:0:
256,192,129222,1,0,0:0:0:0:
256,192,129384,1,0,0:0:0:0:
256,192,129546,1,8,0:0:0:0:
256,192,129708,1,0,0:0:0:0:
256,192,129789,1,0,0:0:0:0:
256,192,129870,1,0,0:0:0:0:
256,192,130195,1,8,0:0:0:0:
256,192,130519,1,0,0:0:0:0:
256,192,130681,1,0,0:0:0:0:
256,192,130843,1,8,0:0:0:0:
256,192,131168,1,0,0:0:0:0:
256,192,131330,1,0,0:0:0:0:
256,192,131411,1,0,0:0:0:0:
256,192,131492,1,8,0:0:0:0:
256,192,131654,1,0,0:0:0:0:
256,192,131816,1,0,0:0:0:0:
256,192,131978,1,0,0:0:0:0:
256,192,132141,1,8,0:0:0:0:
256,192,132303,1,8,0:0:0:0:
256,192,132384,1,8,0:0:0:0:
256,192,132465,1,0,0:0:0:0:
256,192,132789,1,8,0:0:0:0:
256,192,132951,1,0,0:0:0:0:
256,192,133113,1,0,0:0:0:0:
256,192,133438,1,8,0:0:0:0:
256,192,133600,1,8,0:0:0:0:
256,192,133762,1,0,0:0:0:0:
256,192,133843,1,0,0:0:0:0:
256,192,134005,1,0,0:0:0:0:
256,192,134086,1,8,0:0:0:0:
256,192,134249,1,0,0:0:0:0:
256,192,134411,1,8,0:0:0:0:
256,192,134492,1,8,0:0:0:0:
256,192,134654,1,0,0:0:0:0:
256,192,134735,1,8,0:0:0:0:
256,192,134897,1,8,0:0:0:0:
256,192,135059,1,0,0:0:0:0:
256,192,135141,1,0,0:0:0:0:
256,192,135222,1,0,0:0:0:0:
256,192,135303,1,0,0:0:0:0:
256,192,135384,1,8,0:0:0:0:
256,192,135465,1,8,0:0:0:0:
256,192,135546,1,0,0:0:0:0:
256,192,135627,1,0,0:0:0:0:
256,192,135708,1,0,0:0:0:0:
256,192,135789,1,0,0:0:0:0:
256,192,135870,1,0,0:0:0:0:
256,192,135951,1,0,0:0:0:0:
256,192,136032,1,8,0:0:0:0:
256,192,136113,1,8,0:0:0:0:
256,192,136195,1,0,0:0:0:0:
256,192,136276,1,0,0:0:0:0:
256,192,136357,1,0,0:0:0:0:
256,192,136438,1,0,0:0:0:0:
256,192,136519,1,0,0:0:0:0:
256,192,136600,1,0,0:0:0:0:
256,192,136681,1,0,0:0:0:0:
256,192,136843,1,0,0:0:0:0:
256,192,136924,1,0,0:0:0:0:
256,192,137005,1,8,0:0:0:0:
256,192,137249,1,8,0:0:0:0:
256,192,137492,1,8,0:0:0:0:
256,192,137654,1,4,0:0:0:0:
256,192,137816,1,0,0:0:0:0:
256,160,137897,1,0,0:0:0:0:
256,192,137978,1,8,0:0:0:0:
256,192,138141,1,0,0:0:0:0:
256,192,138303,1,8,0:0:0:0:
256,192,138465,1,8,0:0:0:0:
256,192,138546,1,8,0:0:0:0:
256,192,138627,1,0,0:0:0:0:
256,192,138789,1,8,0:0:0:0:
256,192,138951,1,0,0:0:0:0:
256,192,139195,1,0,0:0:0:0:
256,192,139276,1,8,0:0:0:0:
256,192,139438,1,8,0:0:0:0:
256,192,139600,1,0,0:0:0:0:
256,192,139762,1,0,0:0:0:0:
256,192,139843,1,0,0:0:0:0:
256,192,139924,1,8,0:0:0:0:
256,192,140086,1,8,0:0:0:0:
256,192,140249,1,0,0:0:0:0:
256,192,140492,1,0,0:0:0:0:
256,192,140573,1,8,0:0:0:0:
256,192,140735,1,8,0:0:0:0:
256,192,140897,1,0,0:0:0:0:
256,192,141141,1,0,0:0:0:0:
256,192,141222,1,8,0:0:0:0:
256,192,141384,1,0,0:0:0:0:
256,192,141546,1,0,0:0:0:0:
256,192,141870,1,8,0:0:0:0:
256,192,142032,1,0,0:0:0:0:
256,192,142113,1,0,0:0:0:0:
256,192,142195,1,0,0:0:0:0:
256,192,142357,1,0,0:0:0:0:
256,192,142519,1,8,0:0:0:0:
256,192,142843,1,4,0:0:0:0:
256,192,143168,1,8,0:0:0:0:
256,192,143492,1,0,0:0:0:0:
256,192,143654,1,0,0:0:0:0:
256,192,143816,1,8,0:0:0:0:
256,192,143978,1,8,0:0:0:0:
256,192,144059,1,8,0:0:0:0:
256,192,144141,1,0,0:0:0:0:
256,192,144303,1,0,0:0:0:0:
256,192,144465,1,8,0:0:0:0:
256,192,144627,1,0,0:0:0:0:
256,192,144951,1,0,0:0:0:0:
256,192,145113,1,8,0:0:0:0:
256,192,145276,1,8,0:0:0:0:
256,192,145438,1,0,0:0:0:0:
256,192,145600,1,8,0:0:0:0:
256,192,145762,1,8,0:0:0:0:
256,192,145924,1,0,0:0:0:0:
256,192,146005,1,0,0:0:0:0:
256,192,146086,1,0,0:0:0:0:
256,192,146249,1,0,0:0:0:0:
256,192,146411,1,8,0:0:0:0:
256,192,146573,1,8,0:0:0:0:
256,192,146735,1,0,0:0:0:0:
256,192,146897,1,8,0:0:0:0:
256,192,146978,1,8,0:0:0:0:
256,192,147059,1,8,0:0:0:0:
256,192,147222,1,8,0:0:0:0:
256,192,147303,1,8,0:0:0:0:
256,192,147384,1,0,0:0:0:0:
256,192,147546,1,0,0:0:0:0:
256,192,147627,1,0,0:0:0:0:
256,192,147708,1,8,0:0:0:0:
256,192,147789,1,8,0:0:0:0:
256,192,147870,1,8,0:0:0:0:
256,192,148032,1,4,0:0:0:0:
256,192,148357,1,8,0:0:0:0:
256,192,148519,1,8,0:0:0:0:
256,192,148600,1,8,0:0:0:0:
256,192,148681,1,0,0:0:0:0:
256,192,148843,1,0,0:0:0:0:
256,192,149005,1,8,0:0:0:0:
256,192,149168,1,0,0:0:0:0:
256,192,149330,1,8,0:0:0:0:
256,192,149654,1,8,0:0:0:0:
256,192,149816,1,0,0:0:0:0:
256,192,149978,1,8,0:0:0:0:
256,192,150141,1,8,0:0:0:0:
256,192,150222,1,8,0:0:0:0:
256,192,150303,1,8,0:0:0:0:
256,192,150465,1,8,0:0:0:0:
256,192,150627,1,0,0:0:0:0:
256,192,150789,1,0,0:0:0:0:
256,192,150951,1,8,0:0:0:0:
256,192,151276,1,0,0:0:0:0:
256,192,151438,1,0,0:0:0:0:
256,192,151519,1,0,0:0:0:0:
256,192,151600,1,8,0:0:0:0:
256,192,151762,1,8,0:0:0:0:
256,192,151924,1,0,0:0:0:0:
256,192,152086,1,0,0:0:0:0:
256,192,152249,1,8,0:0:0:0:
256,192,152411,1,0,0:0:0:0:
256,192,152735,1,0,0:0:0:0:
256,192,152897,1,8,0:0:0:0:
256,192,153059,1,8,0:0:0:0:
256,192,153222,1,0,0:0:0:0:
256,192,153546,1,8,0:0:0:0:
256,192,153870,1,0,0:0:0:0:
256,192,154032,1,0,0:0:0:0:
256,192,154195,1,8,0:0:0:0:
256,192,154357,1,8,0:0:0:0:
256,192,154519,1,0,0:0:0:0:
256,192,154843,1,8,0:0:0:0:
256,192,155005,1,8,0:0:0:0:
256,192,155086,1,8,0:0:0:0:
256,192,155168,1,0,0:0:0:0:
256,192,155330,1,0,0:0:0:0:
256,192,155492,1,8,0:0:0:0:
256,192,155654,1,0,0:0:0:0:
256,192,155816,1,0,0:0:0:0:
256,192,156141,1,8,0:0:0:0:
256,192,156303,1,8,0:0:0:0:
256,192,156465,1,0,0:0:0:0:
256,192,156627,1,0,0:0:0:0:
256,192,156708,1,0,0:0:0:0:
256,192,156789,1,8,0:0:0:0:
256,192,156951,1,8,0:0:0:0:
256,192,157113,1,0,0:0:0:0:
256,192,157276,1,8,0:0:0:0:
256,192,157357,1,0,0:0:0:0:
256,192,157438,1,8,0:0:0:0:
256,192,157600,1,8,0:0:0:0:
256,192,157762,1,0,0:0:0:0:
256,192,157843,1,0,0:0:0:0:
256,192,157924,1,0,0:0:0:0:
256,192,158005,1,0,0:0:0:0:
256,192,158086,1,8,0:0:0:0:
256,192,158249,1,8,0:0:0:0:
256,192,158411,12,0,161005,0:0:0:0:
256,192,163600,12,0,168141,0:0:0:0:
256,192,168789,5,4,0:0:0:0:
256,192,169113,1,8,0:0:0:0:
256,192,169276,1,8,0:0:0:0:
256,192,169357,1,8,0:0:0:0:
256,192,169438,1,0,0:0:0:0:
256,192,169600,1,0,0:0:0:0:
256,192,169762,1,8,0:0:0:0:
256,192,169843,1,8,0:0:0:0:
256,192,169924,1,0,0:0:0:0:
256,192,170005,1,0,0:0:0:0:
256,192,170086,1,8,0:0:0:0:
256,192,170249,1,0,0:0:0:0:
256,192,170411,1,8,0:0:0:0:
256,192,170573,1,8,0:0:0:0:
256,192,170654,1,8,0:0:0:0:
256,192,170735,1,0,0:0:0:0:
256,192,170816,1,0,0:0:0:0:
256,192,170897,1,0,0:0:0:0:
256,192,170978,1,0,0:0:0:0:
256,192,171059,1,8,0:0:0:0:
256,192,171222,1,8,0:0:0:0:
256,192,171384,1,0,0:0:0:0:
256,192,171465,1,0,0:0:0:0:
256,192,171546,1,0,0:0:0:0:
256,192,171627,1,0,0:0:0:0:
256,192,171708,1,8,0:0:0:0:
256,192,171870,1,8,0:0:0:0:
256,192,171951,1,8,0:0:0:0:
256,192,172032,1,0,0:0:0:0:
256,192,172195,1,0,0:0:0:0:
256,192,172357,1,8,0:0:0:0:
256,192,172438,1,8,0:0:0:0:
256,192,172519,1,0,0:0:0:0:
256,192,172600,1,0,0:0:0:0:
256,192,172681,1,8,0:0:0:0:
256,192,172843,1,8,0:0:0:0:
256,192,172924,1,0,0:0:0:0:
256,192,173005,1,8,0:0:0:0:
256,192,173168,1,0,0:0:0:0:
256,192,173330,1,0,0:0:0:0:
256,192,173492,1,0,0:0:0:0:
256,192,173573,1,0,0:0:0:0:
256,192,173654,1,8,0:0:0:0:
256,192,173816,1,8,0:0:0:0:
256,192,173978,1,4,0:0:0:0:
256,192,174303,1,8,0:0:0:0:
256,192,174465,1,0,0:0:0:0:
256,192,174546,1,0,0:0:0:0:
256,192,174627,1,8,0:0:0:0:
256,192,174789,1,0,0:0:0:0:
256,192,174951,1,8,0:0:0:0:
256,192,175113,1,8,0:0:0:0:
256,192,175195,1,8,0:0:0:0:
256,192,175276,1,0,0:0:0:0:
256,192,175438,1,0,0:0:0:0:
256,192,175600,1,8,0:0:0:0:
256,192,175762,1,8,0:0:0:0:
256,192,175924,1,0,0:0:0:0:
256,192,176005,1,0,0:0:0:0:
256,192,176086,1,0,0:0:0:0:
256,192,176168,1,0,0:0:0:0:
256,192,176249,1,8,0:0:0:0:
256,192,176411,1,0,0:0:0:0:
256,192,176573,1,0,0:0:0:0:
256,192,176735,1,8,0:0:0:0:
256,192,176816,1,8,0:0:0:0:
256,192,176897,1,8,0:0:0:0:
256,192,177059,1,0,0:0:0:0:
256,192,177222,1,0,0:0:0:0:
256,192,177384,1,8,0:0:0:0:
256,192,177546,1,8,0:0:0:0:
256,192,177708,1,8,0:0:0:0:
256,192,177870,1,8,0:0:0:0:
256,192,177951,1,8,0:0:0:0:
256,192,178032,1,0,0:0:0:0:
256,192,178113,1,0,0:0:0:0:
256,192,178195,1,8,0:0:0:0:
256,192,178276,1,8,0:0:0:0:
256,192,178357,1,8,0:0:0:0:
256,192,178438,1,8,0:0:0:0:
256,192,178519,1,0,0:0:0:0:
256,192,178600,1,0,0:0:0:0:
256,192,178681,1,0,0:0:0:0:
256,192,178762,1,0,0:0:0:0:
256,192,178843,1,8,0:0:0:0:
256,192,179005,1,0,0:0:0:0:
256,192,179168,1,12,0:0:0:0:
256,192,179492,1,8,0:0:0:0:
256,192,179654,1,8,0:0:0:0:
256,192,179735,1,8,0:0:0:0:
256,192,179816,1,0,0:0:0:0:
256,192,179978,1,0,0:0:0:0:
256,192,180141,1,8,0:0:0:0:
256,192,180222,1,8,0:0:0:0:
256,192,180303,1,0,0:0:0:0:
256,192,180384,1,0,0:0:0:0:
256,192,180465,1,8,0:0:0:0:
256,192,180627,1,0,0:0:0:0:
256,192,180789,1,8,0:0:0:0:
256,192,180951,1,8,0:0:0:0:
256,192,181032,1,8,0:0:0:0:
256,192,181113,1,0,0:0:0:0:
256,192,181276,1,0,0:0:0:0:
256,192,181438,1,8,0:0:0:0:
256,192,181600,1,0,0:0:0:0:
256,192,181762,1,0,0:0:0:0:
256,192,181924,1,0,0:0:0:0:
256,192,182005,1,0,0:0:0:0:
256,192,182086,1,8,0:0:0:0:
256,192,182249,1,0,0:0:0:0:
256,192,182411,1,8,0:0:0:0:
256,192,182492,1,8,0:0:0:0:
256,192,182573,1,0,0:0:0:0:
256,192,182654,1,0,0:0:0:0:
256,192,182735,1,8,0:0:0:0:
256,192,182897,1,8,0:0:0:0:
256,192,182978,1,8,0:0:0:0:
256,192,183059,1,0,0:0:0:0:
256,192,183222,1,0,0:0:0:0:
256,192,183384,1,8,0:0:0:0:
256,192,183546,1,0,0:0:0:0:
256,192,183627,1,0,0:0:0:0:
256,192,183708,1,0,0:0:0:0:
256,192,183870,1,0,0:0:0:0:
256,192,184032,1,8,0:0:0:0:
256,192,184357,1,4,0:0:0:0:
256,192,184681,1,8,0:0:0:0:
256,192,184843,1,0,0:0:0:0:
256,192,184924,1,0,0:0:0:0:
256,192,185005,1,0,0:0:0:0:
256,192,185168,1,0,0:0:0:0:
256,192,185330,1,8,0:0:0:0:
256,192,185492,1,0,0:0:0:0:
256,192,185573,1,0,0:0:0:0:
256,192,185654,1,8,0:0:0:0:
256,192,185816,1,0,0:0:0:0:
256,192,185978,1,8,0:0:0:0:
256,192,186059,1,8,0:0:0:0:
256,192,186141,1,8,0:0:0:0:
256,192,186222,1,8,0:0:0:0:
256,192,186303,1,0,0:0:0:0:
256,192,186465,1,8,0:0:0:0:
256,192,186627,1,8,0:0:0:0:
256,192,186789,1,0,0:0:0:0:
256,192,186870,1,0,0:0:0:0:
256,192,186951,1,0,0:0:0:0:
256,192,187113,1,0,0:0:0:0:
256,192,187276,1,8,0:0:0:0:
256,192,187357,1,8,0:0:0:0:
256,192,187438,1,8,0:0:0:0:
256,192,187519,1,8,0:0:0:0:
256,192,187600,1,0,0:0:0:0:
256,192,187762,1,0,0:0:0:0:
256,192,187843,1,0,0:0:0:0:
256,192,187924,1,8,0:0:0:0:
256,192,188086,1,8,0:0:0:0:
256,192,188249,1,0,0:0:0:0:
256,192,188411,1,8,0:0:0:0:
256,192,188492,1,8,0:0:0:0:
256,192,188573,1,8,0:0:0:0:
256,192,188654,1,8,0:0:0:0:
256,192,188735,1,8,0:0:0:0:
256,192,188816,1,8,0:0:0:0:
256,192,188897,1,0,0:0:0:0:
256,192,188978,1,0,0:0:0:0:
256,192,189059,1,0,0:0:0:0:
256,192,189141,1,0,0:0:0:0:
256,192,189222,1,0,0:0:0:0:
256,192,189384,1,0,0:0:0:0:
256,192,189546,1,12,0:0:0:0:
256,192,189870,1,8,0:0:0:0:
256,192,190032,1,0,0:0:0:0:
256,192,190113,1,0,0:0:0:0:
256,192,190195,1,0,0:0:0:0:
256,192,190357,1,0,0:0:0:0:
256,192,190519,1,8,0:0:0:0:
256,192,190681,1,0,0:0:0:0:
256,192,190843,1,0,0:0:0:0:
256,192,191005,1,0,0:0:0:0:
256,192,191168,1,8,0:0:0:0:
256,192,191492,1,0,0:0:0:0:
256,192,191654,1,0,0:0:0:0:
256,192,191816,1,8,0:0:0:0:
256,192,191978,1,0,0:0:0:0:
256,192,192141,1,0,0:0:0:0:
256,192,192465,1,8,0:0:0:0:
256,192,192789,1,0,0:0:0:0:
256,192,192951,1,0,0:0:0:0:
256,192,193032,1,0,0:0:0:0:
256,192,193113,1,8,0:0:0:0:
256,192,193276,1,0,0:0:0:0:
256,192,193600,1,0,0:0:0:0:
256,192,193762,1,0,0:0:0:0:
256,192,193924,1,8,0:0:0:0:
256,192,194249,1,8,0:0:0:0:
256,192,194411,1,8,0:0:0:0:
256,192,194492,1,8,0:0:0:0:
256,192,194573,1,8,0:0:0:0:
256,192,194735,1,4,0:0:0:0:
256,192,195059,1,8,0:0:0:0:
256,192,195384,1,0,0:0:0:0:
256,192,195546,1,0,0:0:0:0:
256,192,195627,1,0,0:0:0:0:
256,192,195708,1,8,0:0:0:0:
256,192,195870,1,8,0:0:0:0:
256,192,196032,1,0,0:0:0:0:
256,192,196195,1,0,0:0:0:0:
256,192,196357,1,8,0:0:0:0:
256,192,196519,1,8,0:0:0:0:
256,192,196600,1,8,0:0:0:0:
256,192,196681,1,0,0:0:0:0:
256,192,196843,1,0,0:0:0:0:
256,192,197005,1,8,0:0:0:0:
256,192,197330,1,4,0:0:0:0:
256,192,197816,1,4,0:0:0:0:
256,192,198303,1,4,0:0:0:0:
256,192,199600,1,0,0:0:0:0:
256,192,199681,1,0,0:0:0:0:
256,192,199762,1,0,0:0:0:0:
256,192,199843,1,0,0:0:0:0:
256,192,199924,1,8,0:0:0:0:
